
//----- song ID: basa -----//
#TITLE:伐折羅-vajra-;
#ARTIST:DJ TOTTO VS 兎々;
#TITLETRANSLIT:Vajra;
#ARTISTTRANSLIT:DJ TOTTO VS Totto;
#BANNER:Vajra.png;
#BACKGROUND:Vajra-bg.png;
#CDTITLE:./CDTitles/RB groovin'!! Upper.png;
#MUSIC:Vajra.ogg;
#SAMPLESTART:80.463;
#SAMPLELENGTH:15;
#DISPLAYBPM:86:173;
#BPMS:0=86.5,38=173,102=86.5,134=173,262=86.5;
#STAGE:31;
#NOTES:
     dance-single:
     :
     Beginner:
     3:
     :
0000
0000
0000
0000
,
0000
0000
0000
0000
,
0000
0000
0000
0000
,
0000
0000
0000
0000
,
0000
0000
0000
0000
,
0001
0010
0001
0000
,
0001
0100
0001
0000
,
1000
0010
1000
0000
,
1000
0100
1000
0000
,
1001
0000
0001
0000
,
0001
0000
0010
0000
,
0000
0000
0001
0000
,
0100
0000
0010
0000
,
0000
0000
0010
0000
,
0010
0000
1000
0000
,
0000
0000
1001
0000
,
0000
0000
0000
0000
,
0000
0000
1000
0000
,
1000
0000
0100
0000
,
0000
0000
1000
0000
,
0010
0000
0100
0000
,
0000
0000
0100
0000
,
0100
0000
0001
0000
,
0000
0000
1001
0000
,
0000
0000
0000
0000
,
0000
0000
0002
0000
,
0003
0000
0020
0000
,
0030
0000
0200
0000
,
0300
0000
2000
0000
,
3000
0000
1000
1000
,
0010
0000
0100
0100
,
0010
0000
1000
0100
,
0001
0000
0001
0001
,
0010
0000
1001
0000
,
0000
0000
0000
0000
,
0000
0000
1001
0000
,
0000
0000
0000
0000
,
0000
0000
1000
0000
,
0010
0000
0010
0000
,
1000
0000
0200
0000
,
0000
0000
0300
0000
,
0000
0000
0001
0000
,
0100
0000
0001
0000
,
0000
0000
0001
0000
,
0001
0000
0010
0000
,
0000
0000
0001
0000
,
0010
0000
1000
0000
,
0000
0000
0010
0000
,
0000
0000
1001
0000
,
0000
0000
1000
0000
,
0010
0000
1000
0000
,
0000
0000
1000
0000
,
1000
0000
0100
0000
,
0000
0000
1000
0000
,
0100
0000
0001
0000
,
0000
0000
0100
0000
,
0000
0000
1001
0000
,
0000
0000
0001
0000
,
0001
0000
0010
0000
,
0100
0000
0020
0000
,
0000
0000
0030
0000
,
0000
0000
1000
0000
,
1000
0000
0010
0000
,
0100
0000
0020
0000
,
0000
0000
0030
0000
,
0000
0000
1001
0000
,
0000
0000
0000
0000
;
#NOTES:
     dance-single:
     :
     Easy:
     7:
     :
0000
0000
0000
0000
,
0000
0000
0000
0000
,
0000
0000
0000
0000
,
0000
0000
0000
0000
,
0000
0000
0000
0000
,
0001
0001
0100
0000
0001
0001
0100
0000
,
1000
1000
0100
0000
1000
1000
0100
0000
,
0001
0001
0010
0000
0001
0001
0010
0000
,
1000
1000
0010
0000
1000
1000
0010
0000
,
1001
0000
1000
0100
,
1000
0100
0010
0001
,
0010
0001
0010
0000
0001
0000
0100
0000
,
0001
0100
0010
1000
,
1001
0000
0001
0010
,
0001
0010
0100
1000
,
0100
1000
0100
0000
1000
0000
0010
0000
,
1000
0000
0010
0000
0100
0001
0100
0000
,
0001
0000
0001
1000
,
0100
0010
0001
1000
,
0010
0100
0010
0000
1000
0000
0001
0000
,
0010
0100
1000
0001
,
1000
0000
0001
0100
,
0010
1000
0010
0000
0100
0000
0001
0000
,
0010
0001
0010
0000
0001
0000
0001
0000
,
1000
1000
0100
0100
,
0100
0000
0000
0000
2000
0000
0000
3000
,
0200
0000
0000
0300
0020
0000
0000
0030
,
0002
0000
0000
0003
0002
0000
0000
0003
,
0200
0000
0000
0300
0020
0000
0000
0030
,
2000
0000
0000
3000
0001
0010
0001
0000
,
0001
0100
0001
0000
1000
0010
1000
0000
,
1000
0100
1000
0000
0001
0100
0010
0000
,
1000
0100
0010
0000
0001
0010
0100
0000
,
1000
0010
0100
0000
0110
0000
0000
0000
,
0000
0000
0000
0000
,
0000
0000
1001
0000
,
0000
0000
0000
0000
,
0000
0000
0001
0010
,
0100
1000
0001
0010
,
0100
1000
0002
0000
,
0000
0000
0003
0000
,
0000
0000
1000
0010
,
0100
0010
1000
0100
,
0010
0001
1000
0001
,
0100
0000
0010
0000
1000
0001
1000
0000
,
0100
0100
1000
0100
,
0010
0000
0001
0000
0100
0010
0100
0000
,
0010
0100
0010
0000
1000
0000
1000
0000
,
0001
0001
1001
0110
,
1001
0000
0001
0100
,
0010
0100
0001
0010
,
0100
1000
0001
1000
,
0010
0000
0100
0000
0001
1000
0001
0000
,
0010
0010
0001
0010
,
0100
0000
1000
0000
0010
0100
0010
0000
,
0100
0010
0100
0000
0001
0000
0001
0000
,
1000
1000
1001
0110
,
1001
0000
1000
0100
,
0011
0000
0001
0100
,
1010
0000
1000
1000
,
0001
0000
0001
0000
0100
0010
0100
0010
,
0100
0000
0001
0010
,
1100
0000
1000
0010
,
0101
0000
0000
0000
1000
0100
1000
0000
,
0001
0010
0100
0000
1000
0000
0010
0100
,
0010
0000
2002
0000
,
0000
0000
3003
0000
,
0000
0000
0000
0000
;
#NOTES:
     dance-single:
     :
     Medium:
     12:
     :
0000
0000
0000
0000
,
0000
0000
0000
0000
,
0000
0000
0000
0000
,
0000
0000
0000
0000
,
0000
0000
0000
0000
,
0010
0010
1001
0000
0010
0010
1001
0000
,
0100
0100
1001
0000
0100
0100
1001
0000
,
0001
0001
0110
0000
0001
0001
0110
0000
,
1000
0000
0000
1000
0000
0000
1000
0000
0000
1000
0000
0000
1000
0000
0000
0000
,
1001
0000
0001
0100
,
0010
1000
0100
0000
0010
0000
0001
0000
,
0100
0010
1000
0000
0001
0000
0010
0000
,
0100
0010
0001
0000
1000
0100
0010
0000
,
0001
1001
1000
0100
,
0010
0001
0100
0000
0010
0000
1000
0000
,
0100
0010
0001
0000
1000
0000
0010
0000
,
0100
0000
0010
0000
1000
0000
0000
0000
0001
0000
0100
0000
0010
0000
0000
1000
,
0000
1000
0000
0000
0001
0000
0000
0000
0001
0000
0100
0000
0001
0000
0100
0000
,
0010
1000
0010
0000
1000
0100
1000
0100
,
0010
0001
0010
0000
0001
1000
0010
0100
,
0001
1000
0100
0000
1000
0010
0100
0010
,
1000
0000
0110
0000
0001
0010
1000
0010
,
0002
0000
0003
0000
1000
0010
0001
0010
,
2000
0000
3000
0000
0001
0100
0010
1000
,
0001
0100
0010
1000
0001
0001
1000
1000
,
2002
0000
3003
0000
0001
0100
1010
0000
,
1000
0100
0011
0000
0001
0010
1100
0000
,
1000
0000
0000
0010
0000
0000
0101
0000
0000
0000
0000
0000
0001
0000
0001
1000
0000
1000
0200
0000
0000
0300
0000
0000
,
1000
0000
1000
0001
0000
0001
0200
0000
0000
0300
0000
0000
0001
0000
0001
1000
0000
1000
0020
0000
0000
0030
0000
0000
,
1000
0000
1000
0001
0000
0001
0020
0000
0000
0030
0000
0000
0001
0000
0000
1001
0000
0000
1000
0000
1000
0010
0000
0000
,
0100
0000
0000
0110
0000
0000
0010
0000
0010
1000
0000
0000
0001
0000
0000
0101
0000
0000
0100
0000
0100
0010
0000
0000
,
1000
0000
0000
1100
0000
0000
0100
0000
0100
0010
0000
0000
0001
0000
0000
1001
0000
0000
1000
0100
0010
0001
0000
0000
,
1000
0000
0000
1001
0000
0000
0001
0010
0100
1000
0000
0000
0001
0000
0000
1001
0000
0000
1000
0010
0100
0001
0000
0000
,
1000
0000
1000
0100
0000
0100
0010
0000
0010
0001
0000
0001
2000
0000
0000
0000
0000
0000
0000
0000
0000
0000
0000
0000
,
0000
0000
0000
0000
,
0000
0000
0000
0000
,
0000
0000
3000
0000
,
0000
0000
0000
0000
1000
0100
0010
0001
,
0000
1000
0100
0010
0000
0001
0100
0001
,
1000
0001
1000
0000
0001
0010
0100
1000
,
0001
0010
0100
1000
0002
0000
0000
0000
,
2000
0000
3003
0000
0001
0010
0100
1000
,
0001
0100
1000
0100
0001
0010
0100
1000
,
0001
0100
1000
0100
0001
0010
0100
0001
,
0100
0010
0001
1000
0100
0100
0100
0000
,
1100
0000
0011
0000
1000
0000
0010
0100
,
0010
1000
0001
0010
0100
1000
0001
0000
,
0101
0000
1100
0000
1000
0010
0001
0000
,
0001
0010
1000
0000
0002
0000
0000
0000
,
1000
1000
1003
0000
1000
0010
0100
0001
,
1000
0100
0001
0100
1000
0010
0100
0001
,
1000
0100
0001
0100
1000
0010
0100
1000
,
0100
0010
1000
0001
0100
0100
0100
0000
,
0101
0000
1010
0000
0001
0000
0010
0100
,
0010
0001
1000
0010
0100
0001
1000
0000
,
1100
0000
0101
0000
0001
0010
1000
0000
,
1000
0010
0001
0000
2000
0000
0000
0000
,
0001
0001
3001
0000
1000
0100
1000
0100
,
0001
0100
1000
0000
0001
0100
0001
0100
,
1000
0100
0001
0000
1000
0010
1000
0010
,
0001
0010
1000
0000
0001
0010
1000
0010
,
0001
0000
1001
0000
1000
0010
0100
0001
,
0010
0100
1000
0000
0001
0100
0010
1000
,
0100
0010
0001
0000
1000
0100
0001
0000
,
0001
0100
1000
0000
0001
0100
1000
0100
,
0010
0100
0001
0000
2002
0000
0000
0000
,
0000
0000
3003
0000
,
0000
0000
0000
0000
;
#NOTES:
     dance-single:
     :
     Hard:
     16:
     :
0000
0000
0000
0000
,
0000
0000
0000
0000
,
0000
0000
0000
0000
,
0000
0000
0000
0000
,
0000
0000
0000
0000
,
0011
0010
1001
0000
1010
0010
1001
0000
,
0101
0100
1001
0000
1100
0100
1001
0000
,
0101
1000
1010
0000
1100
0001
0011
0000
,
1000
0100
0000
1000
0100
0000
0010
0001
0000
0010
0001
0000
1000
0000
0001
0000
,
2002
0000
0000
0000
3003
0000
0000
0000
1000
0100
0010
0000
0001
0000
0000
0000
,
0100
0001
1000
0001
0000
0100
0001
0000
0010
0100
1000
0000
0001
0000
0000
0000
,
0010
0100
1000
0100
0000
0010
0100
0000
1000
0010
0100
0000
0001
0000
0000
0000
,
0010
0001
1000
0001
0000
0010
0001
0000
0100
0010
0100
0000
0001
1000
0001
0100
,
0001
0000
0001
0000
1000
0000
1000
0000
0001
0010
0100
0000
1000
0000
0000
0000
,
0010
1000
0001
1000
0000
0010
1000
0000
0100
0010
0001
0000
1000
0000
0000
0000
,
0100
0010
0001
0010
0000
0100
0010
0000
0001
0100
0010
0000
1000
0000
0000
0000
,
0100
1000
0001
0000
1000
0001
1000
0000
0001
0000
0010
0000
0011
0000
0000
0001
,
0000
1001
0000
0000
1000
0000
0010
0000
1000
0001
0100
0001
1000
0000
0000
0000
,
0001
0010
0100
1000
0000
0100
0010
0001
0100
0010
1000
0010
0100
0000
0000
0000
,
0001
0100
0010
0000
1000
0100
0010
0000
0001
0100
0010
0100
0001
0000
0000
0000
,
1000
0010
0100
0001
0000
0100
0010
1000
0001
0010
0001
0000
1000
0100
1000
0000
,
0010
0000
0100
0010
0000
0100
0010
0000
1000
0100
0010
0001
1000
0000
0000
0000
,
0001
0100
0001
0100
0010
1000
0010
1000
0001
0010
0100
1000
0001
0000
0000
0000
,
1000
0100
1000
0100
0010
0001
0010
0001
1000
0000
1000
0000
0010
0000
0010
0000
,
0100
0001
0100
0001
0010
0001
0010
0000
0001
0000
0001
0000
1000
0000
1000
0000
,
2002
0000
0000
0000
0000
0000
3003
0000
0000
0000
0000
0000
0001
0000
0001
0100
0000
0100
0010
1000
0010
1000
0010
1000
,
0100
0000
0100
0010
0000
0010
0001
0100
0001
0100
0001
0100
0001
0000
0001
1000
0000
1000
0100
0010
0100
0010
0100
0010
,
0100
0000
0100
1000
0000
1000
0010
0100
0010
0100
0000
0000
0001
0000
0001
0100
0000
0100
1000
0100
1000
0100
0001
0100
,
0001
0000
0001
0010
0000
0010
1000
0010
1000
0010
0001
0010
0001
0000
0001
0100
0000
0100
1000
0000
1000
0010
0000
0010
,
0001
0010
0100
1000
0100
0010
0001
1000
0100
0010
0000
0000
0001
0000
0000
1000
0000
0000
0110
0000
0000
0000
0000
0000
,
1000
0001
0110
0000
0100
0010
1001
0000
,
0010
0100
1001
0000
0101
0100
1010
0000
,
1100
0000
0000
0100
0000
0000
0011
0000
0000
0000
0000
0000
1000
0000
1000
0100
0000
0100
0001
0000
0001
0010
0000
0010
,
1000
0010
1000
0001
0100
0001
0010
0001
0010
0100
1000
0100
0020
0000
0000
0000
0000
0000
0000
0000
0000
0000
0000
0000
,
0000
0000
0000
0000
0000
0000
0000
0000
0031
1000
0001
1000
0001
1000
0001
1000
,
0001
1000
0001
1000
0001
1000
0001
1000
0020
0000
0000
0000
0000
0000
0000
0000
,
0000
0000
0000
0000
0000
0000
0000
0000
1030
0001
1000
0001
1000
0001
1000
0001
,
1000
0001
1000
0001
1000
0001
1000
0001
0020
0000
0000
0000
0000
0000
0000
0000
,
0000
0000
0000
0000
0000
0000
0000
0000
0031
0000
0100
0010
1000
0000
0100
0010
,
0001
0000
0100
0010
1000
0000
0100
0010
0001
0010
0001
0010
0100
1000
0100
0000
,
1000
0010
1000
0010
0100
0001
0100
0000
0002
0000
0000
0000
0000
0000
0000
0000
,
2003
0000
0000
0000
0000
0000
0000
0000
3001
0000
0010
0100
1000
0000
0100
0010
,
0001
0000
0100
0010
1000
0000
0010
0100
0001
0000
1000
0001
0010
0000
0100
0010
,
0001
0000
1000
0010
0100
0000
0010
1000
0001
0000
0010
0100
1000
0000
0010
0100
,
0001
0000
0100
0010
1000
0000
0100
0010
0001
0000
1000
0000
1001
0000
0000
0000
,
0001
0100
0001
0000
1000
0000
1000
0000
0010
0000
0100
0010
1000
0000
0100
0010
,
0001
0000
0100
0001
0010
0000
0100
1000
0010
0000
0100
1000
0100
0000
0010
1000
,
0001
0000
0010
0100
0010
0000
0001
1000
0100
0000
0001
0100
0001
0000
0100
0010
,
0001
0000
0010
0100
1000
0000
0001
0100
0010
0000
0010
0000
1000
0000
1000
0000
,
0001
0100
0001
0000
1000
0000
0001
0000
1000
0000
0100
0010
0001
0000
0010
0100
,
1000
0000
0010
0100
0001
0000
0100
0010
1000
0000
0001
1000
0100
0000
0010
0100
,
1000
0000
0001
0100
0010
0000
0100
0001
1000
0000
0100
0010
0001
0000
0100
0010
,
1000
0000
0010
0100
0001
0000
0010
0100
1000
0000
0001
0000
1001
0000
0000
0000
,
1000
0010
1000
0000
0001
0000
0001
0000
0100
0000
0010
0100
0001
0000
0010
0100
,
1000
0000
0010
1000
0100
0000
0010
0001
0100
0000
0010
0001
0010
0000
0100
0001
,
1000
0000
0100
0010
0100
0000
1000
0001
0010
0000
1000
0010
1000
0000
0010
0100
,
1000
0000
0100
0010
0001
0000
1000
0010
0200
0000
0000
0000
0000
0000
0000
0000
,
0000
0000
0000
0000
0300
0000
0000
0000
0001
0100
0010
1000
0000
0001
0000
1000
,
0000
0000
0000
1000
0000
0100
0000
0010
0001
0010
0100
1000
0000
0001
0000
1000
,
0000
0000
0000
1000
0000
0010
0100
0010
1000
0100
0010
0001
0000
0100
0000
0010
,
0000
0000
0000
0010
0000
1000
0000
0001
0100
0001
0000
1000
0000
0100
0010
0100
,
0010
0000
0001
0100
0001
0000
1000
0100
1000
0100
0010
0001
0000
1000
0000
0001
,
0000
0000
0000
0001
0000
0100
0000
0010
1000
0010
0100
0001
0000
1000
0000
0001
,
0000
0000
0000
0001
0000
0010
0100
0010
0001
0100
0010
1000
0010
0100
0001
0000
,
1000
0100
0010
0001
1000
0100
0010
0000
0001
0100
0001
0100
0010
1000
0010
1000
,
0100
0010
0100
0010
0100
0000
0010
0000
2002
0000
0000
0000
0000
0000
0000
0000
,
0000
0000
3003
0000
,
0000
0000
0000
0000
;
#NOTES:
     dance-single:
     :
     Challenge:
     18:
     :
0000
0000
0000
0000
,
0000
0000
0000
0000
,
0000
0000
0000
0000
,
0000
0000
0000
0000
,
0000
0000
0000
0000
,
0011
0000
0000
0000
0101
0000
0000
0000
0100
0010
0100
0010
1000
0010
1000
0010
1000
0000
0000
0000
1010
0000
0000
0000
0010
0100
0010
0100
0001
0100
0001
0100
,
0001
0000
0000
0000
0011
0000
0000
0000
0001
0010
0001
0010
0100
1000
0100
1000
0100
0000
0000
0000
0110
0000
0000
0000
0010
0001
0010
0001
1000
0010
1000
0010
,
1000
0000
0000
0000
1010
0000
0000
0000
1000
0010
0100
0010
1000
0010
0100
0010
1000
0000
0000
0000
1001
0000
0000
0000
0001
0010
0100
0010
0001
0010
0100
0010
,
0001
0000
0000
0101
0000
0000
0000
0000
0000
1000
0000
0000
1100
0000
0000
0000
0000
0000
0010
0000
0000
1010
0000
0000
0000
0000
0000
0010
0000
0000
0011
0000
0000
0001
0100
0010
1000
0000
0000
0100
0000
0000
0010
0000
0000
0001
0000
0000
,
1001
0000
0000
0000
0000
0000
0000
0000
1000
0100
0010
0001
1000
0100
0010
0001
1000
0000
0100
0000
0010
0000
0100
0000
1000
0000
0000
0000
0001
0000
0100
0000
,
0010
1000
0010
1000
0100
0010
0100
0010
0001
0010
0100
0010
0001
0000
1000
0010
,
0100
0001
0100
0001
1000
0010
1000
0010
0100
0001
1000
0100
0010
0000
0001
0100
,
0010
1000
0001
1000
0010
0100
0001
0100
0010
1000
0001
0000
0010
0001
1000
0001
,
0010
0100
1000
0000
1100
0000
1001
0000
0001
0010
0100
0010
0001
0000
1000
0010
,
0100
0001
0100
0001
0010
0100
0010
0100
1000
0100
0010
0100
1000
0000
0001
0100
,
0010
1000
0010
1000
0001
0100
0001
0100
0010
1000
0001
0010
0100
0000
1000
0010
,
0100
0001
1000
0001
0100
0010
1000
0010
0100
0000
0101
0000
1010
0000
0000
1100
,
0000
0011
0000
0000
0110
0000
1001
0000
1000
0100
0010
0100
0001
0000
0100
0010
,
0001
0100
0010
0001
0010
0100
0010
1000
0001
0100
0010
0100
1000
0000
0100
0010
,
1000
0100
0010
1000
0010
0100
0010
0001
1000
0100
0010
0001
1000
0000
0010
0001
,
0010
0100
0001
1000
0100
0010
0100
1000
0001
0100
1000
0000
0001
0010
1000
0010
,
0100
0010
0100
0000
0110
0000
1001
0000
0001
0100
1000
0100
0001
0000
0000
0000
,
1000
0100
0001
0100
1000
0010
0001
0010
1000
0001
0100
1000
0100
0000
0000
0000
,
0001
0010
1000
0010
0001
0100
1000
0100
0001
0010
0100
1000
0001
0010
0100
1000
,
0001
0000
0010
0000
0001
0000
0010
0000
0000
0001
0000
0000
0010
0000
0000
0100
0000
0000
1000
0000
0000
0100
0000
0000
1000
0000
0000
0010
0000
0000
0100
0000
0000
0001
0000
0000
0100
0000
0000
0010
0000
0000
1000
0000
0000
0001
0000
0000
,
0200
0000
0000
0000
0000
0000
0000
0000
0000
0000
0000
0000
0301
1000
0001
0100
0010
0100
0001
0010
0100
1000
0100
0010
,
0001
0100
0001
1000
0010
1000
0100
0010
0001
0010
0100
1000
0001
0100
0001
1000
0100
1000
0001
0100
0010
1000
0100
0010
,
0001
1000
0001
0100
0010
0100
0001
0010
0100
0110
0000
0000
1000
0001
1000
0010
0100
0010
1000
0100
0010
0001
0010
0100
,
1000
0010
1000
0001
0100
0001
0010
0100
1000
0100
0010
0001
1000
0010
1000
0001
0010
0001
1000
0010
0100
0001
0010
0100
,
1000
0001
1000
0010
0100
0010
1000
0100
0010
0110
0000
0000
1100
1000
0001
0101
0100
0001
1000
0100
0001
0100
1000
0001
,
0011
0010
0001
1001
1000
0010
0100
1000
0100
0001
0010
0100
0110
0010
0001
1001
1000
0010
0100
0001
0100
0010
1000
0010
,
1010
1000
0001
0101
0100
0001
0010
0100
0010
0001
0000
0000
0011
0001
1000
1010
0010
1000
0001
0010
1000
0010
0001
1000
,
1100
0100
1000
1001
0001
0100
0010
0001
0010
1000
0100
0010
0110
0100
1000
1001
0001
0100
0010
1000
0010
0100
0001
0100
,
0001
0010
0100
1000
0010
0100
0001
0100
0010
1000
0100
0010
0002
0000
0000
0000
0000
0000
0000
0000
0000
0000
0000
0000
,
0000
0000
0000
0000
,
0000
0000
0003
0000
0001
0100
0010
1000
,
0000
0010
0100
0020
0000
0000
0000
0000
,
0000
0000
0000
0000
0030
0000
0000
0000
1000
0100
1000
0100
1000
0100
1000
0100
,
1000
0100
1000
0100
1000
0100
1000
0100
0010
0001
0010
0001
0010
0001
0010
0001
,
0010
0001
0010
0001
0010
0001
0010
0001
0100
0010
0100
0010
1000
0001
0010
0100
,
1000
0010
1000
0010
0100
0001
1000
0100
0020
0000
0000
0000
0000
0000
0000
0000
,
0002
0000
0000
0000
0033
0000
0000
0000
0001
0010
0100
1000
0001
0010
0100
1000
,
0100
0010
0001
1000
0100
0010
0001
1000
0001
0100
0010
1000
0001
0100
0010
1000
,
0010
0100
0001
1000
0010
0100
0001
1000
0100
0010
0001
1000
0100
1000
0001
0010
,
0100
1000
0001
0010
0100
1000
0001
0100
0001
0000
0001
0000
1001
0000
0000
0000
,
1000
0100
2000
0000
0010
0000
3010
0000
1000
0100
0010
0100
1000
0001
0100
0010
,
0100
0001
1000
0100
0010
0001
0100
0001
0010
0100
1000
0001
0100
0010
1000
0001
,
1000
0010
0100
0001
1000
0100
0010
0001
1000
0100
1000
0100
0001
0100
0001
0100
,
1000
0010
1000
0010
0001
0010
0001
0010
1000
0000
1000
0000
0001
0000
0001
0000
,
0100
0010
0100
0000
0110
0000
1001
0000
0001
0100
0010
0100
1000
0100
0010
0100
,
0001
0010
0100
1000
0100
0010
0001
1000
0100
0010
0100
0001
0100
0010
0100
1000
,
0001
0010
0100
1000
0100
0010
0001
1000
0010
0100
0010
0001
0010
0100
0010
1000
,
0010
0100
0001
0010
0100
1000
0010
0100
0001
0000
0001
0000
1001
0000
0000
0000
,
0001
0000
0001
0000
1000
0000
1000
0000
0001
0100
0001
0100
0001
0010
1000
0010
,
1000
0010
0001
1000
0100
0001
0100
0001
0100
1000
0001
0010
0001
0010
1000
0010
,
0001
1000
0100
0010
0001
1000
0100
0010
0002
0000
0000
0000
0000
0000
0000
0000
,
1003
0000
0000
0000
0000
0000
0000
0000
0000
0000
0000
0000
0010
0000
1000
0000
0010
0000
0100
0000
0000
0001
0000
0000
0100
0000
0000
0000
0000
0000
0000
0000
0000
0000
0000
0000
0000
0000
0000
0000
0000
0000
0100
0000
0000
0001
0000
0000
,
0010
0000
0100
0000
1000
0000
0001
0000
1000
0010
1000
0010
0100
0001
0100
0001
,
0000
1000
0100
1000
0010
1000
0100
1000
0100
0010
0001
0100
0010
1000
0010
0100
,
0000
0001
0010
0001
0100
0001
0010
0001
0100
0010
1000
0001
0100
0010
0100
0001
,
0000
1000
0100
0010
1000
0010
0001
0010
0100
1000
0000
1000
0001
0010
0000
0010
,
0001
0000
0000
0000
0000
0000
1000
0000
0010
0000
1000
0000
0010
0000
0000
0000
0000
0000
0100
0000
0001
0000
0100
0000
0001
0000
0000
0100
0000
0000
0010
0000
0000
1000
0000
0000
0100
0000
0000
1000
0000
0000
0001
0000
0000
0010
0000
0000
,
0000
0100
1000
0010
0001
0010
1000
0010
0100
0001
1000
0100
1000
0001
0010
0100
,
0000
0000
0000
1000
0000
0000
0001
0000
0000
0100
0000
0000
1000
0000
0000
0100
0000
0000
0001
0000
0000
0100
0000
0000
0010
0000
1000
0000
0010
0000
1000
0000
0000
0001
0000
0000
0100
0000
0000
0001
0000
0000
0010
0000
0000
0100
0000
0000
,
1000
0000
0001
0000
1000
0000
0001
0000
0000
0010
0000
0000
0001
0000
0000
0100
0000
0000
0010
0000
0000
1000
0000
0000
0001
0000
0010
0000
0001
0000
0010
0000
0000
0100
0000
0000
1000
0000
0100
0000
1000
0000
0100
0000
0000
0010
0000
0000
,
0001
0000
0000
0100
0000
0000
0010
0000
0000
1000
0000
0000
0001
0000
1000
0000
0001
0000
1000
0000
0001
0000
1000
0000
0002
0000
0000
0000
0000
0000
0000
0000
0000
0000
0000
0000
0000
0000
0000
0000
0000
0000
0000
0000
0000
0000
0000
0000
,
0000
0000
0000
0000
0000
0000
0000
0000
0000
0000
0000
0000
0000
0000
1003
0100
0002
0000
0000
0000
0000
0000
0000
0000
0000
0000
0000
0000
0000
0000
0000
0000
,
0000
0000
0003
0000
,
0000
0000
0000
0000
;
#NOTES:
     dance-double:
     :
     Easy:
     7:
     :
00000000
00000000
00000000
00000000
,
00000000
00000000
00000000
00000000
,
00000000
00000000
00000000
00000000
,
00000000
00000000
00000000
00000000
,
00000000
00000000
00000000
00000000
,
00000001
00000001
00000010
00000000
00000001
00000001
00000100
00000000
,
00000010
00000010
00010000
00000000
00001000
00001000
00010000
00000000
,
00010000
00010000
00001000
00000000
00100000
00100000
00001000
00000000
,
00100000
00100000
00010000
00000000
01000000
01000000
00100000
00000000
,
01100000
00000000
10000000
01000000
,
00100000
00010000
10000000
01000000
,
00100000
00010000
00100000
00000000
00001000
00000000
00010000
00000000
,
00001000
00010000
00000100
00001000
,
00000010
00000000
00000010
00001000
,
00000001
00000100
00000010
00001000
,
00000001
00000100
00000001
00000000
00000010
00000000
00000100
00000000
,
00001000
00000100
00010000
00010000
,
00011000
00000000
00001000
00100000
,
00010000
01000000
00001000
00100000
,
00010000
01000000
00010000
00000000
00100000
00000000
01000000
00000000
,
10000000
00100000
01000000
00010000
,
10010000
00000000
10000000
01000000
,
00100000
01000000
00100000
00000000
00010000
00000000
00100000
00000000
,
00001000
00010000
00001000
00000000
00010000
00000000
00010000
00000000
,
00000010
00000010
00000100
00000100
,
00000100
00000000
00000002
00000003
,
00000200
00000300
00002000
00003000
,
00011000
00000000
20000000
30000000
,
02000000
03000000
00020000
00030000
,
00011000
00000000
00000000
00000000
00001000
00000010
00001000
00000000
,
00001000
00010000
00001000
00000000
00010000
00100000
00010000
00000000
,
00010000
00001000
00010000
00000000
00000100
00010000
00001000
00000000
,
01000000
00001000
00010000
00000000
00000010
00010000
00001000
00000000
,
00100000
00001000
00010000
00000000
00011000
00000000
00000000
00000000
,
00000000
00000000
00000000
00000000
,
00000000
00000000
00011000
00000000
,
00000000
00000000
00000000
00000000
,
00000000
00000000
00001000
00100000
,
00010000
01000000
00010000
00100000
,
01000000
10000000
00020000
00000000
,
00000000
00000000
00030000
00000000
,
00000000
00000000
10000000
00100000
,
01000000
00010000
10000000
01000000
,
00100000
00010000
01000000
00001000
,
00010000
00001000
00000010
00000001
,
00001000
00000001
00001000
00000000
00000001
00000000
00000001
00000000
,
00000100
00000100
00001000
00010000
,
00001000
00010000
00001000
00000000
00010000
00000000
00001000
00000000
,
00000010
00000001
00002000
00000001
,
00003001
00000000
00000001
00000010
,
00000100
00001000
00000001
00000100
,
00000010
00001000
00000100
00010000
,
00001000
00010000
00100000
10000000
,
00010000
10000000
00010000
00000000
10000000
00000000
10000000
00000000
,
01000000
01000000
00010000
00001000
,
00010000
00001000
00010000
00000000
00001000
00000000
00010000
00000000
,
00100000
10000000
00020000
10000000
,
10030000
00000000
10000000
00100000
,
10000000
10000000
00010000
00100000
,
00010000
00010000
10000000
01000000
,
00010000
00000000
00001000
00000000
00000010
00000000
00000100
00000010
,
00000100
00000110
00000001
00000010
,
00000001
00000001
00001000
00000010
,
00001000
00000000
00001000
00000000
00000001
00000100
00000001
00000000
,
00001000
00000100
00001000
00000000
00000100
00000000
00010000
00001000
,
00010000
00000000
00022000
00000000
,
00000000
00000000
00033000
00000000
,
00000000
00000000
00000000
00000000
;
#NOTES:
     dance-double:
     :
     Medium:
     12:
     :
00000000
00000000
00000000
00000000
,
00000000
00000000
00000000
00000000
,
00000000
00000000
00000000
00000000
,
00000000
00000000
00000000
00000000
,
00000000
00000000
00000000
00000000
,
00000001
00000001
00000110
00000000
00001000
00001000
00000110
00000000
,
00001000
00001000
00011000
00000000
00010000
00010000
00011000
00000000
,
00010000
00010000
01100000
00000000
10000000
10000000
01100000
00000000
,
10000000
00000000
00000000
10000000
00000000
00000000
00010000
00000000
00000000
00010000
00000000
00000000
00001000
00000000
00000000
00000000
,
00011000
00000000
00001000
00010000
,
00000100
00000010
00000100
00000000
00000010
00000000
00000001
00000000
,
00000100
00000010
00000100
00000000
00000001
00000000
00000100
00000000
,
00001000
00010000
00001000
00000000
00010000
00001000
00010000
00000000
,
00011000
00011000
00001000
01000000
,
00100000
01000000
00100000
00000000
10000000
00000000
01000000
00000000
,
00100000
01000000
00100000
00000000
00010000
00000000
10000000
00000000
,
01000000
00000000
00100000
00000000
00010000
00000000
00000000
00000000
00100000
00000000
00001000
00000000
00010000
00000000
00000000
00001000
,
00000000
00001000
00000000
00000000
00010000
00000000
00000000
00000000
00001000
00000000
00010000
00000000
00001000
00000000
00010000
00000000
,
00000010
00001000
00000010
00000000
00001000
00000100
00001000
00000100
,
00000010
00000001
00000010
00000000
00000001
00000100
00000010
00001000
,
00000010
00000100
00000001
00000000
00000100
00000010
00001000
00000010
,
00010000
00000000
00011000
00000000
00001000
00100000
00010000
00100000
,
02000000
00000000
03000000
00000000
10000000
00100000
01000000
00100000
,
20000000
00000000
30000000
00000000
10000000
01000000
00100000
00000000
,
00001000
00010000
00001000
00000000
00010000
00000100
00000010
00000001
,
00002000
00000000
00003000
00000000
00000001
00000100
00000110
00000000
,
00001000
00000100
00000110
00000000
00000001
00000100
00001000
00010000
,
00100000
00100000
01100000
00000000
10000000
01000000
01100000
00000000
,
00010000
01000000
01100000
00000000
10000000
01000000
00010000
00001000
,
00000010
00000000
00000000
00000010
00000000
00000000
00000110
00000000
00000000
00000000
00000000
00000000
00000001
00000000
00000000
00001001
00000000
00000000
00001000
00000000
00001000
00000010
00000000
00000000
,
00000100
00000000
00000000
00000110
00000000
00000000
00000010
00000000
00000010
00010000
00000000
00000000
00001000
00000000
00000000
00011000
00000000
00000000
00010000
00000000
00010000
00100000
00000000
00000000
,
01000000
00000000
00000000
01100000
00000000
00000000
00100000
00000000
00100000
10000000
00000000
00000000
00010000
00000000
00000000
10010000
00000000
00000000
10000000
01000000
10000000
01000000
00000000
00000000
,
00100000
00000000
00000000
00101000
00000000
00000000
00001000
00010000
00001000
00010000
00000000
00000000
00000100
00000000
00000000
00001100
00000000
00000000
00001000
00000010
00001000
00000010
00000000
00000000
,
00000100
00000000
00000100
00000001
00000000
00000001
00000010
00000000
00000010
00001000
00000000
00001000
00020000
00000000
00000000
00000000
00000000
00000000
00000000
00000000
00000000
00000000
00000000
00000000
,
00000000
00000000
00000000
00000000
,
00000000
00000000
00000000
00000000
,
00000000
00000000
00030000
00000000
,
00000000
00000000
00000000
00000000
00010000
00001000
00010000
00000000
,
00001000
01000000
00001000
00000000
01000000
00010000
01000000
00000000
,
00100000
01000000
00100000
00000000
10000000
00100000
01000000
00010000
,
10000000
01000000
00100000
00010000
20000000
00000000
00000000
00000000
,
00020000
00000000
30030000
00000000
10000000
01000000
00100000
00010000
,
01000000
00010000
00100000
00001000
00010000
00000100
00001000
00000010
,
00010000
00001000
00010000
00000100
00010000
00001000
00000010
00000100
,
00010000
00001000
00000010
00000100
00001000
00000001
00001000
00000000
,
00001100
00000000
00000011
00000000
00000001
00000000
00000100
00001000
,
00000100
00000001
00000010
00000100
00001000
00000100
00010000
00000000
,
00000010
00010000
00001000
00000000
00010000
00000000
00010000
00100000
,
10000000
00000000
10000000
00010000
20000000
00000000
00000000
00000000
,
00010000
00010000
30010000
00000000
10000000
00100000
01000000
00010000
,
00100000
00010000
01000000
00001000
00010000
00000010
00001000
00000100
,
00010000
00001000
00010000
00000010
00010000
00001000
00000100
00000010
,
00010000
00001000
00000100
00000010
00001000
00000001
00001000
00000000
,
00001010
00000000
00000101
00000000
00000001
00000000
00000010
00001000
,
00000010
00000000
00000001
00000000
00000100
00000000
00000010
00000000
00001000
00000000
00000000
00000010
00000000
00000000
00010000
00000000
,
00001000
00010000
00001000
00000000
00010000
00100000
00010000
00000000
,
00100000
10000000
00100000
10000000
00020000
00000000
00000000
00000000
,
00000000
00000000
00030000
00000000
10000000
00100000
10000000
00100000
,
01000000
00010000
01000000
00000000
00010000
00100000
00001000
00100000
,
00001000
00010000
00001000
00000000
00010000
00000010
00010000
00000010
,
00001000
00000010
00001000
00000000
00000001
00000010
00000100
00000001
,
00000100
00000010
00000001
00000000
00000001
00000010
00000001
00000010
,
00000100
00001000
00000100
00000000
00001000
00000010
00010000
00000010
,
00010000
00001000
00010000
00000000
00001000
00010000
00100000
00000000
,
10000000
00010000
01000000
00000000
10000000
01000000
00001000
00010000
,
00001000
00000010
00000001
00000000
00002002
00000000
00000000
00000000
,
00000000
00000000
00003003
00000000
,
00000000
00000000
00000000
00000000
;
#NOTES:
     dance-double:
     :
     Hard:
     16:
     :
00000000
00000000
00000000
00000000
,
00000000
00000000
00000000
00000000
,
00000000
00000000
00000000
00000000
,
00000000
00000000
00000000
00000000
,
00000000
00000000
00000000
00000000
,
10000000
01000000
11000000
00000000
00010000
00100000
00110000
00000000
,
00001000
00000100
00001100
00000000
00000001
00000010
00000011
00000000
,
00000001
00000100
00000101
00000000
00001000
00000010
00001010
00000000
,
00010000
01000000
00000000
00010000
01000000
00000000
00100000
10000000
00000000
00100000
10000000
00000000
00010000
00000000
00000000
00000000
,
20020000
00000000
00000000
00000000
30030000
00000000
00000000
00000000
10000000
01000000
10000000
00000000
00100000
00000000
00000000
00000000
,
10000000
00010000
10000000
00010000
00000000
00010000
01000000
00000000
00010000
00100000
00010000
00000000
00100000
00000000
00000000
00000000
,
00001000
00010000
00001000
00010000
00000000
00010000
00000010
00000000
00001000
00000010
00001000
00000000
00000100
00000000
00000000
00000000
,
00000010
00000001
00000010
00000001
00000000
00000001
00001000
00000000
00000001
00000000
00000100
00000000
00001000
00000000
00000100
00000000
,
00000001
00001000
00000001
00000000
00001001
00000000
00000000
00000000
00000001
00000100
00000001
00000000
00000010
00000000
00000000
00000000
,
00000001
00001000
00000001
00001000
00000000
00001000
00000100
00000000
00001000
00000010
00001000
00000000
00000010
00000000
00000000
00000000
,
00010000
00001000
00010000
00001000
00000000
00001000
00100000
00000000
00010000
00100000
00010000
00000000
01000000
00000000
00000000
00000000
,
00100000
10000000
00100000
10000000
00000000
10000000
00010000
00000000
10000000
00000000
01000000
00000000
00010000
00000000
00000000
00010000
,
00000000
01000000
00000000
00000000
10000000
00000000
10010000
00000000
00010000
00100000
01000000
00100000
00010000
00000000
10000000
00000000
,
01000000
00100000
01000000
00000000
00100000
00001000
00100000
00000000
00001000
00010000
00000100
00010000
00001000
00000000
00010000
00000000
,
00000010
00001000
00000010
00000000
00001000
00000100
00001000
00000000
00000010
00000100
00000001
00000100
00000010
00000000
00001000
00000000
,
00000001
00000010
00000001
00000000
00001000
00000010
00001000
00000000
00000001
00000000
00000100
00000000
00001000
00000000
00010000
00000000
,
00100000
00000000
01000000
00100000
00000000
01000000
00100000
00000000
10000000
00100000
10000000
00100000
10000000
00000000
00000000
00000000
,
00010000
00100000
00010000
10000000
01000000
00100000
00001000
00000000
00010000
00001000
00100000
00001000
00010000
00000000
00000000
00000000
,
00000100
00001000
00000100
00001000
00000010
00001000
00000100
00000000
00000010
00000001
00000010
00000000
00000100
00001000
00000100
00000000
,
00010000
00001000
00010000
00000000
00001000
01000000
00001000
00000000
01000000
00000000
01000000
00000000
00100000
00000000
00100000
00000000
,
02200000
00000000
00000000
00000000
00000000
00000000
03300000
00000000
00000000
00000000
00000000
00000000
10000000
00000000
10000000
00100000
00000000
00100000
01000000
00010000
01000000
00010000
01000000
00010000
,
00100000
00000000
00100000
00001000
00000000
00001000
00010000
00001000
00010000
00001000
00010000
00001000
00010000
00000000
00010000
00000100
00000000
00000100
00000010
00000100
00000010
00000100
00000010
00000100
,
00000010
00000000
00000010
00000001
00000000
00000001
00000010
00000100
00001000
00000001
00000000
00000000
00000001
00000000
00000001
00000100
00000000
00000100
00000010
00000100
00000010
00001000
00000010
00001000
,
00000010
00000000
00000010
00010000
00000000
00010000
00001000
00010000
00001000
01000000
00001000
01000000
00001000
00000000
00001000
00010000
00000000
00010000
00100000
01000000
00100000
10000000
00100000
10000000
,
00100000
00000000
00100000
10000000
00010000
10000000
01000000
00100000
01000000
10000000
00000000
00000000
00010000
00000000
00000000
10000000
00000000
00000000
01100000
00000000
00000000
00000000
00000000
00000000
,
00010000
00001000
00011000
00000000
00000100
00000010
00000110
00000000
,
00000001
00000000
00000000
00001000
00000000
00000000
00001001
00000000
00000000
00000000
00000000
00000000
00000001
00000000
00000001
00001000
00000000
00001000
00000010
00001000
00000010
00010000
00000000
00000000
,
00001000
00000000
00001000
01000000
00000000
01000000
00010000
01000000
00010000
00100000
00000000
00000000
00010000
00000000
00010000
10000000
00000000
10000000
01000000
00100000
01000000
00100000
00000000
00000000
,
00010000
00000000
10000000
01000000
00000000
00010000
00001000
00000000
00000010
00000001
00000000
00000000
00002000
00000000
00000000
00000000
00000000
00000000
00000000
00000000
00000000
00000000
00000000
00000000
,
00000000
00000000
00000000
00000000
00000000
00000000
00000000
00000000
00003001
00000100
00000001
00000100
00000001
00000100
00000001
00000000
,
00001000
00000010
00001000
00000010
00001000
00000010
00001000
00000000
00000200
00000000
00000000
00000000
00000000
00000000
00000000
00000000
,
00000000
00000000
00000000
00000000
00000000
00000000
00000000
00000000
00010300
00001000
00010000
00001000
00010000
00001000
00010000
00000000
,
00001000
01000000
00001000
01000000
00001000
01000000
00001000
00000000
00200000
00000000
00000000
00000000
00000000
00000000
00000000
00000000
,
00000000
00000000
00000000
00000000
00000000
00000000
00000000
00000000
00310000
00000000
10000000
01000000
10000000
00000000
00010000
01000000
,
00010000
00000000
10000000
01000000
10000000
00000000
00000000
00000000
00010000
00100000
00010000
00100000
00001000
00010000
00001000
00010000
,
00000100
00001000
00000100
00001000
00000001
00000100
00000001
00000100
00000002
00000000
00000000
00000000
00000000
00000000
00000000
00000000
,
00002003
00000000
00000000
00000000
00000000
00000000
00000000
00000000
00003001
00000000
00000100
00000010
00000100
00000000
00000001
00001000
,
00000001
00000000
00000100
00000000
00001000
00000000
00010000
00000000
00100000
00000000
01000000
00100000
01000000
00000000
00010000
10000000
,
00010000
00000000
01000000
00000000
00100000
00000000
00010000
00000000
00001000
00000000
00100000
00001000
00010000
00000000
00000100
00010000
,
00001000
00000000
01000000
00001000
00010000
00000000
00000010
00010000
00001000
00000000
00001000
00000000
00011000
00000000
00000000
00000000
,
00010000
00001000
00010000
00000000
00001000
00000000
00001000
00000000
00000010
00000000
00000100
00000010
00000001
00000000
00000100
00000010
,
00001000
00000000
00000010
00000100
00000001
00000000
00000010
00000100
00001000
00000000
00000001
00001000
00000010
00000000
00001000
00000100
,
00010000
00000000
00001000
01000000
00010000
01000000
00010000
00000000
00200000
00000000
00000000
00000000
01300000
10000000
01000000
10000000
,
00200000
00000000
00000000
00000000
01300000
00010000
01000000
00010000
00100000
00000000
01000000
00000000
00010000
00000000
00001000
00000000
,
00010000
00000000
00100000
00000000
10000000
00000000
00000000
00000000
10000000
00000000
01000000
00100000
01000000
00000000
10000000
00010000
,
10000000
00000000
01000000
00000000
00010000
00000000
00001000
00000000
00000010
00000000
00000100
00000010
00000100
00000000
00001000
00000001
,
00001000
00000000
00000100
00000000
00000010
00000000
00001000
00000000
00010000
00000000
00000010
00010000
00001000
00000000
01000000
00001000
,
00010000
00000000
00000100
00010000
00001000
00000000
00100000
00001000
00010000
00000000
00010000
00000000
00011000
00000000
00000000
00000000
,
00001000
00010000
00001000
00000000
00010000
00000000
00010000
00000000
00100000
00000000
01000000
00100000
10000000
00000000
01000000
00100000
,
00010000
00000000
00100000
01000000
10000000
00000000
00100000
01000000
00010000
00000000
10000000
00010000
00100000
00000000
00010000
01000000
,
00001000
00000000
00010000
00000100
00001000
00000100
00001000
00000000
00000020
00000000
00000000
00000000
00000130
00000001
00000100
00000001
,
00000020
00000000
00000000
00000000
00000130
00001000
00000100
00001000
00000020
00000000
00000000
00000000
00000000
00000000
00000000
00000000
,
00000000
00000000
00000000
00000000
00000030
00000000
00000000
00000000
00001000
00000010
00000000
00000100
00000000
00000001
00000000
00000100
,
00000000
00000000
00000000
00000100
00000000
00001000
00000000
00010000
00001000
00010000
00000000
00100000
00000000
01000000
00000000
00100000
,
00000000
00000000
00000000
00100000
00000000
10000000
00000000
00010000
01000000
00010000
00000000
10000000
00000000
01000000
00000000
00100000
,
00000000
00000000
00000000
00100000
00000000
00001000
00000000
00010000
00001000
00010000
00000000
00010000
00000100
00001000
00000000
00001000
,
00000010
00000100
00000010
00000100
00000010
00000000
00001000
00000000
00000001
00000010
00000000
00000001
00000000
00001000
00000000
00000100
,
00000000
00000000
00000000
00000100
00000000
00000010
00000000
00001000
00010000
00001000
00000000
00010000
00000000
01000000
00000000
00100000
,
00000000
00000000
00000000
00100000
00000000
00010000
00000000
10000000
00100000
10000000
00100000
10000000
01000000
00100000
01000000
00000000
,
00100000
00001000
00100000
00001000
00010000
00001000
00010000
00000000
00000100
00001000
00000010
00001000
00000100
00000010
00000001
00000100
,
00000010
00001000
00000100
00001000
00000100
00000000
00010000
00000000
00022000
00000000
00000000
00000000
00000000
00000000
00000000
00000000
,
00000000
00000000
00033000
00000000
,
00000000
00000000
00000000
00000000
;
#NOTES:
     dance-double:
     :
     Challenge:
     18:
     :
00000000
00000000
00000000
00000000
,
00000000
00000000
00000000
00000000
,
00000000
00000000
00000000
00000000
,
00000000
00000000
00000000
00000000
,
00000000
00000000
00000000
00000000
,
11000000
00000000
00000000
00000000
10100000
00000000
00000000
00000000
00100000
10000000
00100000
10000000
00100000
01000000
00100000
01000000
00100000
00000000
00000000
00000000
01100000
00000000
00000000
00000000
01000000
00010000
01000000
00010000
00100000
00010000
00100000
00010000
,
00100000
00000000
00000000
00000000
00101000
00000000
00000000
00000000
00001000
00010000
00001000
00010000
00000100
00010000
00000100
00010000
00000100
00000000
00000000
00000000
00001100
00000000
00000000
00000000
00001000
00000100
00001000
00000100
00000010
00000100
00000010
00000100
,
00000010
00000000
00000000
00000000
00000110
00000000
00000000
00000000
00000001
00000010
00000001
00000010
00000100
00001000
00000100
00001000
00000100
00000000
00000000
00000000
00010100
00000000
00000000
00000000
00010000
00000100
00010000
00000100
00010000
00001000
00010000
00001000
,
00010000
00000000
00001000
00000000
00000000
00000000
00001000
00000000
01000000
00000000
00000000
00000000
01000000
00000000
00010000
00000000
00000000
00000000
00010000
00000000
00100000
00000000
01000000
10000000
00010000
00000000
01000000
00000000
00100000
00000000
00000000
00000000
,
01100000
00000000
00000000
00000000
00000000
00000000
00000000
00000000
10000000
01000000
00100000
00010000
10000000
01000000
00100000
00010000
10000000
00000000
01000000
00000000
10000000
00000000
01000000
00000000
00100000
00000000
00000000
00000000
00010000
00000000
00100000
00000000
,
00001000
00100000
00001000
00100000
00001000
00010000
00001000
00000000
00010000
00000100
00010000
00000100
00001000
00000000
00000010
00001000
,
00000010
00000100
00000010
00000100
00000001
00001000
00000001
00000000
00000010
00000001
00000010
00000001
00001000
00000000
00000001
00000100
,
00000010
00001000
00000010
00001000
00000100
00010000
00000100
00010000
00001000
00010000
00001000
00000000
00010000
00100000
01000000
00010000
,
00100000
01000000
10000000
00000000
00010000
00000000
00010000
00000000
10000000
00100000
10000000
00100000
01000000
00000000
00010000
10000000
,
01000000
10000000
01000000
00100000
01000000
00100000
00010000
00000000
00100000
00001000
00100000
00001000
00010000
00000000
00001000
00010000
,
00000100
00010000
00000100
00001000
00000010
00001000
00000010
00000000
00001000
00000100
00000010
00000100
00001000
00000000
00000001
00000100
,
00000010
00000100
00000001
00000000
00000010
00000100
00001000
00000100
00010000
00000000
00001000
00000000
00010000
00000000
00100000
10000000
,
00000000
10000000
00100000
00000000
01100000
00000000
10010000
00000000
10000000
00100000
01000000
00100000
10000000
00000000
01000000
00100000
,
00010000
01000000
00100000
10000000
01000000
00100000
00010000
00000000
00100000
00001000
00010000
00001000
01000000
00000000
00001000
00010000
,
00000100
00001000
00000010
00001000
00000100
00010000
00001000
00000000
00010000
00000010
00001000
00000010
00000100
00000000
00000001
00000100
,
00000010
00001000
00000100
00000010
00000001
00000100
00000010
00000000
00001000
00000100
00001000
00000100
00000010
00000001
00000010
00000001
,
00000010
00000000
00000010
00000000
00000010
00000000
00000010
00000000
00000001
00000100
00001000
00010000
00100000
00000000
00000000
00000000
,
10000000
00100000
10000000
00000000
00010000
00100000
00010000
00000000
10000000
01000000
00010000
00001000
00000010
00000000
00000000
00000000
,
00000001
00000010
00000001
00000000
00001000
00000010
00001000
00000000
00000001
00000010
00000100
00001000
00000010
00000100
00001000
00010000
,
00000100
00010000
00001000
01000000
00010000
00100000
01000000
10000000
00010000
01000000
00010000
01000000
00100000
10000000
00100000
10000000
,
02000000
00000000
00000000
00000000
00000000
00000000
00000000
00000000
00000000
00000000
00000000
00000000
13000000
00000000
10000000
01000000
00000000
01000000
00010000
00001000
00010000
00100000
01000000
00001000
,
00010000
00000000
00010000
01000000
00000000
01000000
00010000
00001000
00000010
00000001
00001000
00000100
00000010
00000000
00000010
00000001
00000000
00000001
00000100
00001000
00010000
00001000
00000010
00000001
,
00001000
00000000
00001000
00000100
00000000
00000100
00000001
00000100
00001000
00000001
00000000
00000000
00000001
00000000
00000001
00000100
00000000
00000100
00001000
00010000
00001000
00000010
00000100
00010000
,
00001000
00000000
00001000
00000100
00000000
00000100
00001000
00010000
00100000
10000000
00010000
01000000
00100000
00000000
00100000
10000000
00000000
10000000
01000000
00010000
00001000
00010000
00100000
10000000
,
00010000
00000000
00010000
01000000
00000000
01000000
10000000
01000000
00010000
10000000
00000000
00000000
00010000
01000000
00100000
00010000
00100000
01000000
00010000
10000000
01000000
00010000
00001000
00000010
,
00000001
00000100
00000010
00000001
00000010
00000100
00000001
00000010
00000100
00010000
00001000
00000010
00000100
00001000
00000001
00000100
00000010
00010000
00001000
00100000
00010000
01000000
00001000
00010000
,
00000010
00000100
00000010
00001000
00000001
00001000
00000001
00000010
00000100
00001000
00000000
00000000
00001000
00000100
00000010
00001000
00000010
00000100
00001000
00000001
00000100
00001000
00010000
00100000
,
10000000
01000000
00100000
10000000
00100000
01000000
10000000
00100000
01000000
00001000
00010000
00100000
01000000
00010000
10000000
01000000
00100000
00001000
00010000
00000010
00001000
00000100
00010000
00001000
,
00100000
01000000
00100000
00010000
10000000
00010000
01000000
00100000
00010000
00100000
00010000
00001000
00020000
00000000
00000000
00000000
00000000
00000000
00000000
00000000
00000000
00000000
00000000
00000000
,
00000000
00000000
00000000
00000000
,
00000000
00000000
00030000
00000000
00010000
00001000
00000010
00000001
,
00000000
00001000
00000100
00000020
00000000
00000000
00000000
00000000
,
00000000
00000000
00000000
00000000
00000030
00000000
00000000
00000000
00000001
00000100
00000001
00000100
00000001
00000100
00000001
00000100
,
00000010
00001000
00000010
00001000
00000010
00001000
00000010
00001000
00010000
01000000
00010000
01000000
00010000
01000000
00010000
01000000
,
00100000
10000000
00100000
10000000
00100000
10000000
00100000
10000000
00010000
10000000
00010000
00000000
01000000
00100000
01000000
00000000
,
00001000
00010000
00001000
00000000
00000010
00000100
00000010
00000100
00000020
00000000
00000000
00000000
00000000
00000000
00000000
00000000
,
00000002
00000000
00000033
00000000
00000001
00000100
00010000
00001000
,
00000010
00010000
00001000
00000010
00000100
00010000
00000010
00000100
00001000
00000000
01000000
00000000
00100000
00000000
00010000
00000000
,
00001000
00100000
00010000
01000000
00100000
00010000
00001000
00100000
01000000
00000000
10000000
00000000
00100000
00000000
10000000
01000000
,
00100000
00000000
00010000
01000000
00100000
00000000
10000000
00010000
10000000
00000000
10000000
00000000
10010000
00000000
00000000
00000000
,
00010000
01000000
00010000
00000000
10000000
00000000
00010000
00000000
10000000
00000000
01000000
00010000
00001000
00000000
00000010
00000001
,
00000100
00000000
00000001
00000010
00001000
00000000
00010000
00001000
00000100
00000000
00000001
00000000
00001001
00000000
00000000
00000000
,
00000001
00000010
00000100
00001000
00000100
00000010
00000001
00001000
00000001
00000100
00000001
00000100
00001000
00010000
00001000
00010000
,
00000010
00001000
00000010
00001000
00000100
00000010
00000100
00000010
00000001
00000000
00000100
00000000
00001000
00000000
00010000
00000000
,
00100000
01000000
00100000
00000000
01100000
00000000
10010000
00000000
10000000
00000000
00100000
00000000
00001000
00000000
00010000
00000000
,
01000000
00001000
00010000
01000000
00100000
00001000
01000000
00100000
00010000
00000000
00000010
00000000
00000100
00000000
00001000
00000000
,
00010000
00000100
00001000
00000010
00000100
00001000
00010000
00000100
00000010
00000000
00000001
00000000
00000100
00000000
00000001
00000010
,
00000100
00000000
00001000
00000010
00000100
00000000
00000001
00001000
00000001
00000000
00000001
00000000
00001001
00000000
00000000
00000000
,
00001000
00000010
00001000
00000000
00000001
00000000
00001000
00000000
00000001
00000000
00000010
00001000
00010000
00000000
01000000
10000000
,
00100000
00000000
10000000
01000000
00010000
00000000
00001000
00010000
00100000
00000000
00000000
10000000
00000000
00000000
10010000
00000000
,
10000000
01000000
00100000
00010000
00100000
01000000
10000000
00010000
10000000
00100000
10000000
00100000
00010000
00001000
00010000
00001000
,
01000000
00010000
01000000
00010000
00100000
01000000
00100000
01000000
10000000
00000000
00000000
00000000
10000000
01000000
00010000
00001000
,
00000010
00000000
00000001
00000000
00001000
00000000
00000000
00000000
00000001
00000010
00000100
00001000
00000100
00000010
00000001
00000100
,
00000000
00001000
00010000
00001000
00100000
00001000
00010000
00001000
01000000
00010000
00100000
01000000
10000000
01000000
00100000
00010000
,
00000000
10000000
00100000
01000000
00100000
10000000
00100000
01000000
00010000
00100000
01000000
10000000
00100000
01000000
00010000
00100000
,
00000000
00001000
00010000
00000100
00010000
00001000
00010000
00000010
00010000
00001000
00000000
00001000
00000010
00000001
00000000
00000001
,
00000100
00000000
00001000
00010000
00100000
00010000
00001000
00000000
00000100
00000001
00000010
00000100
00010000
00001000
00000100
00000010
,
00000000
00000100
00001000
00010000
00100000
01000000
00001000
01000000
00010000
00100000
01000000
00010000
01000000
10000000
00100000
01000000
,
00000000
10000000
01000000
00010000
10000000
01000000
00010000
00001000
00000010
00000001
00000100
00000010
00001000
00000100
00000010
00000001
,
00000100
00000010
00001000
00000100
00010000
00001000
00100000
00010000
01000000
10000000
01000000
00010000
10000000
01000000
00010000
01000000
,
10000000
00000000
00000000
00010000
00000000
00000000
00100000
00000000
00000000
00001000
00000000
00000000
00010000
00000000
00000000
00000000
00000000
00000000
00001000
00000000
00010000
00000000
00001000
00000000
00020000
00000000
00000000
00000000
00000000
00000000
00000000
00000000
00000000
00000000
00000000
00000000
00000000
00000000
00000000
00000000
00000000
00000000
00000000
00000000
00000000
00000000
00000000
00000000
,
00000000
00000000
00000000
00000000
00000000
00000000
00000000
00000000
00000000
00000000
00000000
00000000
00000000
00000000
00031000
00010000
00002000
00000000
00000000
00000000
00000000
00000000
00000000
00000000
00000000
00000000
00000000
00000000
00000000
00000000
00000000
00000000
,
00000000
00000000
00003000
00000000
,
00000000
00000000
00000000
00000000
;
