
//----- song ID: voqu -----//
#TITLE:VOLAQUAS;
#ARTIST:BEMANI Sound Team "DJ TOTTO VS 兎々";
#ARTISTTRANSLIT:BEMANI Sound Team "DJ TOTTO VS Totto";
#BANNER:VOLAQUAS.png;
#BACKGROUND:VOLAQUAS-bg.png;
#CDTITLE:./CDTitles/DDR A3.png;
#MUSIC:VOLAQUAS.ogg;
#SAMPLESTART:84.907;
#SAMPLELENGTH:15;
#BPMS:0=106,20=212,52=106,54=212,150=106,166=212,188=106,189=212,221=106,237=212,371=106;
#STOPS:166=0.142,167=0.142,168=0.142,169=0.142,172=0.142,173=0.142,174=0.142,175=0.136,178=0.142,179=0.142,180=0.142,181=0.142,184=0.142,185=0.142,186=0.142,187=0.142;
#STAGE:30;
#NOTES:
     dance-single:
     :
     Beginner:
     5:
     :
0000
0000
0000
0000
,
0000
0000
0000
0000
,
0000
0000
0000
0000
,
0000
0000
0000
0000
,
0000
0000
0000
0000
,
1000
0000
0000
0000
,
1000
0000
1000
0000
,
0001
0000
0000
0000
,
0001
0000
0001
0000
,
0100
0000
0000
0000
,
0100
0000
0100
0000
,
0010
0000
0000
0000
,
0010
0000
0010
0000
,
1000
0000
1000
0000
,
0000
0000
0001
0000
,
0000
0000
1000
0000
,
0000
0000
0001
0000
,
0000
0000
0010
0000
,
0000
0000
0100
0000
,
0000
0000
1001
0000
,
0000
0000
1001
0000
,
0000
0000
0001
0000
,
0000
0000
1000
0000
,
0000
0000
0001
0000
,
0000
0000
1000
0000
,
0000
0000
0010
0000
,
0000
0000
0100
0000
,
0000
0000
1001
0000
,
0000
0000
1001
0000
,
0000
0000
2000
3000
,
0000
0000
2000
3000
,
0000
0000
0002
0003
,
0000
0000
0002
0003
,
0000
0000
2000
0000
,
3000
0000
0002
0000
,
0003
0000
2000
0000
,
3000
0000
2002
0000
,
0000
0000
3003
0000
,
0000
0000
0000
0000
,
0000
0000
0001
0000
,
0010
0000
0100
0000
,
1000
0000
2000
0000
,
0000
3000
0000
0000
,
0002
0000
0000
0003
,
0000
0000
0200
0000
,
0000
0300
0000
0000
,
0020
0000
0000
0030
,
0000
1000
0000
1000
,
0000
1000
0000
0000
,
0000
0001
0000
0001
,
0000
0001
0000
0000
,
0000
1000
0000
1000
,
0000
1000
0000
0000
,
0000
0010
0000
0010
,
0000
0100
0000
0100
,
0000
1001
0000
0000
,
0000
0000
0000
0000
,
0000
0000
0000
0000
,
0000
0002
0000
0000
,
0003
1000
0000
1000
,
0000
0001
0000
0001
,
0000
1000
0000
1000
,
0000
0010
0000
0000
,
0000
1000
0000
1000
,
0000
0010
0000
0010
,
0000
0100
0000
0001
,
0000
1000
0000
0000
,
0000
0010
0000
0010
,
0000
1000
0000
1000
,
0000
0001
0000
0001
,
0000
0010
0000
0000
,
0000
0001
0000
0001
,
0000
0010
0000
0010
,
0000
0100
0000
0010
,
0000
0100
0000
0010
,
0000
0110
0000
0000
,
0000
1000
0000
1000
,
0000
0001
0000
0000
,
0000
0001
0000
0001
,
0000
0100
0000
0000
,
0000
0100
0000
0100
,
0000
0010
0000
0000
,
0000
0010
0000
0010
,
0000
0100
0000
0010
,
0000
1000
0000
0001
,
0000
0001
0000
0010
,
0000
0001
0000
1000
,
0000
1000
0000
0100
,
0000
1000
0000
0001
,
0000
0001
0000
0100
,
0000
0010
0000
1000
,
0000
0001
0000
0000
,
0000
0000
0000
2002
,
0000
0000
0000
0000
,
0000
0000
3003
0000
,
0000
0000
0000
0000
;
#NOTES:
     dance-single:
     :
     Easy:
     11:
     :
0000
0000
0000
0000
,
0000
0000
0000
0000
,
0000
0000
0000
0000
,
0000
0000
0000
0000
,
0000
0000
0000
0000
,
2000
3000
0000
0000
0000
0000
0000
0000
1001
0000
0000
0000
0000
0000
0000
0000
0001
0000
0000
0000
0000
0000
0000
0000
1000
0000
0000
0000
0000
0000
0000
0000
,
0100
0000
0010
0000
0001
1000
0001
1000
,
0010
1010
1000
0001
,
0010
0000
0001
0000
1000
0001
1000
0001
,
0100
0101
0001
0100
,
0010
0000
1000
0000
0001
1000
0100
0010
,
0001
1001
1000
0001
,
2000
3020
0230
0302
,
2003
0000
0000
0000
0000
0000
0000
0000
3000
0000
0000
0000
0000
0000
0000
0000
0002
0003
0000
0000
0000
0000
0000
0000
1000
0000
0000
0000
0000
0000
0000
0000
,
0001
0010
0100
1000
,
0001
1000
0010
0000
0100
0000
0010
0000
,
1000
0001
0010
0100
,
1000
0001
0100
0000
0010
0000
1000
0000
,
0001
0000
0010
0000
0001
1000
0001
0000
,
0100
0010
1000
0000
0002
0000
0013
0000
,
0002
1003
0002
0103
,
0001
1001
1000
0001
,
1000
0010
0100
0001
,
1000
0001
0010
0000
0100
0000
0010
0000
,
0001
1000
0010
0100
,
0001
1000
0100
0000
0010
0000
0001
0000
,
1000
0000
0010
0000
1000
0001
1000
0000
,
0100
0010
0001
0000
2000
0000
3001
0000
,
2000
3010
2000
3100
,
1000
1001
0002
0000
,
1003
0000
2000
0000
,
3010
0000
0020
0000
,
0130
0000
0200
0000
,
0301
0000
0002
0100
,
2003
0100
3002
0010
,
2003
0010
3002
0100
,
2003
0010
3002
0203
,
0320
2030
3001
0000
,
0000
0000
0000
0000
,
0000
0000
1000
0001
,
1000
0000
0001
1000
0010
0100
0001
2000
,
0002
0000
0000
0000
0000
0000
0000
0000
3003
0000
0000
0000
0000
0000
0000
0000
2200
3300
0000
0000
0000
0000
0000
0000
0022
0033
0000
0000
0000
0000
0000
0000
,
0202
0303
0000
0000
0000
0000
0000
0000
2020
3030
0000
0000
0000
0000
0000
0000
0002
0000
0000
0000
0000
0000
0000
0000
0003
0000
0000
0000
0000
0000
0000
0000
,
0022
0033
0000
0000
0000
0000
0000
0000
2020
3030
0000
0000
0000
0000
0000
0000
0202
0303
0000
0000
0000
0000
0000
0000
2200
3300
0000
0000
0000
0000
0000
0000
,
0020
0000
0000
0000
0000
0000
0000
0000
0030
0000
0000
0000
0000
0000
0000
0000
0022
0033
0000
0000
0000
0000
0000
0000
2200
3300
0000
0000
0000
0000
0000
0000
,
2020
3030
0000
0000
0000
0000
0000
0000
0202
0303
0000
0000
0000
0000
0000
0000
2000
0000
0000
0000
0000
0000
0000
0000
3000
0000
0000
0000
0000
0000
0000
0000
,
2020
3030
0000
0000
0000
0000
0000
0000
0022
0033
0000
0000
0000
0000
0000
0000
2200
3300
0000
0000
0000
0000
0000
0000
0022
0033
0000
0000
0000
0000
0000
0000
,
0200
0000
0310
0000
0110
0000
0001
1000
,
0001
0000
1000
0000
0010
1000
0001
0100
,
0002
0000
0013
0000
0001
0000
1000
0001
,
1000
0000
0001
1000
0100
0000
1000
0000
,
0001
0000
0010
0000
0110
0000
1000
0001
,
1000
0000
0001
0000
0010
0001
1000
0100
,
2000
0000
3010
0000
1000
0000
0001
1000
,
0001
0000
1000
0001
0100
0010
1000
0001
,
1000
1001
0000
0000
,
0000
0000
0000
0000
,
0000
0000
0000
0000
,
0000
0000
1000
0100
0010
0001
1000
0002
,
2000
0000
0000
0000
3003
0000
0000
0000
0002
0003
0000
0000
0000
0000
0000
0000
1000
0000
0000
0000
0000
0000
0000
0000
0100
0000
0000
0000
0000
0000
0000
0000
,
0010
0000
0100
0000
1000
0000
0001
1000
,
0200
0300
0010
0001
,
0100
0000
0001
0000
0010
0100
1000
0001
,
2000
3000
0001
1000
,
0100
2000
0010
3002
,
0010
1003
0001
0010
,
0001
1000
0001
0000
2000
0002
0000
3003
,
1001
0000
0001
0100
,
0010
0000
0100
0000
0001
0000
1000
0001
,
0200
0300
0010
1000
,
0100
0000
1000
0000
0010
0100
0001
1000
,
0002
0003
1000
0001
,
0100
0002
0010
2003
,
0010
3001
1000
0010
,
1000
0001
1000
0000
0001
1000
0010
0100
,
0001
1000
1001
0001
,
1000
0000
0100
0000
0010
0000
0001
1000
,
0001
1000
0010
0000
1010
0000
1000
0000
,
0001
0000
0010
0000
0001
0000
1000
0001
,
1000
0001
0100
0000
0101
0000
0001
0000
,
0100
0000
0010
0000
1000
0000
0001
1000
,
0100
0010
0001
0000
1001
0000
1000
0000
,
1001
0002
0203
0320
,
2030
0000
3001
0000
1000
0000
0001
1000
,
0100
0000
0010
0000
0001
0000
1000
0001
,
1000
0001
0100
0000
0010
0000
1000
0001
,
0010
0000
0100
0000
1000
0000
0001
1000
,
0001
1000
0010
0000
0100
0000
0001
1000
,
0100
0000
0010
0000
0001
0000
1000
0001
,
1000
0001
0100
0000
0010
0000
1000
0001
,
0010
0002
0203
0320
,
2030
0000
3001
1000
0100
0010
0001
1000
,
0001
1000
0000
0000
0000
0000
2002
0000
,
0000
0000
0000
0000
,
0000
0000
3003
0000
,
0000
0000
0000
0000
;
#NOTES:
     dance-single:
     :
     Medium:
     15:
     :
0000
0000
0000
0000
,
0000
0000
0000
0000
,
0000
0000
0000
0000
,
0000
0000
0000
0000
,
0000
0000
0000
0000
,
0002
0003
0000
0000
0000
0000
0000
0000
1001
0000
0000
0000
0000
0000
0000
0000
1000
0000
0000
0000
0010
0000
0000
0000
0100
0000
0000
0000
0001
0000
0000
0000
,
1000
0100
0010
0001
0100
1000
0001
0010
,
1000
0000
1001
0000
0001
1000
0100
1000
,
0001
0100
0010
1000
0100
0001
1000
0010
,
0001
0000
1001
0000
1000
0001
0100
0001
,
0010
0100
1000
0001
0100
1000
0001
0010
,
1000
0001
0010
0100
1000
0010
0100
0001
,
0010
0100
0010
0100
1000
0001
1000
0001
,
0200
0000
0000
0000
0000
0000
0000
0000
0300
0000
0000
0000
0001
0000
0000
0000
1000
0000
0000
0000
0000
0000
0000
0000
1001
0000
0000
0000
0000
0000
0000
0000
0002
0003
0000
0000
0000
0000
0000
0000
0000
0000
0000
0000
0000
0000
0000
0000
1000
0000
0000
0000
0000
0000
0000
0000
0100
0000
0000
0000
0000
0000
0000
0000
,
0000
0010
0100
1000
0000
0001
0100
0010
,
1000
0100
1000
0010
0100
0000
0001
0010
,
0000
0100
0010
0001
0000
1000
0010
0100
,
0001
0010
0001
0100
0010
0000
1000
0001
,
0000
0100
0010
0100
0000
0001
0010
0100
,
1000
0001
0100
0001
1000
0000
1100
0000
,
0001
0101
1000
1001
,
0110
0000
1001
0000
1000
0000
0001
0100
,
0000
0010
0100
0001
0000
1000
0100
0010
,
0001
0100
0001
0010
0100
0000
1000
0010
,
0000
0100
0010
1000
0000
0001
0010
0100
,
1000
0010
1000
0100
0010
0000
0001
1000
,
0000
0100
0010
0100
0000
1000
0010
0100
,
0001
1000
0100
1000
0001
0001
1000
1000
,
0010
0010
0100
0100
0010
1000
0001
0010
,
0001
1000
0001
1000
0001
0000
0000
0000
1001
0000
0000
0000
2000
0000
0000
0000
,
3020
0032
0023
2030
,
3200
0302
0203
2300
,
3020
0032
2003
3200
,
0302
0000
0000
1003
0000
0000
0010
1000
0001
0010
0000
0000
,
0100
1000
0001
0100
0000
0000
0001
0010
0100
1000
0000
0000
,
0001
0100
0010
1000
0000
0000
0100
0010
0001
1000
0000
0000
,
0010
0100
0001
1000
0000
0000
0001
0010
0001
1000
0010
1000
,
0001
0000
0000
0000
0000
0000
0000
0000
0000
0000
0000
0000
0000
0000
0000
0000
0010
0000
0000
0000
0000
0000
0000
0000
0000
0000
0000
0000
0000
0000
0000
0000
0100
0000
0000
0000
0000
0000
0000
0000
0000
0000
0000
0000
0000
0000
0000
0000
1000
0000
0000
0000
0000
0000
0000
0000
0000
0000
0000
0000
0000
0000
0000
0000
0010
0000
0000
0000
0000
0000
0000
0000
0000
0000
0000
0000
0000
0000
0000
0000
0100
0000
0000
0000
0000
0000
0000
0000
0000
0000
0000
0000
0000
0000
0000
0000
0002
0000
0000
0003
0000
0000
0000
0000
0000
0000
0000
0000
0000
0000
0000
0000
0000
0000
0000
0000
0000
0000
0000
0000
0000
0000
0000
0000
0000
0000
0000
0000
0000
0000
0000
0000
0000
0000
0000
0000
0000
0000
0000
0000
0000
0000
0000
0000
0000
0000
0000
0000
0000
0000
0000
0000
0000
0000
0000
0000
0000
0000
0000
0000
0000
0000
0000
0000
0000
0000
0000
0000
0000
0000
0000
0000
0000
0000
0000
0000
0000
0000
0000
0000
0000
0000
0000
0000
0000
0000
0000
0000
0000
0000
0000
0000
,
0000
0000
0000
0000
,
0000
0000
0002
2003
,
3020
0000
0230
0302
2003
3200
0320
0032
,
1003
0000
0000
0000
0010
0000
0000
0000
1000
0000
0000
0000
0010
0000
0000
0000
0100
0000
0000
0000
0001
0000
0000
0000
0100
0000
0000
0000
0001
0000
0000
0000
2000
3000
0000
0000
0000
0000
0000
0000
0001
0000
0000
0000
0000
0000
0000
0000
0002
0003
0000
0000
0000
0000
0000
0000
0010
0000
0000
0000
0000
0000
0000
0000
,
0020
0030
0000
0000
0000
0000
0000
0000
0100
0000
0000
0000
0000
0000
0000
0000
0200
0300
0000
0000
0000
0000
0000
0000
1000
0000
0000
0000
0000
0000
0000
0000
0001
0000
0000
0000
0000
0000
0000
0000
0100
0000
0000
0000
0000
0000
0000
0000
0010
0000
0000
0000
0000
0000
0000
0000
1000
0000
0000
0000
0000
0000
0000
0000
,
0200
0300
0000
0000
0000
0000
0000
0000
0010
0000
0000
0000
0000
0000
0000
0000
0020
0030
0000
0000
0000
0000
0000
0000
0100
0000
0000
0000
0000
0000
0000
0000
0200
0300
0000
0000
0000
0000
0000
0000
1000
0000
0000
0000
0000
0000
0000
0000
2000
3000
0000
0000
0000
0000
0000
0000
0001
0000
0000
0000
0000
0000
0000
0000
,
0100
0000
0000
0000
0000
0000
0000
0000
0010
0000
0000
0000
0000
0000
0000
0000
0100
0000
0000
0000
0000
0000
0000
0000
0001
0000
0000
0000
0000
0000
0000
0000
2000
3000
0000
0000
0000
0000
0000
0000
0001
0000
0000
0000
0000
0000
0000
0000
0002
0003
0000
0000
0000
0000
0000
0000
1000
0000
0000
0000
0000
0000
0000
0000
,
2000
3000
0000
0000
0000
0000
0000
0000
0100
0000
0000
0000
0000
0000
0000
0000
0200
0300
0000
0000
0000
0000
0000
0000
0010
0000
0000
0000
0000
0000
0000
0000
0001
0000
0000
0000
0000
0000
0000
0000
1000
0000
0000
0000
0000
0000
0000
0000
0010
0000
0000
0000
0000
0000
0000
0000
0100
0000
0000
0000
0000
0000
0000
0000
,
0002
0003
0000
0000
0000
0000
0000
0000
0010
0000
0000
0000
0000
0000
0000
0000
0020
0030
0000
0000
0000
0000
0000
0000
0100
0000
0000
0000
0000
0000
0000
0000
0200
0300
0000
0000
0000
0000
0000
0000
0010
0000
0000
0000
0000
0000
0000
0000
0020
0030
0000
0000
0000
0000
0000
0000
0001
0000
0000
0000
0000
0000
0000
0000
,
2000
0000
3001
1000
0100
1000
0010
0100
,
0001
1000
0001
0000
0010
0000
0100
0000
1000
0000
0100
0000
0010
0000
0001
0000
,
0200
0000
0310
1000
0001
0010
0001
1000
,
0010
0000
0100
0000
0001
0000
1000
0001
0020
0000
0000
0000
0130
0000
1000
0000
,
0001
0000
1000
0001
0100
0001
0010
0100
,
1000
0001
1000
0000
0010
0000
0100
0000
0001
0000
0100
0000
0010
0000
1000
0000
,
0200
0000
0310
0001
1000
0010
1000
0001
,
0010
0000
0100
0000
1000
0001
1000
0001
1000
0000
0010
0000
0100
0000
0001
0000
,
1000
1001
0000
0000
,
0000
0100
0000
0000
,
0000
0000
0010
0000
0000
0000
0001
0001
,
1000
0000
1000
0000
0001
0010
0001
1000
0010
1000
0100
0010
0001
0100
0010
1000
,
0001
1001
1000
0001
0010
0001
0100
0010
,
0001
0010
1000
0100
0001
0100
0010
0100
,
2000
0000
0000
3010
1000
0001
1000
0100
,
0010
0001
0200
0000
1300
0100
0001
1000
,
2001
0000
0000
3010
1000
0001
0010
0100
,
0010
0001
2000
0000
3010
0100
1000
0100
,
0001
0000
1000
0100
0010
1000
0010
0100
,
1000
0001
0100
0000
0010
0100
0000
0001
,
1000
0000
0001
0000
1001
1000
0100
0010
,
1000
0010
0001
0100
1000
0100
0010
0100
,
0002
0000
0000
0013
0001
1000
0001
0100
,
0010
1000
0200
0000
0301
0100
1000
0001
,
1002
0000
0000
0013
0001
1000
0010
0100
,
0010
1000
0002
0000
0013
0100
0001
0100
,
1000
0001
1000
0010
0100
1000
0001
0010
,
0100
0001
1000
1000
0001
0001
0010
0100
,
1000
0001
1000
0001
1000
0000
0000
0000
1001
0000
0000
0000
1000
0000
1000
0000
,
0001
0001
0100
0010
1000
0001
0010
1000
,
0001
0100
1000
0000
1001
0000
0001
0001
,
1000
1000
0100
0010
0001
1000
0010
0001
,
1000
0100
0001
0000
1001
0000
1000
1000
,
0001
0001
0100
0010
1000
0100
0010
0001
,
0100
0010
1000
1000
0100
0010
0001
0001
,
0100
0000
0010
0000
1000
0001
0010
0000
0001
1000
0100
0000
0010
0001
1000
0000
,
0001
1000
0001
0000
1000
0000
0100
0000
0001
0000
0100
0000
0010
0000
0100
0000
,
1000
0100
0001
0100
1000
0100
0001
1000
,
0010
0000
0001
1000
0010
0000
0100
0000
0001
0000
0100
0000
0010
0000
0100
0000
,
1000
0100
0001
0100
0010
0100
1000
0001
,
0010
0000
1000
0001
0010
0000
0100
0000
1000
0000
0100
0000
0010
0000
0100
0000
,
0001
0100
1000
0100
0010
0100
0001
1000
,
0010
0000
0001
1000
0010
0000
0100
0000
0100
0000
0001
0000
1000
0000
0100
0000
,
0100
0000
0010
0000
0001
1000
0001
0000
0100
0001
0100
0000
0010
1000
0010
0000
,
1000
0001
1000
0000
0001
0000
0010
0000
0100
0000
1000
0001
1000
0000
0001
0000
,
1000
0010
0100
0001
0000
0000
0000
0000
0000
0000
0000
0000
2002
0000
0000
0000
,
0000
0000
0000
0000
,
0000
0000
3003
0000
,
0000
0000
0000
0000
;
#NOTES:
     dance-single:
     :
     Hard:
     18:
     :
0000
0000
0000
0000
,
0000
0000
0000
0000
,
0000
0000
0000
0000
,
0000
0000
0000
0000
,
0000
0000
0000
0000
,
1000
0100
0010
0001
1000
0100
0010
0001
,
1000
0000
0100
0000
0010
0000
0001
1000
0100
0010
0001
1000
0100
0010
0001
1000
,
0001
0000
1000
0010
0100
0001
1000
0010
,
0100
0000
0001
0000
1000
0000
0010
0100
0001
1000
0010
0100
0001
1000
0010
0100
,
0001
1000
0100
0010
0001
0100
0010
1000
,
0100
0000
0010
0000
0001
0000
1000
0000
0001
0100
0010
1000
0100
0010
0001
0100
,
0010
0100
0001
0010
0100
1000
0010
0100
,
0010
1000
0010
1000
0001
0010
0001
0010
0100
1000
0100
1000
0001
0100
0001
0100
,
0020
0000
0000
0000
0000
0000
0130
0001
0100
0001
1000
0010
1000
0010
0100
0010
0100
0000
0000
0000
0001
0000
0000
0000
0100
0000
0000
0000
0001
0000
0000
0000
,
1000
0100
1000
0100
0010
0001
1000
0010
,
0001
0010
1000
0001
1001
0001
0001
1001
,
1000
1000
1100
0100
0100
0110
0010
0010
,
0001
0001
1000
1000
1001
0000
1000
0100
,
1000
0100
0010
0001
0010
0001
1000
0010
,
0001
0000
0010
0000
1000
0000
0100
0000
1100
0000
1000
0100
0010
0000
0000
0000
,
0011
0000
0001
0010
0100
0000
0000
0000
1010
0000
1000
0010
0100
0000
0000
0000
,
0101
0000
0001
0100
0010
0000
0000
0000
0110
0000
0001
0000
0010
0000
0001
0000
,
1000
0010
1000
0010
0100
0001
1000
0100
,
0001
0100
1000
0001
0011
0010
0010
0110
,
0100
0100
1100
1000
1000
1001
0001
0001
,
0100
0100
0010
0010
0110
0000
0001
0001
,
0100
0100
0001
0010
0100
1000
0100
1000
,
0001
0000
0100
0000
0001
0000
0100
0000
0001
0100
0001
0100
0010
0000
0000
0000
,
1000
0100
1000
0100
0010
0000
0000
0000
0001
0010
0001
0010
0100
0000
0000
0000
,
1000
0000
0000
0010
0000
0000
1000
0000
0000
0010
0000
0000
0100
0000
0000
0000
0000
0000
0000
0000
0000
0000
0000
0000
0100
0000
0000
0000
0001
0000
0000
0000
0100
0000
0000
0000
0001
0000
0000
0000
0100
0000
0000
0000
0001
0000
0000
0000
,
0010
0100
0010
0100
0010
0100
1000
0100
1000
0100
1000
0100
,
0010
0001
0010
0001
0010
0001
1000
0001
1000
0001
1000
0001
,
0100
0010
0100
0010
0100
0010
1000
0010
0001
0010
1000
0001
,
1000
0100
0001
0100
1000
0010
1000
0100
0010
0001
0001
0100
,
0010
1000
0010
1000
1000
0100
0010
0001
1000
0001
0001
0100
,
0010
1000
0100
0010
0010
0001
0010
0100
0010
0001
0001
0010
,
0100
1000
0100
1000
1000
0010
0001
0010
1000
0001
0010
1000
,
0001
0000
0000
0000
0100
0000
0000
0000
1000
0000
0000
0000
0001
0000
0000
0000
0100
0000
0000
0000
0010
0000
0000
0000
0110
0000
0000
0000
0000
0000
0000
0000
0000
0000
0000
0000
0000
0000
0000
0000
0000
0000
1000
0000
0000
0100
0000
0000
,
2000
0000
0000
0000
0000
0000
3001
0100
0002
0000
0000
0000
0013
0000
0100
0000
,
0020
0000
0000
0000
0000
0000
0000
0000
0000
0000
0000
0000
0031
0000
0100
0000
1000
0000
0000
0000
0000
0000
0000
0000
0110
0000
0000
0000
0000
0000
0001
0010
,
0200
0000
0310
0100
1000
0100
0010
0001
,
1000
0100
1000
0100
1000
0000
0100
0000
0010
0001
0010
0001
0010
0000
0100
0000
0110
0000
0000
0000
1000
0000
0000
0000
1100
0000
0000
0000
0001
0000
0000
0000
,
0101
0000
1000
0000
1010
0000
0001
0000
0010
0001
0010
0001
1000
0100
1000
0100
,
1000
0001
0101
1000
1010
0001
0011
1000
,
0100
1000
0100
1000
0001
0010
0001
0010
0001
0000
0100
0000
0110
0000
0001
0000
,
1001
0000
1000
0000
1010
0000
0010
0100
0001
0010
0001
0010
0100
1000
0100
1000
,
0001
1100
1010
0011
0101
1100
1010
0220
,
0000
0000
0330
0000
1001
0000
0000
1000
0100
0000
0010
0000
0001
0100
0001
0000
,
1000
0100
1000
0000
0010
0000
0000
1000
0100
0000
0010
0000
0001
0010
0001
0010
,
0001
1000
0010
0000
0110
0000
0000
0010
1000
0000
0100
0000
1000
0010
1000
0000
,
0001
0010
0001
0000
1000
0010
0100
0010
1000
0001
0100
0000
0001
0100
0010
0100
,
0001
1000
0100
0010
0001
0000
0000
1000
0010
0000
0100
0000
0001
0010
0100
0000
,
1000
0001
1000
0000
0001
0010
0001
0010
0001
0000
1000
0000
0100
1000
0100
1000
,
0100
0010
0001
1000
0010
0000
0000
0100
0010
0000
1000
0000
0001
0100
0010
0000
,
1000
0001
1000
0000
0010
1000
0010
1000
0001
0100
0001
0100
0001
0010
0001
0010
,
0100
1000
0100
1000
0001
0000
0000
0000
1001
0000
0000
0000
0001
0000
0100
0000
,
1000
0100
0101
0000
1001
0000
1000
0100
,
0001
0100
1100
0000
1001
0000
0001
0001
,
1000
0000
1000
0000
0001
0100
0010
1000
0100
0010
0001
0100
0020
0000
0000
0000
,
0000
0000
0030
0000
1001
0000
1000
0100
1000
0000
0001
0100
0001
0000
0100
0010
,
0100
0000
0001
0000
2000
0000
0000
0000
3001
0000
0010
0000
0100
0000
1000
0001
,
2000
0000
0000
0000
3000
0000
0001
0010
0100
0000
0010
0100
1000
0000
0001
0100
,
0010
0000
1000
0000
0001
0000
0100
0000
1000
0000
0100
0000
0001
1000
0001
1000
,
0002
0000
0000
0003
0000
0000
1000
0100
0010
0000
0100
0010
0001
0000
1000
0000
,
0010
0000
1000
0000
0001
0100
0010
1000
0001
0000
1000
0100
0010
0001
1000
0000
,
0010
0100
0010
0000
0100
0010
0100
0001
1000
0000
0001
0000
0010
0000
0100
1000
,
0100
0000
0010
0000
0001
0000
0100
0001
0100
0000
0020
0000
0000
0000
0130
0010
,
0100
0010
0100
0000
0001
0010
0001
0010
0001
0000
1000
0100
1000
0000
0001
0100
,
0001
0000
0100
0000
0010
1000
0010
0000
0100
0000
0001
0000
0010
0000
0100
1000
,
0002
0000
0000
0000
0003
0000
1000
0100
0010
0000
0100
0010
0001
0000
1000
0010
,
0100
0000
0001
0000
0100
0010
1000
0001
0010
0000
0100
0000
1000
0100
0010
0001
,
2000
0000
0000
0000
3000
0000
0001
0100
0010
0000
0100
0010
1000
0000
0001
0000
,
0010
0000
0100
0000
1000
0100
0010
0001
1000
0000
0001
0100
0010
1000
0001
0000
,
0010
0100
0010
0000
0100
0010
0100
1000
0001
0000
1000
0010
0100
0000
0001
0100
,
0001
0100
0010
0000
1000
0000
0001
0010
0100
1000
0010
0100
0010
0000
1000
0000
,
0010
0100
0001
0000
1001
1000
0001
0001
,
0100
0000
0100
0000
0010
0000
0010
0000
1000
0000
1000
0100
0010
0001
0010
0100
,
1000
0010
0100
0001
1000
0000
0000
0000
1001
0000
0001
0000
0100
0000
0100
0000
,
0010
0000
0010
0000
1000
0000
1000
0000
0001
0000
0001
0010
0100
0010
0001
1000
,
0010
0100
0010
1000
0001
0000
0001
0000
0100
0000
0100
0000
0010
0000
0010
0000
,
1000
0000
1000
0000
0001
0000
0001
0000
0010
0000
0010
0100
1000
0100
1000
0010
,
0100
0001
0010
0001
0010
0000
0010
0000
0100
0000
0100
0000
1000
0000
1000
0000
,
0010
0010
2020
3030
0202
0303
2002
0000
,
0000
0000
3003
0000
1000
0000
0100
0000
1000
0010
0100
0000
0001
0000
0100
0000
,
0001
0010
0100
0000
0010
0000
0100
0000
1000
0000
0001
0010
0001
0100
0010
1000
,
0100
0010
0100
1000
0001
0000
1000
0000
0100
1000
0001
0000
0100
0000
0001
0000
,
0010
0001
1000
0000
0100
0000
0010
0000
0001
0000
1000
0010
0100
0001
0010
0100
,
1000
0010
0100
0010
1000
0000
0001
0000
0010
0001
0100
0000
0010
0000
1000
0000
,
0010
1000
0100
0000
0010
0000
0100
0000
1000
0000
0100
1000
0001
0010
0100
1000
,
0010
0100
0001
0010
0100
0000
0100
0000
1000
0000
0010
0000
0010
0000
0100
0000
,
0001
0000
0001
0000
0010
0001
0010
0001
0100
0001
0100
0001
1000
0100
1000
0100
,
1000
0010
1000
0010
1000
0100
0010
0001
0100
0010
1000
0001
1000
0010
0100
0010
,
1000
0001
0010
0100
0000
0000
0000
0000
0000
0000
0000
0000
0220
0000
0000
0000
,
0000
0000
0000
0000
,
0000
0000
0330
0000
,
0000
0000
0000
0000
;
#NOTES:
     dance-single:
     :
     Challenge:
     19:
     :
0000
0000
0000
0000
,
0000
0000
0000
0000
,
0000
0000
0000
0000
,
0001
1000
0100
1000
0001
0100
0010
1000
0001
0010
0100
1000
0001
0100
0010
0100
,
0001
1000
0100
1000
0001
0100
0010
1000
0001
0010
0001
1000
0010
0100
0001
1000
0001
0010
0100
1000
0010
0100
0001
1000
,
0100
0000
1001
0000
0001
0010
0100
1000
,
0001
0000
0100
0000
0010
0000
1000
0001
0010
0001
1000
0010
0100
0001
1000
0100
,
0010
0000
0110
0000
1000
0001
0100
0001
,
1000
0000
0100
0000
0010
0000
0001
1000
0010
1000
0001
0010
0100
1000
0001
0100
,
0010
0000
0110
0000
0001
1000
0100
1000
,
0010
0000
0100
0000
0001
0000
1000
0100
0010
0001
1000
0010
1000
0001
0010
0100
,
1000
1000
0010
0100
0001
0001
0010
0100
,
1000
0001
0010
0001
0100
0010
1000
0100
1000
0001
0100
0010
1000
0100
0010
0001
,
0200
0000
0000
0000
0300
0000
0010
1000
0001
0010
0100
1000
0001
0100
0010
1000
0001
0000
0000
0000
0001
0000
0000
0000
1000
0000
0000
0000
0100
0000
0000
0000
,
0010
0001
1000
1000
0010
0100
1000
0100
,
0001
0000
1001
0000
1000
1000
0001
0100
,
0010
1000
0001
0001
0010
0100
0001
0100
,
1000
0000
1001
0000
0001
0001
1000
0100
,
0010
0001
1000
1000
0010
0100
0001
1000
,
0100
0000
0010
0000
0100
0000
1000
0000
0001
0100
0010
0100
0001
0000
1000
0000
,
0100
0010
0001
0010
0100
0000
1000
0000
0010
0100
0001
0100
0010
0000
1000
0000
,
0001
0010
0100
1000
0001
1000
0010
0100
0001
0000
0001
0000
1000
0000
0100
0000
,
0001
0100
1000
1000
0001
0100
0010
1000
,
0100
0000
0010
0000
0001
1000
0001
0000
1000
0000
1000
0000
0001
0000
0100
0000
,
1000
0100
0001
0001
1000
0100
0010
0001
,
0100
0000
0010
0000
1000
0001
1000
0000
0001
0000
0001
0000
0100
0000
0010
0000
,
1000
0001
0010
0100
0001
0100
0010
0001
,
1000
0010
0100
0001
1000
1100
0001
0011
,
1000
0000
1010
0000
0001
0000
0101
0000
1000
0010
0100
0001
1000
0100
1000
0001
,
0100
0000
0000
0010
0000
0000
1000
0000
0000
0100
0000
0000
0010
0000
0000
0001
0000
0000
0100
0000
0000
0010
0000
0000
1000
0000
0000
0000
0001
0000
0000
0000
0010
0000
0000
0000
0001
0000
0000
0000
1000
0000
0000
0000
0010
0000
0000
0000
,
1000
0001
0010
0100
1000
0001
0100
0010
0100
0001
1000
0100
,
1000
0010
0100
0001
1000
0100
0010
0001
1000
0010
1000
0001
,
0010
0001
1000
0010
0100
0001
0010
0100
1000
0001
0100
0010
,
1000
0001
0010
0001
1000
0010
0100
0001
1000
1001
0001
1000
,
0100
0010
0001
0011
1000
0001
1000
0010
0100
0101
0001
1000
,
0001
0010
0100
1100
1000
0001
0100
0010
1000
1010
0001
0010
,
0100
1000
0001
1001
1000
0001
0100
0100
0100
0010
0010
0010
,
1000
0001
0100
0010
1000
0001
0010
0000
0000
0000
0000
0000
,
0000
0000
0000
0000
,
0000
0000
2000
3002
,
0023
0000
0230
2300
3002
0203
0320
2030
,
3002
0000
0023
0000
0230
0000
2300
0000
3002
0003
0200
0300
0020
0030
2000
3000
0001
0000
0000
0000
1000
0000
0000
0000
1100
0000
0000
0000
0001
0000
0000
0000
,
0011
0000
1000
0000
1001
0000
0001
0000
1000
0010
0100
0001
1000
0100
0010
0001
,
1000
0001
0101
1000
1010
0001
1001
1000
,
0010
0100
0001
1000
0100
0010
0001
1000
0010
0000
0100
0000
0110
0000
0001
0000
,
1001
0000
1000
0000
1100
0000
0001
0000
1000
0010
0100
0001
1000
0100
0010
0001
,
1000
0001
0011
1000
1010
0001
1001
1000
,
0200
0000
0000
0000
0310
0001
1000
0001
0100
0010
0100
0001
1000
0100
0010
0001
,
1000
0010
0100
0001
1000
0100
1000
0001
0010
0001
1000
0010
1000
0001
0010
0100
,
1000
0001
0100
0010
1000
0001
0010
0001
1000
0010
0100
0010
1000
0001
0010
0100
,
1000
0001
0100
0010
1000
0100
1000
0001
0100
0010
0100
0010
1000
0001
0010
0100
,
1000
0001
0100
0010
1000
0001
0010
0001
1000
0010
0100
0010
1000
0001
0010
0100
,
1000
0010
0100
0001
1000
0100
1000
0010
0100
0001
1000
0100
0010
0100
1000
0001
,
0100
0010
1000
0001
0010
0001
1000
0010
1000
0001
0010
0100
0010
0001
1000
0010
,
0100
0001
0010
0001
1000
0010
1000
0100
1000
0001
0010
0001
0100
0001
1000
0010
,
0100
0001
0010
0100
2000
0000
0000
0000
3002
0000
0000
0000
1003
0000
0000
0000
,
0001
0100
0001
0100
0001
0100
0001
0100
0020
0000
0000
0000
0000
0000
0000
0000
0130
0000
0000
0000
0000
0000
0000
0000
1000
0100
1000
0100
1000
0100
1000
0100
,
0020
0000
0000
0000
0001
0000
0000
0000
0130
0000
0000
0000
0001
0001
1000
1000
,
0010
0000
0100
0000
0010
0000
0100
0000
0001
0000
1000
0000
0100
0000
1000
0000
0001
0000
0010
0000
0001
0000
1000
0000
0010
0100
0001
1000
0100
0010
0001
1000
,
0010
0100
0001
1000
0100
0000
0000
0000
1000
0000
0000
0000
0001
0000
0100
0000
0010
0000
0000
0000
1000
0000
0001
0000
0010
0000
0000
0000
0001
0000
0100
0000
,
1000
0000
0100
0000
0001
0000
1000
0000
0010
0000
0100
0000
0001
0000
1000
0100
,
0020
0000
0001
0000
0000
0000
0130
1000
0001
0000
1000
0001
0100
0000
1000
0100
,
0001
0000
1000
0000
0001
0010
0100
1000
0001
0100
0010
0100
0001
1000
0100
0010
,
0002
0000
0000
0000
0000
0000
0013
0100
1000
0000
0010
0100
0001
0000
0010
0000
,
0001
0000
0100
0000
0010
1000
0001
0000
0010
0000
0100
1000
0001
0000
0100
0000
,
0001
1000
0100
0000
0010
0001
1000
0001
0100
0000
0010
0000
0100
0000
1000
0100
,
0001
0000
1000
0100
0001
0000
0100
1000
0002
0000
2000
0000
3003
0000
0001
1000
,
0001
1000
0010
0000
0100
0001
1000
0100
0010
0000
0001
1000
0010
0000
1000
0100
,
0001
0000
0100
0000
1000
0000
0001
0000
0010
0000
0100
0000
1000
0000
0001
0100
,
0020
0000
1000
0000
0000
0000
0130
0001
1000
0000
0001
1000
0100
0000
0001
0100
,
1000
0000
0001
0000
1000
0010
0100
0001
1000
0100
0010
0100
1000
0001
0100
0010
,
2000
0000
0000
0000
0000
0000
3010
0100
0001
0000
0010
0100
1000
0000
0010
0000
,
1000
0000
0100
0000
0010
0001
0100
0000
1000
0000
0100
0001
0010
0000
0100
0000
,
1000
0001
0100
0000
0010
1000
0001
1000
0100
0000
0010
0001
1000
0000
0010
1000
,
0001
0000
0100
0001
0010
0000
0100
1000
0010
0100
0001
1000
0100
1000
0010
0100
,
0001
1000
0001
0010
0100
0000
0000
0000
0110
0000
0000
0000
0001
0000
0001
0000
,
1000
0000
1000
0000
0100
0000
0010
0000
0001
0000
1000
0010
0100
0001
1000
0001
,
0010
0100
1000
0001
0100
0000
0000
0000
0101
0000
0000
0000
0100
0000
0100
0000
,
0010
0000
0010
0000
1000
0000
0001
0000
0100
0000
0001
0010
0100
1000
0001
1000
,
0010
0100
0001
1000
0100
0000
0000
0000
1100
0000
0000
0000
0100
0000
0100
0000
,
0010
0000
0010
0000
0001
0000
1000
0000
0100
0000
1000
0001
0100
0010
1000
0001
,
0010
0100
1000
0001
0100
0000
0100
0000
0001
0000
1000
0000
0100
0000
0100
0000
,
1000
0000
0001
0000
1000
0010
0100
0001
1000
0100
0010
0001
0100
0010
1000
0001
,
0010
0100
1000
0001
0100
0000
1000
0000
0100
0000
0001
0000
1000
0000
0100
0000
,
0001
0000
0100
0000
1000
0000
0001
0000
0100
0000
0010
1000
0001
0010
0001
1000
,
0010
0100
0001
1000
0100
0000
0001
0000
0100
0000
1000
0000
0001
0000
0100
0000
,
1000
0000
0100
0000
0001
0000
1000
0000
0100
0000
0010
0001
1000
0010
0100
0001
,
0010
0100
1000
0001
0100
0000
1000
0000
0100
0000
0001
0000
1000
0000
0100
0000
,
0001
0000
0100
0000
1000
0000
0001
0000
0100
0000
0010
1000
0001
0010
0001
1000
,
0010
0100
0001
0010
0100
0000
0100
0000
1000
0000
0001
0000
0100
0000
0100
0000
,
0010
0000
1000
0000
0001
0010
0001
0100
0010
1000
0100
1000
0001
0100
0010
1000
,
0100
0010
0001
1000
0001
0100
0010
1000
0001
0010
0100
1000
0010
1000
0001
0010
,
0100
0000
0000
1000
0000
0000
0001
0000
0000
0100
0000
0000
0000
0000
0000
0000
0000
0000
0000
0000
0000
0000
0000
0000
0000
0000
0000
0000
0000
0000
0001
0000
0010
0000
0100
0000
2000
0000
0000
0000
0000
0000
0000
0000
0000
0000
0000
0000
,
0000
0000
0000
0000
,
0000
0000
3000
0000
,
0000
0000
0000
0000
;
#NOTES:
     dance-double:
     :
     Easy:
     11:
     :
00000000
00000000
00000000
00000000
,
00000000
00000000
00000000
00000000
,
00000000
00000000
00000000
00000000
,
00000000
00000000
00000000
00000000
,
00000000
00000000
00000000
00000000
,
00022000
00033000
00000000
00000000
00000000
00000000
00000000
00000000
00001000
00000000
00000000
00000000
00000000
00000000
00000000
00000000
01000000
00000000
00000000
00000000
00000000
00000000
00000000
00000000
00010000
00000000
00000000
00000000
00000000
00000000
00000000
00000000
,
00100000
00000000
01000000
00000000
10000000
00000000
00010000
01000000
,
00100000
01100000
00001000
00010000
,
00000010
00001000
00000100
00000000
,
00000110
00010000
00001000
01000000
,
00010000
00000000
10000000
00000000
00100000
00000000
10000000
01000000
,
00100000
00001000
00010000
00000010
,
00010000
00001000
00010000
00001000
00010000
00001000
00010000
00001000
,
00020000
00000000
00000000
00000000
00000000
00000000
00000000
00000000
00000000
00000000
00000000
00000000
00030000
00000000
00000000
00000000
00002000
00003000
00000000
00000000
00000000
00000000
00000000
00000000
00010000
00000000
00000000
00000000
00000000
00000000
00000000
00000000
,
00000100
00001000
00000010
00010000
,
00001000
00000010
00000001
00000001
,
00000100
00000010
00001000
00000100
,
00010000
00001000
01000000
00010000
,
00100000
00001000
00010000
00100000
,
10000000
10000000
01000000
01100000
,
00010000
00110000
00001000
00011000
,
00000010
00001010
00010000
00001000
,
00100000
00010000
01000000
00001000
,
00010000
01000000
10000000
10000000
,
00100000
01000000
00010000
00100000
,
00001000
00010000
00000010
00001000
,
00000100
00010000
00001000
00000100
,
00000001
00000000
00000001
00000000
00000010
00000001
00000010
00000000
,
00000100
00001000
00000100
00000000
00010000
00001000
00010000
00000000
,
00001000
00011000
00020000
02030000
,
23000000
30200000
00320000
00032000
,
00023000
02030000
23000000
32000000
,
03020000
00032000
00003020
00002030
,
00023000
00032000
00003200
00000302
,
00000023
00002030
00023000
00032000
,
00003200
00000302
00000023
00000230
,
00020300
00031000
00010000
00011000
,
01000000
00000000
00000000
00000000
00000000
00000000
00000000
00000000
01100000
00000000
00000000
00000000
00000000
00000000
00000000
00000000
20020000
30030000
00000000
00000000
00000000
00000000
00000000
00000000
00000000
00000000
00000000
00000000
00000000
00000000
00000000
00000000
,
00000000
00000000
00000000
00000000
,
00000000
00000000
20000000
32000000
,
03200000
00000000
00320000
00000000
10030000
00100000
01000000
00100000
,
10000000
00000000
00000000
00000000
00000000
00000000
00000000
00000000
00000000
00000000
00000000
00000000
00000000
00000000
00000000
00000000
22000000
33000000
00000000
00000000
00000000
00000000
00000000
00000000
02200000
03300000
00000000
00000000
00000000
00000000
00000000
00000000
,
00220000
00330000
00000000
00000000
00000000
00000000
00000000
00000000
00202000
00303000
00000000
00000000
00000000
00000000
00000000
00000000
00000000
00000000
00000000
00000000
00000000
00000000
00000000
00000000
00000000
00000000
00000000
00000000
00000000
00000000
00000000
00000000
,
00022000
00033000
00000000
00000000
00000000
00000000
00000000
00000000
02002000
03003000
00000000
00000000
00000000
00000000
00000000
00000000
00022000
00033000
00000000
00000000
00000000
00000000
00000000
00000000
00020020
00030030
00000000
00000000
00000000
00000000
00000000
00000000
,
00000000
00000000
00000000
00000000
00000000
00000000
00000000
00000000
00000000
00000000
00000000
00000000
00000000
00000000
00000000
00000000
00022000
00033000
00000000
00000000
00000000
00000000
00000000
00000000
00020200
00030300
00000000
00000000
00000000
00000000
00000000
00000000
,
00002200
00003300
00000000
00000000
00000000
00000000
00000000
00000000
00002002
00003003
00000000
00000000
00000000
00000000
00000000
00000000
00000000
00000000
00000000
00000000
00000000
00000000
00000000
00000000
00000000
00000000
00000000
00000000
00000000
00000000
00000000
00000000
,
00000220
00000330
00000000
00000000
00000000
00000000
00000000
00000000
00002020
00003030
00000000
00000000
00000000
00000000
00000000
00000000
00020020
00030030
00000000
00000000
00000000
00000000
00000000
00000000
00022000
00033000
00000000
00000000
00000000
00000000
00000000
00000000
,
00000000
00000000
00001000
00000000
00010000
00000000
00000100
00001000
,
00000100
00000000
00010000
00000000
00001000
00000000
00100000
00010000
,
00100000
00000000
00001000
00000000
00010000
00000000
00000010
00001000
,
00000010
00000000
00010000
00000000
00001000
00000000
01000000
00010000
,
01000000
00000000
00001000
00000000
00010000
00000000
00000100
00000010
,
00000001
00000000
00001000
00000000
00000001
00000000
00000001
00000100
,
00000010
00000000
00010000
00000000
00001000
00000000
01000000
00100000
,
10000000
00000000
00010000
00100000
01000000
00000000
10000000
00010000
,
01000000
00000000
00000000
00000000
00100000
00000000
00000000
00000000
02000000
03000000
00000000
00000000
00000000
00000000
00000000
00000000
00000000
00000000
00000000
00000000
00000000
00000000
00000000
00000000
00000000
00000000
00000000
00000000
00000000
00000000
00000000
00000000
,
00000000
00000000
00000000
00000000
,
00000000
00002000
00000000
00023000
,
00000000
00031000
00000000
00022000
,
00000000
00000000
00000000
00000000
00033000
00000000
00000000
00000000
00002000
00003000
00000000
00000000
00000000
00000000
00000000
00000000
00010000
00000000
00000000
00000000
00000000
00000000
00000000
00000000
00000100
00000000
00000000
00000000
00001000
00000000
00000000
00000000
,
00000100
00000000
00000010
00000000
00000001
00001000
00000001
00000000
,
00000100
00000000
00000010
00000000
00010000
00001000
00010000
00000000
,
00100000
00000000
01000000
00000000
00010000
10000000
00010000
00000000
,
00100000
00000000
01000000
00000000
10000000
00100000
10000000
00000000
,
00010000
00000000
01000000
00000000
00001000
00010000
00001000
00000000
,
00100000
00000000
01000000
10000000
01000000
00000000
00100000
00010000
,
00100000
01000000
10000000
00100000
,
00010000
00000000
00000200
00000000
00000310
00000000
00000001
00000010
,
00000100
00000000
00001000
00000000
00000010
00000000
00010000
00001000
,
00010000
00000000
00001000
00000000
01000000
00010000
00100000
00000000
,
00010000
00000000
10000000
00000000
01000000
00100000
00010000
00000000
,
00100000
00001000
00010000
00000100
,
00000001
00000100
00001000
00000010
,
00010000
00001000
01000000
10000000
,
01000000
00010000
00100000
01000000
,
10000000
10010000
00000000
00010000
,
01000000
00000000
00100000
00000000
10000000
00010000
10000000
00010000
,
00100000
01000000
10000000
00000000
01000000
00000000
00010000
00000000
,
00001000
00000000
00010000
00000000
00000010
00001000
00000010
00001000
,
00000001
00000010
00000100
00000000
00010000
00000000
00001000
00000000
,
00000100
00000000
00000001
00000000
00000010
00000001
00000010
00000001
,
00000010
00000100
00001000
00000000
00000010
00000000
00010000
00000000
,
00001000
00022000
00000000
00033000
,
00000000
00000000
00010000
00000000
00001000
00000000
00010000
00000100
,
00000010
00000000
00001000
00000000
00010000
00000000
00001000
01000000
,
00100000
00000000
00010000
00000000
00001000
00000000
00010000
00000010
,
00000100
00000000
00001000
00000000
00010000
00000000
00001000
00100000
,
01000000
00010000
00001000
00010000
,
00100000
10000000
01000000
00010000
,
00011000
00000000
00001000
00010000
00001000
00010000
00000100
00001000
,
00000100
00000000
00001000
00000010
00000100
00000000
00000001
00000010
,
00000100
00020000
00032000
00003200
,
00000320
00000030
00000000
00002002
,
00000000
00000000
00000000
00000000
,
00000000
00000000
00003003
00000000
,
00000000
00000000
00000000
00000000
;
#NOTES:
     dance-double:
     :
     Medium:
     15:
     :
00000000
00000000
00000000
00000000
,
00000000
00000000
00000000
00000000
,
00000000
00000000
00000000
00000000
,
00000000
00000000
00000000
00000000
,
00000000
00000000
00000000
00000000
,
00022000
00033000
00000000
00000000
00000000
00000000
00000000
00000000
00001000
00000000
00000000
00000000
01000000
00000000
00000000
00000000
00010000
00000000
00000000
00000000
00100000
00000000
00000000
00000000
01000000
00000000
00000000
00000000
00010000
00000000
00000000
00000000
,
00001000
00010000
00000010
00001000
00000100
00000010
00001000
00010000
,
00001000
00000000
00011000
00000000
00010000
00000100
00001000
00000010
,
00000100
00001000
00010000
00001000
00100000
00010000
01000000
00100000
,
00010000
00000000
00001000
00000010
00000001
00001000
00000010
00000100
,
00000001
00000100
00001000
00010000
00100000
01000000
00010000
00100000
,
00001000
00000000
00010000
00000100
00001000
00000010
00010000
00001000
,
00010000
00001000
00010000
00000000
00001000
00000000
00100000
00000000
00010000
00000000
01000000
00000000
00100000
00000000
00010000
00000000
,
00002000
00000000
00000000
00000000
00000000
00000000
00003000
00000000
00000000
00000000
00000000
00000000
00000000
00000000
00000000
00000000
00020000
00030000
00000000
00000000
00001000
00000000
00000000
00000000
00010000
00000000
00000000
00000000
00000100
00000000
00000000
00000000
,
00000010
00000001
00001000
00000010
00000010
00000100
00000001
00000001
,
00000010
00000100
00001000
00000000
00000010
00001000
00001000
00000001
,
00000010
00000100
00001000
00000010
00000010
00010000
00001000
00001000
,
01000000
00010000
00100000
00000000
00001000
00010000
00001000
01000000
,
00010000
00100000
00010000
10000000
00100000
01000000
01000000
00010000
,
10000000
10000000
01000000
00000000
00100000
00010000
00110000
00000000
,
00001000
00010000
00011000
00000000
00000010
00000100
00000110
00000000
,
00010000
00001000
00000100
00000010
00001000
00000000
00000001
00000010
,
00000100
00001000
00000010
00000010
00010000
00001000
01000000
00010000
,
00100000
00001000
00010000
00000000
00000100
00001000
00001000
00000010
,
00010000
00001000
00010000
00100000
01000000
00010000
10000000
01000000
,
10000000
00100000
00100000
00000000
10000000
00100000
01000000
00010000
,
00100000
00001000
00010000
00000100
00000010
00000001
00001000
00000010
,
00000100
00000001
00001000
00000000
00001200
00000000
00010300
00000000
,
00002010
00000000
00003001
00000000
00001100
00000000
00010000
00000100
,
00000010
00000001
00000100
00001000
00020000
00000000
02030000
00000000
,
23000000
30200000
00320000
00032000
,
00003020
00000032
00000203
00002300
,
00023000
02030000
23000000
30200000
,
00320000
00000000
00000000
00031000
00000000
00000000
00010000
00001000
00010000
00001000
00000000
00000000
,
00100000
00010000
00100000
00001000
00000000
00000000
00010000
00000010
00001000
00000010
00000000
00000000
,
00010000
00001000
00100000
00001000
00000000
00000000
00010000
00000010
00001000
00000010
00000000
00000000
,
00010000
00000000
00000000
00001000
00000000
00000000
00010000
00001000
00010000
00001000
00010000
00001000
,
00010000
00000000
00000000
00000000
00000000
00000000
00000000
00000000
00001000
00000000
00000000
00000000
00000000
00000000
00000000
00000000
00010000
00000000
00000000
00000000
00000000
00000000
00000000
00000000
00001000
00000000
00000000
00000000
00000000
00000000
00000000
00000000
00010000
00000000
00000000
00000000
00000000
00000000
00000000
00000000
00001000
00000000
00000000
00000000
00000000
00000000
00000000
00000000
00020000
00000000
00000000
00030000
00000000
00000000
00000000
00000000
00000000
00000000
00000000
00000000
00000000
00000000
00000000
00000000
00000000
00000000
00000000
00000000
00000000
00000000
00000000
00000000
00000000
00000000
00000000
00000000
00000000
00000000
00000000
00000000
00000000
00000000
00000000
00000000
00000000
00000000
00000000
00000000
00000000
00000000
00000000
00000000
00000000
00000000
00000000
00000000
,
00000000
00000000
00000000
00000000
,
00000000
00000000
00002000
00023000
,
00030200
00000000
00001300
00000100
00000010
00000100
00001000
00000001
,
00000200
00000000
00000000
00000000
00000000
00000000
00000000
00000000
00000300
00000000
00000000
00000000
00000000
00000000
00000000
00000000
00000002
00000003
00000000
00000000
00001000
00000000
00000000
00000000
00002000
00003000
00000000
00000000
00000001
00000000
00000000
00000000
,
00000002
00000003
00000000
00000000
00001000
00000000
00000000
00000000
00002000
00003000
00000000
00000000
00000001
00000000
00000000
00000000
00000100
00000000
00000000
00000000
00001000
00000000
00000000
00000000
00010000
00000000
00000000
00000000
01000000
00000000
00000000
00000000
,
20000000
30000000
00000000
00000000
00010000
00000000
00000000
00000000
00020000
00030000
00000000
00000000
10000000
00000000
00000000
00000000
20000000
30000000
00000000
00000000
00010000
00000000
00000000
00000000
00020000
00030000
00000000
00000000
10000000
00000000
00000000
00000000
,
01000000
00000000
00000000
00000000
00010000
00000000
00000000
00000000
00001000
00000000
00000000
00000000
00000100
00000000
00000000
00000000
00000002
00000003
00000000
00000000
00000010
00000000
00000000
00000000
00000020
00000030
00000000
00000000
00000100
00000000
00000000
00000000
,
00000200
00000300
00000000
00000000
00000010
00000000
00000000
00000000
00000020
00000030
00000000
00000000
00000001
00000000
00000000
00000000
00000100
00000000
00000000
00000000
00001000
00000000
00000000
00000000
00010000
00000000
00000000
00000000
00100000
00000000
00000000
00000000
,
20000000
30000000
00000000
00000000
00010000
00000000
00000000
00000000
00020000
00030000
00000000
00000000
01000000
00000000
00000000
00000000
02000000
03000000
00000000
00000000
00100000
00000000
00000000
00000000
00200000
00300000
00000000
00000000
10000000
00000000
00000000
00000000
,
00020000
00000000
00130000
00001000
00010000
00100000
01000000
10000000
,
01000000
00100000
00010000
00001000
00100000
01000000
10000000
00100000
,
00010000
00001000
00100000
00010000
01000000
00100000
00010000
00001000
,
00100000
01000000
00010000
01000000
10000000
00100000
00010000
00001000
,
00010000
00000000
00000100
00010000
00001000
00000100
00000010
00000001
,
00000010
00000100
00001000
00010000
00000100
00000010
00000001
00000100
,
00001000
00000001
00000010
00010000
00001000
00010000
00000100
00000010
,
00001000
00000010
00000100
00010000
00001000
00000100
00000001
00000010
,
00001000
00000000
00000000
00000000
00010000
00000000
00000000
00000000
00200000
00300000
00000000
00000000
00000000
00000000
00000000
00000000
00000000
00000000
00000000
00000000
00000000
00000000
00000000
00000000
00000000
00000000
00000000
00000000
00000000
00000000
00000000
00000000
,
00000000
00000000
00000000
00000000
,
00000000
02000000
00000000
03020000
,
00000000
00130000
00000000
20020000
,
00000000
00000000
00000000
00000000
30030000
00000000
00000000
00000000
20000000
30000000
00000000
00000000
01000000
00000000
00000000
00000000
00100000
00000000
00000000
00000000
00010000
00000000
00000000
00000000
01000000
00000000
00000000
00000000
00100000
00000000
00000000
00000000
,
00010000
00001000
00000010
00000001
00000010
00000100
00001000
00000000
,
00000010
00000000
00001000
00000100
00000010
00000001
00000100
00001000
,
00010000
00100000
01000000
00000000
00001000
00010000
01000000
00000000
,
10000000
00000000
00100000
00010000
00001000
00010000
00001000
00010000
,
01000000
00100000
00001000
00010000
00001000
00000010
00000001
00000100
,
00000010
00000000
00001000
00000001
00000010
00000000
00000100
00010000
,
00001000
00000000
01000000
00010000
10000000
01000000
00100000
00010000
,
10000000
00100000
00010000
00000000
00001000
00000010
00000100
00001000
,
00000001
00000100
00001000
00010000
00100000
10000000
00010000
00000000
,
10000000
00000000
01000000
00100000
00001000
00010000
01000000
10000000
,
00100000
00010000
00001000
00000000
00000010
00000100
00001000
00000010
,
00010000
00001000
00000100
00000000
00000001
00000010
00000100
00001000
,
00000010
00000100
00001000
00000000
00010000
01000000
00100000
00010000
,
10000000
00000000
00100000
01000000
01000000
00010000
00100000
00100000
,
00001000
00010000
00010000
00000100
00000010
00000010
00000001
00000010
,
00000100
00001000
00000010
00000000
00001001
00000000
00001000
00000001
,
00000010
00000001
00000010
00000001
00000010
00000001
00000100
00001000
,
00010000
01000000
10000000
00000000
10010000
00000000
00010000
10000000
,
00100000
10000000
00100000
10000000
00100000
10000000
01000000
00010000
,
00001000
00000100
00000001
00000000
00001001
00000000
00001000
00000001
,
00000100
00000001
00000100
00000001
00000100
00000001
00000010
00001000
,
00010000
00100000
10000000
00000000
10010000
00000000
00010000
00100000
,
01000000
00010000
00001000
01000000
00100000
00010000
00001000
00010000
,
00000100
00000010
00000011
00000000
00000010
00000001
00000100
00001000
,
00000100
00000001
00000010
00001000
00000010
00000001
00000100
00001000
,
00010000
00100000
10000000
01000000
00100000
00010000
10000000
01000000
,
00010000
01000000
10000000
00100000
00010000
00100000
10000000
01000000
,
00010000
00001000
00000010
00000001
00001000
00000010
00000100
00000001
,
00000010
00000100
00001000
00000010
00010000
00001000
00010000
00100000
,
10000000
00010000
01000000
00100000
00010000
00001000
00100000
00010000
,
00001000
00000100
00010000
00001000
00000100
00000010
00001000
00000100
,
00000010
00000001
00000200
00000000
00000000
00000000
00000000
00000000
,
00000000
00000300
00000000
00002002
,
00000000
00000000
00000000
00000000
,
00000000
00000000
00003003
00000000
,
00000000
00000000
00000000
00000000
;
#NOTES:
     dance-double:
     :
     Hard:
     18:
     :
00000000
00000000
00000000
00000000
,
00000000
00000000
00000000
00000000
,
00000000
00000000
00000000
00000000
,
00000000
00000000
00000000
00000000
,
00000000
00000000
00000000
00000000
,
00011000
00000000
00001000
00010000
00000010
00000100
00001000
00010000
,
01000000
00000000
00100000
00000000
00001000
00000000
00010000
00001000
00010000
00000000
00000100
00001000
00000100
00000000
00000010
00000001
,
00001000
00000000
00001001
00000000
00000001
00000010
00000100
00001000
,
00000001
00000000
00000100
00000000
00000010
00000000
00001000
00000001
00001000
00000000
00000001
00000010
00000100
00000000
00001000
00000001
,
00000100
00000010
00010000
00001000
00100000
01000000
00010000
00001000
,
00000100
00000000
00000010
00000000
00010000
00000000
00001000
00010000
00001000
00000000
01000000
00010000
01000000
00000000
00010000
00100000
,
01000000
10000000
00100000
00010000
00001000
00000100
00000001
00000010
,
00000001
00001000
00000001
00001000
00000001
00001000
00000001
00001000
00000001
00000010
00000100
00001000
00000001
00000100
00000010
00000100
,
00000002
00000000
00000000
00000003
00001000
00000001
00000010
00000100
,
00001000
00000010
00010000
00000100
00001000
00000010
00010000
00001000
,
00000100
00000010
00001000
00000001
00000010
00000100
00010000
00001000
,
00010000
00000010
00000100
00001000
00010000
00000100
00000010
00000001
,
00001000
00000010
00000100
00001000
00010000
00000100
00001000
00000010
,
00010000
00001000
00000100
00000010
00000001
00000010
00001000
00000100
,
00000010
00000000
00001000
00000000
00010000
00000000
00000000
00000000
00011000
00000000
00010000
00000100
00001000
00000000
00000000
00000000
,
00001010
00000000
00000010
00010000
00001000
00000000
00000000
00000000
00011000
00000000
00001000
01000000
00100000
00000000
00000000
00000000
,
10000000
00010000
10000000
00010000
10000000
01000000
00100000
00010000
10000000
00000000
00100000
00000000
01000000
00000000
00010000
00000000
,
00100000
00001000
00010000
00001000
01000000
00010000
00100000
00001000
,
00010000
00100000
01000000
00010000
10000000
01000000
00100000
00010000
,
01000000
00100000
00010000
00001000
00100000
00010000
01000000
00001000
,
00010000
00100000
01000000
10000000
01000000
00010000
00100000
00001000
,
00010000
01000000
10000000
01000000
00100000
00010000
01000000
00001000
,
00010000
00000000
00001000
00000000
00100000
00000000
00010000
00000000
00100000
00010000
00100000
00010000
00100000
00000000
00001000
00000000
,
00010000
00001000
00010000
00001000
00010000
00000000
00000100
00000000
00000010
00000001
00000010
00000001
00000010
00000000
00000100
00000000
,
00001000
00000000
00000000
00000100
00000000
00000000
00001000
00000000
00000000
00000000
00000000
00000000
00000010
00000000
00000000
00000000
00000000
00000000
00000100
00000000
00000000
00000000
00000000
00000000
00000001
00000000
00000000
00000000
00000010
00000000
00000000
00000000
00000001
00000000
00000000
00000000
00000100
00000000
00000000
00000000
00000010
00000000
00000000
00000000
00001000
00000000
00000000
00000000
,
00000100
00010000
00001000
00010000
00000010
00001000
00000001
00000010
00000001
00000100
00000010
00001000
,
00000100
00010000
00001000
00010000
00000010
00001000
00000001
00000010
00000001
00000100
00000010
00001000
,
00000100
00010000
00001000
00010000
00000010
00001000
00000100
00010000
00001000
00010000
00000100
00001000
,
00000010
00010000
00001000
00010000
00000000
00000000
00001000
00010000
00100000
01000000
10000000
01000000
,
00100000
00010000
00001000
00100000
00000000
00000000
00001000
00010000
00001000
00000010
00000100
00000001
,
00000100
00000010
00001000
00010000
00000000
00000000
00001000
00010000
00100000
01000000
10000000
01000000
,
00100000
00010000
00001000
00100000
00000000
00000000
00001000
00010000
00000100
00001000
00000010
00000100
,
00001000
00000000
00000000
00000000
00010000
00000000
00000000
00000000
00100000
00000000
00000000
00000000
01000000
00000000
00000000
00000000
00001000
00000000
00000000
00000000
00010000
00000000
00000000
00000000
00002000
00000000
00000000
00000000
00000000
00000000
00000000
00000000
00000000
00000000
00000000
00000000
00000000
00000000
00000000
00003000
00000000
00000000
00010000
00000000
00000000
00001000
00000000
00000000
,
00000200
00000000
00000000
00000000
00000000
00000000
00000000
00000000
00000000
00000000
00000300
00000000
00000010
00000000
00001000
00000000
00000002
00000000
00000000
00000000
00000003
00000000
00000000
00000000
00000010
00000000
00000000
00000000
00000100
00000000
00001000
00000100
,
00002000
00000000
00000000
00000000
00000000
00003000
00000001
00000100
00000020
00000000
00000000
00000000
00020030
00000000
00000000
00000000
,
00032000
00000000
00103000
01000000
10000000
00100000
00010000
00001000
,
00010000
00001000
00010000
00001000
00010000
00000000
00000010
00000000
00010000
00001000
00010000
00001000
00010000
00000000
00001000
00000000
00010000
00000000
00000000
00000000
00001000
00000000
00000000
00000000
01000000
00000000
00000000
00000000
00010000
00000000
00000000
00000000
,
00001000
00000000
00000010
00000000
00001000
00000000
00000100
00000000
00010000
00001000
00010000
00001000
00010000
00001000
00010000
00000000
,
00001000
00010000
00000010
00001000
00010000
01000000
00001000
00010000
,
00001000
00010000
00001000
00010000
00001000
00010000
00001000
00000000
00010000
00000000
00001000
00000000
00100000
00000000
00010000
00000000
,
00001000
00000000
00000100
00000000
00010000
00000000
00001000
00010000
00001000
00010000
00001000
00010000
00001000
00010000
00001000
00010000
,
00001000
00010000
00000100
00001000
00100000
00010000
00001000
00000100
,
00002000
00000000
00000000
00000000
00013000
00000000
00000000
00001000
01000000
00000000
00100000
00000000
10000000
00010000
10000000
00000000
,
01000000
00100000
00010000
00000000
01000000
00000000
00000000
00001000
00010000
00000000
00000010
00000000
00001000
00000001
00001000
00000001
,
00000010
00000100
00001000
00000000
00000001
00000000
00000000
00000100
00000010
00000000
00010000
00000000
00001000
00010000
00001000
00000000
,
01000000
00010000
10000000
00000000
00010000
00100000
00010000
00100000
01000000
10000000
00010000
00000000
10000000
00100000
01000000
00000000
,
00001000
00010000
00000100
00000000
00000010
00000000
00000000
00001000
00010000
00000000
00000100
00000000
00001000
00000001
00000100
00000000
,
00000010
00010000
00001000
00000000
00100000
00010000
00100000
00010000
00100000
00000000
00001000
00000000
01000000
00010000
01000000
00010000
,
10000000
00010000
00100000
01000000
10000000
00000000
00000000
01000000
00010000
00000000
00001000
00000000
00000010
00000001
00000010
00000000
,
00000100
00001000
00000100
00000000
00010000
00001000
00010000
00001000
00100000
00010000
00100000
00001000
00010000
00001000
00010000
00000100
,
00001000
00000100
00001000
00000100
00000020
00000000
00000030
00000000
00000010
00000001
00000010
00000100
00010000
00001000
00010000
00001000
,
00010000
01000000
00010000
01000000
10000000
01000000
10000000
01000000
10000000
00100000
10000000
00100000
00010000
00100000
00010000
00100000
,
00010000
00001000
00010000
00001000
00000100
00001000
00000100
00001000
00000100
00000001
00000100
00000001
00000010
00000001
00000010
00000001
,
00000010
00000100
00010000
00001000
00100000
00010000
00100000
00001000
00010000
00001000
01000000
00010000
00200000
00000000
00000000
00000000
,
00000000
00300000
00010000
10000000
01000000
00100000
00010000
10000000
,
00100000
00010000
00100000
10000000
01000000
00010000
10000000
00100000
,
00001000
00010000
00001000
00000010
00000100
00010000
00001000
00000100
,
00000010
00010000
00000100
00000001
00000100
00010000
00001000
00000100
,
00001000
00100000
01000000
10000000
01000000
00100000
00001000
00010000
,
10000000
01000000
00100000
00010000
00001000
00010000
10000000
00100000
,
00001000
00010000
00000010
00000001
00001000
00000100
00000010
00000001
,
00001000
00010000
00001000
00000001
00000100
00010000
00001000
00000100
,
00000001
00000010
00001000
00000000
00010000
00100000
10000000
00100000
,
00010000
00001000
00000100
00000001
00000010
00000100
00010000
00100000
,
00010000
00001000
00000010
00000100
00010000
01000000
10000000
00100000
,
00010000
00000100
00000010
00000001
00000100
00001000
00010000
00100000
,
01000000
10000000
01000000
00100000
00010000
00001000
00000010
00000001
,
00000100
00001000
00010000
01000000
10000000
00100000
10000000
01000000
,
00010000
00001000
00000100
00000001
00000010
00001000
00010000
01000000
,
10000000
00100000
00010000
00001000
00000100
00000001
00000010
00001000
,
00010000
01000000
10000000
00000000
10010000
00000000
00010000
00010000
,
10000000
00000000
10000000
00000000
01000000
00000000
01000000
00000000
00100000
00000000
00010000
00100000
00001000
00000000
00010000
00000100
,
00001000
00000000
00000010
00000100
00000001
00000000
00000001
00000000
00001000
00000000
00001000
00000000
00000100
00000000
00000100
00000000
,
00000010
00000000
00000010
00000000
00000001
00000000
00000001
00000000
00000100
00000000
00000010
00010000
00001000
00000000
00010000
00001000
,
01000000
00000000
00100000
10000000
00010000
00000000
00010000
00000000
01000000
00000000
01000000
00000000
00100000
00000000
00100000
00000000
,
10000000
00000000
10000000
00000000
00010000
00000000
00010000
00000000
10000000
00000000
01000000
00100000
00010000
00000000
00100000
00001000
,
00010000
00000000
00000010
00000100
00000001
00000000
00000001
00000000
00001000
00000000
00001000
00000000
00000010
00000000
00000010
00000000
,
00000100
00000000
00000100
00000000
00000001
00000000
00000000
00000000
00001000
00000000
00000000
00000000
00000001
00000100
00000001
00000010
,
00000100
00001000
00000010
00001000
00000001
00000000
00000010
00000000
00000100
00000000
00001000
00000000
00000010
00000000
00010000
00000000
,
00001000
00000000
01000000
00000000
00010000
00000000
00100000
00000000
01000000
00000000
10000000
01000000
10000000
01000000
00100000
00010000
,
10000000
00100000
01000000
00010000
10000000
00000000
01000000
00000000
00100000
00000000
00001000
00000000
00010000
00000000
00000010
00000000
,
00001000
00000000
00000100
00000000
00000010
00000000
00000001
00000000
00000100
00000000
00000001
00001000
00000001
00000010
00000100
00001000
,
00000001
00001000
00000010
00000100
00000001
00000000
00000010
00000000
00000100
00000000
00010000
00000000
00001000
00000000
01000000
00000000
,
00100000
00000000
10000000
00000000
01000000
00000000
00100000
00000000
00010000
00000000
10000000
00100000
10000000
00010000
10000000
01000000
,
00100000
00010000
10000000
00010000
01000000
00000000
00100000
00000000
10000000
00000000
00100000
00000000
00010000
00000000
00001000
00000000
,
00010000
00000000
00000100
00000000
00000010
00000100
00001000
00000001
00001000
00000001
00000010
00000100
00001000
00000001
00001000
00000001
,
00000100
00000000
00000010
00000000
00001000
00000001
00000010
00000100
00001000
00000100
00010000
00001000
00010000
00001000
00100000
00010000
,
00100000
01000000
10000000
00010000
00000000
00000000
00000000
00000000
00000000
00000000
00000000
00000000
20020000
00000000
00000000
00000000
,
00000000
00000000
00000000
00000000
,
00000000
00000000
30030000
00000000
,
00000000
00000000
00000000
00000000
;
#NOTES:
     dance-double:
     :
     Challenge:
     19:
     :
00000000
00000000
00000000
00000000
,
00000000
00000000
00000000
00000000
,
00000000
00000000
00000000
00000000
,
00001000
00010000
01000000
00100000
00001000
00010000
00001000
00000100
00000010
00010000
00001000
00010000
01000000
00100000
00010000
00100000
,
00001000
00010000
00001000
01000000
00010000
00100000
00001000
00010000
00000100
00001000
00000010
00010000
00001000
00000100
00000010
00010000
00001000
00010000
01000000
00100000
00010000
10000000
00010000
01000000
,
00100000
10000000
00010000
00100000
01000000
10000000
00100000
00010000
,
00001000
00000000
00010000
00000000
00000100
00000000
00001000
00000010
00010000
00001000
00010000
00000100
00001000
00000001
00000100
00000010
,
00001000
00000000
00001001
00000001
00000100
00001000
00010000
00001000
,
01000000
00000000
00010000
00000000
00100000
00000000
00010000
10000000
00010000
01000000
00100000
01000000
00010000
10000000
01000000
00100000
,
00010000
01000000
00100000
00010000
00001000
00000010
00000001
00001000
,
00000010
00000000
00000100
00000000
00000001
00000000
00000010
00000100
00001000
00000001
00001000
00000010
00000100
00000010
00001000
00000001
,
00000100
00000001
00000010
00000100
00001000
00000010
00010000
00001000
,
00010000
00001000
00010000
00001000
01000000
00010000
10000000
00010000
00100000
01000000
10000000
00010000
01000000
00010000
00100000
00001000
,
00000000
00000000
00000000
00000000
00000000
00000000
00001000
00010000
00001000
00010000
00001000
00010000
00001000
00010000
00001000
00010000
00001000
00000000
00000000
00000000
00010000
00000000
00000000
00000000
00000010
00000000
00000000
00000000
00001000
00000000
00000000
00000000
,
00000001
00000010
00000100
00001000
00000010
00010000
00001000
00000100
,
00000010
00010000
00001000
00000010
00000001
00000001
00000100
00001000
,
00010000
00100000
01000000
00001000
00010000
01000000
10000000
10000000
,
00100000
00010000
00001000
00010000
00011000
00001000
01000000
00010000
,
00100000
00001000
00010000
00001000
00001000
00010000
00000010
00001000
,
00000100
00000000
00000010
00000000
00000001
00000000
00000001
00000000
00001000
00000010
00000100
00000010
00001000
00000000
00000001
00000000
,
00000010
00000100
00001000
00000100
00001000
00000000
00000010
00000000
00010000
00001000
00010000
00001000
00010000
00000000
00000100
00000000
,
00010000
00001000
00010000
00001000
01000000
00010000
01000000
00100000
10000000
00000000
00010000
00000000
01000000
00000000
00001000
00000000
,
00010000
01000000
10000000
00100000
00100000
10000000
01000000
01000000
,
10000000
00100000
01000000
00010000
00100000
00001000
00001000
00010000
,
00001000
00001000
01000000
00100000
00010000
00001000
00000010
00000010
,
00000100
00010000
00001000
00100000
00110000
00001000
00010000
00000010
,
00000100
00000100
00000001
00000010
00000100
00001000
00000010
00010000
,
00001000
01000000
00010000
00100000
00001000
00011000
00000010
00001010
,
00010000
00011000
00100000
00110000
00001000
00011000
00000010
00001010
,
00010000
00000000
00000000
00001000
00000000
00000000
00010000
00000000
00000000
00000100
00000000
00000000
00001000
00000000
00000000
00000100
00000000
00000000
00010000
00000000
00000000
00001000
00000000
00000000
00010000
00000000
00000000
00000000
00000100
00000000
00000000
00000000
00001000
00000000
00000000
00000000
00000001
00000000
00000000
00000000
00000100
00000000
00000000
00000000
00000010
00000000
00000000
00000000
,
00001000
00000100
00010000
00001000
01000000
00100000
10000000
00010000
00100000
00001000
00010000
00000100
,
00000010
00000001
00001000
00000100
00000010
00000100
00001000
00000010
00010000
00001000
01000000
00010000
,
00100000
00001000
00010000
00000100
00001000
00000010
00010000
00001000
00000100
00000010
00001000
00000001
,
00000100
00000010
00010000
00001000
00100000
01000000
10000000
00100000
00010000
00100000
10000000
01000000
,
00010000
00001000
00100000
00001000
00010000
00001000
00000010
00000001
00000100
00001000
00000100
00000001
,
00000010
00001000
00000010
00000001
00000100
00001000
00010000
00000010
00010000
00001000
00010000
00100000
,
10000000
01000000
00010000
01000000
10000000
00100000
00010000
00001000
00010000
00001000
00000010
00000001
,
00001000
00000001
00000100
00001000
00010000
00100000
01000000
00000000
00000000
00000000
00000000
00000000
,
00000000
00000000
00000000
00000000
,
00000000
00000000
00002000
00023000
,
00030200
00000000
00001300
00000100
00000010
00000001
00001000
00000001
,
00000001
00000100
00001000
00010000
01000000
10000000
00100000
01000000
00010000
00000000
00100000
00000000
00100000
00000000
00010000
00000000
,
00010000
00000000
01000000
00000000
00100000
00000000
10000000
00000000
00010000
10000000
00010000
10000000
01000000
00100000
00010000
10000000
,
00100000
01000000
01000000
00010000
00010000
00100000
00001000
00010000
,
00001000
00010000
00001000
01000000
00010000
00100000
00001000
00010000
00001000
00000000
00010000
00000000
00010000
00000000
00001000
00000000
,
00001000
00000000
00010000
00000000
00000100
00000000
00001000
00000100
00010000
00001000
00010000
00000100
00001000
00000010
00010000
00001000
,
00010000
00000100
00000100
00001000
00001000
00000010
00000010
00010000
,
00020000
00000000
00030000
00000000
00001000
00010000
00001000
00010000
00000010
00001000
00000010
00010000
00001000
00010000
00000100
00001000
,
00000100
00010000
00001000
00010000
00000010
00001000
00000010
00010000
00001000
00010000
00000100
00001000
00000100
00010000
00001000
00010000
,
00000010
00001000
00000010
00010000
00001000
00010000
00001000
00100000
00010000
00100000
00001000
00010000
00001000
01000000
00010000
01000000
,
00001000
00010000
00001000
00100000
00010000
00100000
00001000
00010000
00001000
01000000
00010000
01000000
00001000
00010000
00001000
00100000
,
00010000
00100000
00001000
00010000
00001000
00010000
00000100
00001000
00000100
00010000
00001000
00010000
00000010
00001000
00000010
00010000
,
00001000
00010000
00000100
00001000
00000100
00010000
00001000
00010000
00000010
00001000
00000010
00010000
00001000
00010000
00000100
00001000
,
00000100
00010000
00001000
00010000
00001000
00100000
00010000
00100000
00001000
00010000
00001000
01000000
00010000
01000000
00001000
00010000
,
00001000
00100000
00010000
00100000
00001000
00010000
00001000
00010000
00000100
00001000
00000100
00001000
00000001
00000100
00000010
00000100
,
00000001
00001000
00000100
00000010
00000002
00000000
00000000
00000000
00000000
00000000
00000000
00000000
00000000
00000000
00000000
00000000
,
00000000
00000203
00000000
00000000
,
00000000
00002300
00000000
00000000
,
00000000
00000000
00000000
00000000
00000000
00000000
00000000
00000000
00013000
00000000
00000000
00000000
00000000
00000000
00000000
00000000
00000000
00000000
00000000
00000000
00000000
00000000
00000000
00000000
00001000
00010000
00001000
01000000
00010000
01000000
00010000
00100000
,
01000000
00000000
10000000
00000000
00010000
00000000
01000000
00000000
00200000
00300000
00000000
00000000
00000000
00000000
00000000
00000000
10000000
00000000
00000000
00000000
00000000
00000000
00000000
00000000
01000000
00000000
00000000
00000000
00100000
00000000
00000000
00000000
00010000
00000000
00000000
00000000
00000000
00000000
00000000
00000000
01000000
00000000
00000000
00000000
00100000
00000000
00000000
00000000
00010000
00000000
00000000
00000000
00000000
00000000
00000000
00000000
00001000
00000000
00000000
00000000
00010000
00000000
00000000
00000000
,
00000100
00000000
00000010
00000000
00001000
00000000
00010000
00000000
00001000
00000000
00000100
00000000
00000001
00000000
00000010
00000100
,
00001000
00000000
00000010
00000000
00010000
00000000
00001000
00010000
00100000
00000000
10000000
00010000
10000000
00000000
01000000
00100000
,
00010000
00000000
01000000
00000000
00001000
00000000
00010000
00000000
00001000
00000000
00000100
00000000
00000001
00001000
00000100
00000010
,
00000001
00000000
00001000
00000000
00001001
00000000
00000001
00001000
00000010
00000000
00010000
00001000
01000000
00000000
00001000
00000000
,
00010000
00000000
01000000
00000000
10000000
00010000
01000000
00000000
00001000
00000000
00010000
00001000
00010000
00000000
00000100
00000000
,
00000010
00000001
00000010
00000000
00000100
00001000
00000100
00010000
00001000
00000000
01000000
00000000
00001000
00000000
00010000
00100000
,
01000000
00000000
00010000
10000000
01000000
00000000
00100000
00000000
01000000
10000000
00010000
00000000
00000000
00000000
00010000
00000000
,
10000000
01000000
00100000
00010000
00002000
00000000
00003000
00000000
00001001
00000000
00000001
00000100
00000010
00000000
00010000
00001000
,
00010000
00000000
00000100
00000010
00000001
00000000
00001000
00000000
00000001
00000000
00000100
00000000
00001000
00000000
00010000
00001000
,
00100000
00000000
01000000
00000000
10000000
00000000
00010000
01000000
00100000
00000000
00010000
00001000
00100000
00000000
00010000
01000000
,
00100000
00000000
00010000
00000000
00001000
00000000
00000010
00000000
00000001
00000000
00000010
00000000
00000100
00001000
00000100
00001000
,
00000100
00000000
00010000
00000000
00001000
00000000
00000100
00000010
00001000
00000000
00000001
00000010
00000100
00000000
00010000
00000000
,
00001000
00000000
01000000
00000000
00010000
00100000
00010000
00000000
01000000
00000000
00001000
00010000
00001000
00000000
01000000
00000000
,
00010000
00100000
00010000
00000000
10000000
00000000
01000000
00000000
00010000
00000000
00001000
00000000
00000100
00000000
00000001
00000000
,
00000010
00000000
00000100
00001000
00000100
00000000
00010000
00000000
00001000
01000000
00010000
00000000
10000000
01000000
10000000
01000000
,
00100000
00010000
10000000
00010000
01000000
00000000
00000000
00000000
10010000
00000000
00000000
00000000
10000000
00000000
10000000
00000000
,
00010000
00000000
00010000
00000000
01000000
00000000
00100000
00000000
00010000
00000000
00001000
00010000
00001000
00010000
00000100
00001000
,
00000100
00000010
00000001
00001000
00000010
00000000
00000010
00000000
00001000
00000000
00001000
00000000
00000001
00000000
00000001
00000000
,
00000100
00000000
00000100
00000000
00000001
00000000
00000010
00000000
00001000
00000000
00010000
00001000
00010000
00001000
01000000
00010000
,
01000000
00100000
10000000
00010000
00100000
00000000
00100000
00000000
00001000
00000000
00001000
00000000
00010000
00000000
00010000
00000000
,
00100000
00000000
00100000
00000000
01000000
00000000
01000000
00000000
00010000
00000000
10000000
01000000
00100000
00010000
00100000
00001000
,
00010000
00001000
00010000
00000100
00001000
00000000
00000010
00000000
00010000
00000000
00001000
00000000
00000010
00000000
00000001
00000000
,
00000001
00000000
00000100
00000000
00001000
00000000
00010000
00000000
00001000
01000000
00010000
00100000
00001000
00010000
00001000
00010000
,
00000100
00001000
00000010
00010000
00001000
00000000
00010000
00000000
00100000
00000000
01000000
00000000
00001000
00000000
00010000
00000000
,
01000000
00000000
10000000
00000000
00100000
00000000
00010000
00000000
00001000
00000000
01000000
00010000
10000000
00010000
01000000
00100000
,
10000000
00010000
10000000
01000000
00100000
00000000
00001000
00000000
00010000
00000000
00000100
00000000
00000010
00000000
00000001
00000000
,
00000100
00000000
00001000
00000000
00010000
00000000
01000000
00000000
00100000
00000000
00001000
00010000
00001000
00010000
00000010
00001000
,
00000010
00000100
00000001
00000010
00000100
00000000
00010000
00000000
00001000
00000000
00010000
00000000
00100000
00000000
10000000
00000000
,
01000000
00000000
00010000
00000000
00001000
00000000
00000010
00000000
00000001
00000000
00001000
00000001
00000010
00000100
00001000
00000100
,
00010000
00001000
00010000
00001000
00100000
00000000
00010000
00000000
01000000
00000000
00100000
00000000
00010000
00000000
00001000
00000000
,
01000000
00000000
00010000
00000000
00100000
00001000
00010000
00001000
01000000
00010000
00100000
00001000
00010000
00001000
01000000
00010000
,
00100000
00000000
00010000
00000000
10000000
01000000
10000000
00100000
01000000
00010000
00100000
00001000
00010000
00000100
00001000
00000010
,
00000100
00000001
00000010
00000001
00000000
00000000
00000000
00000000
00000000
00000000
00000000
00000000
00002002
00000000
00000000
00000000
,
00000000
00000000
00000000
00000000
,
00000000
00000000
00003003
00000000
,
00000000
00000000
00000000
00000000
;
