
//----- song ID: usty -----//
#TITLE:ウサテイ;
#ARTIST:ビートまりお(COOL&CREATE);
#TITLETRANSLIT:Usatei;
#ARTISTTRANSLIT:beatMARIO (COOL&CREATE);
#BANNER:Usatei.png;
#BACKGROUND:Usatei-bg.png;
#CDTITLE:./CDTitles/SDVX II -infinite infection-.png;
#MUSIC:Usatei.ogg;
#SAMPLESTART:13.895;
#SAMPLELENGTH:15;
#BPMS:0=190;
#NOTES:
     dance-single:
     :
     Beginner:
     4:
     :
0000
0000
0000
0000
,
0000
0000
0000
0000
,
0000
0000
0000
0000
,
0000
0000
0000
0000
,
0000
0000
0000
0000
,
0000
0000
0000
0000
,
0000
0000
0000
0000
,
1001
0000
0000
0000
,
0000
0000
0000
0000
,
0110
0000
0000
0000
,
1001
0000
0000
0000
,
0001
0000
0001
0000
,
0001
0000
0000
0000
,
1000
0000
1000
0000
,
1000
0000
0000
0000
,
0010
0000
0010
0000
,
0010
0000
0000
0000
,
0100
0000
0100
0000
,
0100
0000
0000
1001
,
0000
0000
0000
0000
,
0000
0000
0000
0000
,
0001
0000
0000
0000
,
0010
0000
0000
0000
,
0100
0000
0000
0000
,
1000
0000
0000
0000
,
0010
0000
0000
0000
,
0100
0000
0000
0000
,
0001
0000
1000
0000
,
0001
0000
0000
0000
,
0100
0000
0010
0000
,
0100
0000
0000
0000
,
0001
0000
1000
0000
,
0001
0000
0000
0000
,
0100
0000
0010
0000
,
0100
0000
0000
0000
,
0001
0000
0000
0000
,
0000
0000
0200
0300
,
0200
0300
0000
0000
,
0000
0000
0000
0000
,
0000
0000
0000
0000
,
0010
0000
0000
0000
,
0000
0000
0000
0000
,
1000
0000
0001
0000
,
1001
0000
0000
0000
,
1000
0000
1000
0000
,
0001
0000
0001
0000
,
0100
0000
0100
0000
,
0010
0000
0010
0000
,
1000
0000
1000
0000
,
0001
0000
0001
0000
,
2002
0000
3003
0000
,
0001
0000
1000
0000
,
0010
0000
0000
0000
,
1000
0000
0001
0000
,
0100
0000
0000
0000
,
0010
0000
1000
0000
,
0001
0000
0000
0000
,
0100
0000
0001
0000
,
1000
0000
0000
0000
,
0001
0000
0010
0000
,
0100
0000
0000
0000
,
1000
0000
0010
0000
,
0100
0000
0000
0000
,
0001
0000
0010
0000
,
0100
0000
0000
0000
,
1000
0000
0010
0000
,
0100
0000
0000
0000
,
0001
0000
0001
0000
,
1000
0000
1000
0000
,
0010
0000
0010
0000
,
0100
0000
0000
0000
,
0001
0000
0001
0000
,
0010
0000
0010
0000
,
0100
0000
0100
0000
,
1000
0000
0000
0000
,
0001
0000
0100
0000
,
0001
0000
1000
0000
,
0010
0000
1000
0000
,
0001
0000
0000
0000
,
1000
0000
0100
0000
,
0010
0000
0001
0000
,
1000
0000
0010
0000
,
0100
0000
0001
0000
,
2002
0000
0000
0000
,
3003
0000
0000
0000
,
0000
0000
0000
0000
;
#NOTES:
     dance-single:
     :
     Easy:
     8:
     :
0000
0000
0000
0000
,
0000
0000
0000
0000
,
0000
0000
0000
0000
,
0000
0000
0000
0000
,
0000
0000
0000
0000
,
0000
0000
0000
0000
,
0000
0000
0000
0000
,
1001
0000
0000
0000
,
0000
0000
0000
0010
,
0110
0000
0000
0000
,
0001
0001
1000
1000
,
0001
0100
1000
0100
,
0001
0100
1000
0100
,
0001
0010
0100
1000
,
1000
0100
0010
0001
,
1000
0100
0001
0100
,
1000
0100
0001
0100
,
1000
0010
0100
0001
,
0020
0000
0030
0110
,
1001
0000
0000
0000
,
0001
1000
0010
0000
,
0100
0001
1000
0000
,
0001
0010
0100
1000
,
0001
0100
0010
0000
,
1000
0010
0100
0000
,
0001
1000
1000
0000
,
0010
0100
0001
1000
,
0100
1000
0001
0000
,
0001
0010
0100
0000
,
0100
1000
0010
0000
,
1000
0100
0010
0001
,
1000
0010
0100
0000
,
0001
0100
1000
0000
,
1000
0100
0001
0000
,
0001
0010
0100
1000
,
1001
0000
0000
0100
,
0100
0000
0002
0003
,
2000
3000
0000
0000
,
0000
0000
0010
0000
,
0000
0000
0100
0000
,
0100
0000
0000
0000
,
0000
0000
0000
0000
,
0001
0001
1000
1000
,
1001
0000
0100
0000
,
0001
0010
0001
0010
,
0100
0000
1000
0000
,
1000
0010
1000
0010
,
0100
0000
0001
0000
,
1000
0001
1000
0001
,
0100
0000
0010
0000
,
1000
0000
0001
1001
,
0100
0100
0010
0010
,
1000
0100
0010
0001
,
0001
0010
0100
1000
,
1001
0110
1001
0000
,
0001
0001
0100
0100
,
0001
0010
0100
1000
,
1000
0010
0100
0001
,
1001
0110
1001
0000
,
0001
0100
0001
0010
,
0100
1000
0010
1000
,
1001
0100
1001
0010
,
0101
1100
1001
0000
,
1000
0001
0100
0010
,
0100
0001
1000
0100
,
0010
0001
0011
1100
,
2002
0000
0000
3003
,
0001
0101
1000
1100
,
0010
0001
0100
0001
,
1000
1100
0001
0101
,
0010
1000
0100
0010
,
0001
0101
1000
1100
,
0010
0001
1000
0010
,
0100
0110
0001
1001
,
1100
0101
1100
0000
,
0001
0011
1000
1010
,
0100
0001
0010
0100
,
1000
1010
0001
0011
,
1100
0011
1001
0000
,
1000
0100
0001
0100
,
1100
0101
1100
0101
,
1000
0010
0001
0010
,
1010
0011
1010
0011
,
2002
0000
0000
0000
,
3003
0000
0000
0000
,
0000
0000
0000
0000
;
#NOTES:
     dance-single:
     :
     Medium:
     11:
     :
0000
0000
0000
0000
,
0000
0000
0000
0000
,
0000
0000
0000
0000
,
0000
0000
0000
0000
,
0000
0000
0000
0000
,
0000
0000
0000
0000
,
0000
0000
0000
0000
,
1001
0000
0000
0000
,
0000
0000
0000
0000
0000
0000
0001
0100
,
0010
0000
0000
0000
,
1000
1010
0001
0101
,
1000
0001
1000
0000
0010
0100
0010
0000
,
1000
0001
1000
0000
0100
0000
0010
0000
,
0001
0100
0001
0000
1000
0100
1000
0000
,
0010
0100
0010
0000
1000
0000
0001
0000
,
1000
0100
1000
0000
0010
0100
0010
0000
,
1000
0100
1000
0000
0001
0000
0100
0000
,
0001
0010
0001
0000
1000
0010
1000
0000
,
0001
0100
1000
0010
,
0001
0001
0001
0001
,
1000
0000
1000
0000
0010
0000
0010
0100
,
0010
1000
0001
0010
,
0100
0000
1000
0000
0001
0000
0100
0010
,
0100
0001
1000
0100
,
1000
0000
1000
0000
0010
0000
0100
0001
,
1000
1000
0010
0010
,
0100
0000
0001
0000
0010
0000
0100
1000
,
0100
1000
0010
0001
,
0010
0000
1000
0000
0001
0000
0001
1000
,
0100
1000
0010
0100
,
0001
0000
1000
0000
0001
0000
0010
0100
,
1000
0001
0100
1000
,
0100
0000
0001
0000
0010
0000
0100
1000
,
0010
1000
0001
0100
,
0001
0010
0100
1000
,
1001
0000
0000
0000
0000
0000
0001
0100
,
0001
0000
0100
0000
0000
0000
0000
0001
0000
0001
0000
0001
0000
0000
0000
0000
,
1000
1000
1000
0000
0000
0000
0010
0000
,
0000
0000
1000
0100
0001
0000
0000
0000
,
0000
0000
0000
0100
1000
0100
0010
0000
,
0011
0000
0000
0000
,
0000
0000
0000
0000
,
1000
0001
0100
0010
,
0110
1000
0001
0100
,
0001
0011
0001
0011
,
1000
0010
0100
0001
,
1000
1100
1000
1100
,
0010
0001
1000
0010
,
0100
0101
0010
1010
,
0001
0100
0010
0000
0010
1000
0001
0000
,
2002
0000
0000
3003
,
0101
1001
0101
1001
,
1100
1001
1100
1001
,
0001
0100
0010
0100
,
0001
0010
0100
1000
,
1010
0101
1010
0101
,
0011
1100
0011
1100
,
0001
1000
0100
0010
,
0001
0001
1000
1000
,
1100
1010
1100
1010
,
0101
0011
0101
0011
,
0100
1000
0010
0100
,
0001
0010
0001
0000
1000
0100
1000
0000
,
1001
0110
1001
0110
,
0001
0010
1000
0100
,
1100
1010
0101
0011
,
2002
0000
0000
3003
,
0001
0010
0001
0000
1000
0010
0100
0000
,
0001
1000
0010
0100
,
0001
1000
0001
0000
0100
0010
0100
0000
,
0002
0023
0230
2300
,
3001
0100
0010
0000
1000
0001
1000
0000
,
0100
0010
0001
1000
,
0010
0100
0010
0000
1000
0001
1000
0000
,
0002
0203
0320
2030
,
3001
0010
0001
0000
1000
0100
1000
0000
,
0001
0100
0010
0000
1000
0001
0010
0000
,
0100
1000
0100
0000
0010
0001
0010
0000
,
0002
2003
3020
0230
,
0301
1000
0001
0000
0100
0010
0100
0000
,
0001
1000
0100
0000
0010
0001
1000
0000
,
0100
1000
0010
0000
0100
0001
1000
0000
,
0001
0010
0100
1000
0100
0010
0001
0000
,
2002
0000
0000
0000
,
3003
0000
0000
0000
,
0000
0000
0000
0000
;
#NOTES:
     dance-single:
     :
     Hard:
     14:
     :
0000
0000
0000
0000
,
0000
0000
0000
0000
,
0000
0000
0000
0000
,
0000
0000
0000
0000
,
0000
0000
0000
0000
,
0000
0000
0000
0000
,
0000
0000
0100
0010
,
1001
0000
0000
0000
,
0000
0000
0000
0000
0000
0000
0000
0000
0000
0000
0001
1000
0001
0000
0100
0000
,
0001
1000
0000
0000
0010
0010
0000
0000
,
0101
0001
1100
1000
,
0001
0000
0010
0001
0010
0000
0001
0000
1000
0000
0100
1000
0100
0000
1000
0000
,
0001
0000
0100
0001
0100
0000
0001
0000
1000
0000
0100
0000
0010
0000
0000
0000
,
0001
0000
1000
0001
1000
0000
0001
0000
0100
0000
0001
0100
0001
0000
0100
0000
,
0001
0010
0100
1000
0001
0000
1001
0000
,
1000
0000
0010
1000
0010
0000
1000
0000
0001
0000
0010
0001
0010
0000
0001
0000
,
1000
0000
0001
1000
0001
0000
1000
0000
0010
0000
0100
0000
0001
0000
0000
0000
,
1000
0000
0100
1000
0100
0000
0010
0000
0001
0000
0010
0001
0010
0000
0100
0000
,
1000
0010
0001
0010
1000
0000
1001
0000
,
0001
0100
0001
0010
,
0100
0000
1000
0000
0001
0100
0001
0100
,
0010
1000
0001
0100
,
0001
0000
1000
0000
0100
1000
0100
1000
,
0010
0100
0001
1000
,
0100
0000
1000
0000
0010
0100
0001
0100
,
0010
1000
0001
0010
,
0001
0000
1000
0000
0001
0100
0010
1000
,
0001
0010
0001
0010
0001
0010
0001
0010
,
0100
1000
0100
1000
0100
1000
0010
0100
,
0001
1000
0001
1000
0001
1000
0001
1000
,
0100
0010
0100
0010
0100
1000
0001
0100
,
0010
1000
0010
1000
0010
1000
0010
1000
,
0001
0100
0001
0100
0001
0010
0100
1000
,
0001
0100
0001
0100
0001
0100
0001
0100
,
0001
0010
0001
0010
0001
0010
0100
1000
,
1001
0000
0000
0000
0000
0000
0001
0100
,
0010
0000
0000
0000
0000
0000
0000
0000
0000
1000
0000
0000
0000
0000
0000
0000
0000
0000
0000
0000
0000
0000
0000
0000
0000
0000
0000
0000
0001
0000
0000
0000
0100
0000
0000
0000
0001
0000
0000
0000
0100
0000
0000
0000
0001
0000
0000
0000
0000
0000
0000
0000
0000
0000
0000
0000
0000
0000
0000
0000
0000
0000
0000
0000
,
1000
0000
0000
0100
0000
0000
1000
0000
0000
0100
0000
0000
1000
0000
0000
0000
0000
0000
0000
0000
0000
0000
0000
0000
0000
0000
0000
0000
0001
0000
0000
0000
0100
0000
0000
0000
0010
0000
0000
0000
0000
0000
0000
0000
0000
0000
0000
0000
,
0000
0000
0000
1000
0001
1000
0001
0000
0000
0000
0000
0000
,
0000
0000
0000
0000
0000
0000
0100
0000
0001
0000
1000
0000
0100
0000
0000
1000
,
0001
0000
0000
0000
,
0000
0000
0000
0000
,
0001
0000
0000
0000
1000
0000
0000
0000
0100
1000
0100
0000
0010
0000
0001
0000
,
1001
0000
0000
1000
0010
0000
0000
1000
0010
0000
0000
0100
0001
0000
0000
0100
,
0001
1000
0100
0010
0001
0100
0001
0000
,
1001
0000
0000
0001
0010
0000
0000
0001
0010
0000
0000
0100
1000
0000
0000
0100
,
1000
0001
0100
0010
1000
0001
0010
0000
,
0110
0000
0000
0100
1000
0000
0000
0100
1000
0000
0000
0001
0100
0000
0000
0001
,
0100
0010
1000
0001
1000
0100
0010
0000
,
0001
0000
0000
0001
1000
0000
0010
0000
0100
0000
0000
0100
0001
0000
1000
0000
,
2002
0000
0000
3003
,
1001
0101
1100
1010
,
1100
0101
0011
0101
,
1100
1010
1100
0101
,
0001
0010
0000
0000
0100
1000
0000
0000
0001
0100
0000
0000
0010
1000
0000
0000
,
1100
0101
1100
0101
,
0011
1010
0011
1010
,
0110
1001
0110
1001
,
1000
0010
0100
0010
1000
0100
0010
0000
,
0011
1100
0011
1100
,
0101
1010
0101
1010
,
0101
0011
1100
1010
,
1000
0100
0000
0000
0001
0100
0000
0000
1000
0100
0000
0000
0001
0100
0000
0000
,
0110
1010
0110
0011
,
0110
1100
0101
0110
,
1100
1010
1100
0101
,
2002
0000
0000
3003
,
0001
0100
0001
0010
0100
1000
0001
1000
,
0010
0100
0010
1000
0100
0010
0001
1000
,
0010
0100
0001
1000
0100
1000
0001
0100
,
0001
0010
0001
0000
0010
0100
0010
0000
0100
1000
0100
0000
1000
0001
1000
0000
,
0010
0100
0001
1000
0100
1000
0001
0100
,
0010
0100
0001
0010
1000
0010
0001
1000
,
0010
0100
0001
1000
0100
0010
0001
1000
,
0001
0100
0001
0000
1000
0010
1000
0000
0001
0010
0001
0000
1000
0100
1000
0000
,
0001
0010
0100
1000
0010
0100
1000
0100
,
0001
0000
0010
0000
0100
0000
1000
0000
0001
0100
0001
0100
0001
0000
0010
0000
,
0100
1000
0010
0001
0010
1000
0001
0100
,
0001
0010
0001
0000
0100
0010
0100
0000
0001
0010
0001
0000
1000
0100
1000
0000
,
0001
0100
0001
0010
0001
1000
0100
1000
,
0010
0001
0010
1000
0100
0010
1000
0010
,
0001
0000
0100
0000
0010
0000
1000
0000
0001
1000
0001
1000
0001
0000
0010
0000
,
0001
0000
0100
0000
0010
0000
1000
0000
0100
0010
0001
0000
1000
0000
0010
0000
,
0200
0000
0000
0000
,
0300
0000
0000
0000
,
0000
0000
0000
0000
;
#NOTES:
     dance-single:
     :
     Challenge:
     17:
     :
0000
0000
0000
0000
,
0000
0000
0000
0000
,
0000
0000
0000
0000
,
0000
0000
0000
0000
,
0000
0000
0000
0000
,
0000
0000
0000
0000
,
0000
0000
0101
1100
,
2002
0000
0000
0000
,
3003
0000
0000
0000
0000
0000
0000
0000
0000
0000
1000
0100
1000
0000
0001
0000
,
0100
0100
0000
0000
0010
0010
0000
0000
,
0102
0013
2100
3010
,
1001
0000
0001
0010
0100
0000
1000
0000
0001
0000
1000
0010
0100
0000
0001
0000
,
1000
0000
0100
1000
0010
0000
0100
0000
0001
0000
1000
0000
0001
0010
0100
0010
,
0001
0000
1000
0010
0100
0000
0001
0000
1000
0000
0001
0010
0100
0000
1000
0000
,
0001
0000
0100
0001
0010
0000
0001
0000
1000
0000
1100
0000
1010
0000
0000
0000
,
1001
0000
1000
0100
0010
0000
0001
0000
1000
0000
0001
0100
0010
0000
1000
0000
,
0001
0000
1000
0100
0010
0000
0001
0000
1000
0000
0100
0000
0010
0001
0010
0100
,
1000
0000
0001
0100
0010
0000
1000
0000
0001
0000
0100
0001
0010
0000
0100
0000
,
0010
0011
1000
1100
1001
0000
0110
0000
,
1001
0000
0000
0000
0000
0001
0000
0000
,
1000
0000
0000
0001
0100
0000
0100
0010
0000
1000
0000
0001
1000
0000
0000
0000
,
0001
0000
0000
0000
0100
0000
0000
0000
0000
0000
0000
0000
0100
0000
0000
0000
0010
0000
0000
0000
0000
0000
0000
0000
0000
0000
0000
0000
0000
0000
0000
0000
1000
0000
0000
0000
0000
0000
0000
0000
0000
0000
0000
0000
0000
0000
0000
0000
0001
0000
0000
0000
0000
0000
0000
0011
0000
0000
0000
0000
0000
0000
0000
0000
,
0000
0000
0000
0000
0000
0000
0000
0000
1000
0000
0000
0000
0100
0000
0000
0000
0000
0000
1000
0000
0000
0000
0100
0000
0000
0000
0010
0000
0000
0000
0001
0000
0000
0000
0000
0000
0100
0000
0000
0010
0000
0000
0000
0000
0100
0000
0000
0000
,
0001
0000
0000
0000
0000
0000
0010
0000
0000
0000
0000
0000
0001
0000
0000
1000
0000
0000
0000
0000
0000
0000
0000
0000
0100
0000
1000
0000
0000
0000
0001
0000
0000
0100
0000
0000
0000
0000
0000
0000
0010
0000
0000
0000
1000
0000
0000
0000
,
0000
0000
0001
0000
0000
0000
0000
0000
0000
0000
0000
0000
1000
0000
0000
0100
0000
0000
0000
0000
0000
0000
0000
0000
1000
0000
0000
0100
0000
0000
1000
0000
0000
0100
0000
0000
1000
0000
0000
0000
0100
0000
0000
0000
0010
0000
0000
0000
,
0001
0000
0000
0000
0100
0010
0000
1000
0000
0001
0100
0000
0001
0100
0000
0010
,
1000
0000
0000
0001
0000
0000
1000
0000
0100
0000
0000
0000
0010
0000
0000
0001
0000
0000
1000
0000
0000
0000
0000
0000
0001
0000
0100
0000
0000
0000
0100
0000
,
0010
0000
0000
0000
0000
1000
0000
0100
0000
0000
0000
0010
0000
0001
0000
0000
0100
0000
0010
0000
0100
0000
0000
0001
0000
0000
0000
1000
0000
0000
0000
0000
,
0200
0000
0000
0000
0000
1300
0000
0000
0001
0000
0000
0000
0000
0000
0100
0000
0010
0000
0000
0000
0000
0000
0000
0000
0000
0000
0000
0000
1000
0000
0000
0000
,
0000
0000
0000
0000
0000
0000
0000
0000
0000
0000
0000
0000
0000
0000
0000
0000
0000
0000
0001
0000
0000
0000
0000
0000
0000
0000
0000
0001
0000
0000
0000
0000
0000
0000
0000
0000
0000
0000
0000
0001
0000
0000
0000
0000
0000
0000
0000
0000
0010
0000
0000
0000
0000
0000
0000
0000
0000
0100
0000
0000
0000
0000
0000
0000
0000
0000
0000
0000
0000
0000
0000
0000
1000
0000
0000
0000
0000
0000
0000
0000
0000
0000
0000
0000
0000
0000
0000
0000
0000
0000
0000
0000
0000
0000
0010
0000
,
0000
0110
0000
0000
0000
0000
0000
0000
1000
0000
0000
0000
0000
0000
0000
0001
,
0000
0000
0000
0000
0001
0000
0000
0000
0000
0000
0000
0000
0000
0000
0000
0000
0000
0000
0000
0000
0000
0000
0000
0000
0000
0000
0000
0100
0000
0000
0010
0000
0000
0000
0000
0000
0000
0000
0000
0000
0000
0000
0100
0000
0000
0010
0000
0000
,
0000
0000
0000
0000
0000
0000
1000
0000
0000
0000
0000
0000
0000
0000
0000
0000
0000
0000
0000
0000
0000
0000
0000
0000
0000
0000
0000
0000
0001
0000
0000
0000
0000
0000
0000
0000
0000
0001
0000
0000
0000
0000
0000
0000
0000
0000
0001
0000
0000
0000
0000
0000
0000
0000
0000
0000
0000
0000
0000
0000
0100
0000
0000
0000
,
0000
0000
0000
0000
0000
0000
0000
0000
0000
0000
0000
0000
0000
0000
0000
0000
0000
0000
0000
0000
0000
0000
0000
0000
0000
0000
0000
0010
0000
0000
0000
0000
0000
0000
0000
0000
0000
0000
0000
0000
0000
0000
0000
0000
0000
0000
0000
0000
0000
0000
0000
0000
0000
0000
0100
0000
0000
0000
0000
0000
0000
0000
0000
0000
0000
0000
0000
0000
0000
0000
0000
0000
0000
0000
0000
0000
0000
0000
0000
0000
0010
0000
0000
0000
0000
0000
0000
0000
0000
0000
0000
0000
0000
0000
0000
0000
0000
0000
0000
0000
0000
0000
0000
0000
0000
0000
0000
0000
0000
0000
0000
0000
0000
0000
0000
0000
0000
0000
0000
0000
0000
0000
0000
0000
0000
0000
0000
0000
0000
0000
0000
0000
0000
0000
0000
0000
0000
0000
0000
0000
0000
0000
0000
0000
0000
0000
0000
0000
0000
0000
0000
0000
0000
0000
0000
0000
0000
0000
0000
0000
0000
0000
1000
0000
0000
0000
0000
0000
0001
0000
0000
0000
0000
0000
0000
0000
0000
0000
0000
0000
0000
0000
0000
0000
0000
0000
0000
0000
0000
0000
0000
0000
,
0000
0000
0000
0000
0000
0000
0000
0100
0000
0000
0000
0000
0001
0000
0000
0000
0010
0000
0000
0000
0001
0000
0000
0000
1001
0000
0000
0000
0000
0000
0000
0000
,
0000
0000
0000
0000
0000
0000
0000
0000
0000
0000
0000
0000
0001
0000
0000
0000
0000
0000
0000
0000
0010
0000
0000
0000
0000
0000
0000
0000
0100
0000
0000
0000
0000
0000
0000
0000
1000
0000
0000
0000
0000
0000
0000
0000
0000
0010
0000
0000
0000
0000
0000
0000
0000
0000
0000
0000
0000
0000
0100
0000
0000
0000
0000
0000
0000
0000
0000
0000
0000
0000
0000
0000
0001
0000
0000
0000
0000
0000
0000
0000
0000
0000
0000
0000
0010
0000
0000
0000
0000
0000
0000
0000
0000
0000
0000
0000
,
0100
0000
0000
0000
0000
0000
0000
0000
0000
1000
0000
0000
0000
0000
0000
0000
0000
0000
0000
0000
0000
0000
0000
0000
0000
0000
0000
0000
0001
0000
0000
0000
0100
0000
0000
0000
0001
0000
0000
0000
0100
0000
0000
0000
0001
0000
0000
0000
0000
0000
0000
0000
0000
0000
0000
0000
0000
0000
0000
0000
0000
0000
0000
0000
,
1000
0000
0000
0100
0000
0000
1000
0000
0000
0100
0000
0000
1000
0000
0000
0000
0000
0000
0000
0000
0000
0000
0000
0000
0000
0000
0000
0000
0001
0000
0000
0000
0100
0000
0000
0000
0010
0000
0000
0000
0000
0000
0000
0000
0000
0000
0000
0000
,
0000
0000
0000
0000
0000
0000
0000
0000
0000
0000
0000
0000
1000
0000
0000
0000
0100
0000
0000
0000
0010
0000
0000
0000
0001
0000
0000
0000
0000
0000
0000
0000
0000
0000
0000
0000
0000
0000
0000
0000
0000
0000
0000
0000
0000
0100
0000
0000
,
0010
0100
0000
0000
0000
0000
0001
0000
1000
0000
0100
0000
1000
0000
0000
0001
,
0100
0000
0000
0000
,
0000
0000
0000
0000
0000
0000
0000
0001
0000
1000
0000
0000
0000
0000
0000
0000
,
2100
0000
0000
0000
3010
0000
0000
0000
0001
0100
0001
0000
0010
0000
0100
0000
,
1000
0000
0001
0100
0001
0000
0010
0000
0100
0000
1000
0010
1000
0000
0100
0000
,
0010
0001
1000
0010
0100
0001
1000
0100
,
1000
0000
0010
0100
0010
0000
1000
0000
0100
0000
0010
0001
0010
0000
0100
0000
,
1000
0001
0100
0010
0100
0001
1000
0100
,
0010
0000
0001
1000
0001
0000
0100
0000
0010
0000
1000
0100
1000
0000
0010
0000
,
0100
0001
0010
0001
1000
0010
0100
0001
,
1000
0100
1000
0100
1000
0100
0010
0001
1000
0010
1000
0010
1000
0010
0100
0001
,
1000
0100
1000
0001
0100
0010
1000
0001
0010
0100
0000
1000
0010
0000
0100
0000
,
0101
0001
1001
1000
1100
0100
0110
0010
,
0011
0001
1001
1000
1010
0010
0110
0000
,
0101
0001
0011
0010
0110
0100
1100
1000
,
0020
0000
0000
0000
0230
0000
0000
0000
0302
0000
0000
0000
1003
0100
0010
0000
,
0011
0001
1001
1000
1010
0010
0110
0100
,
0101
0001
1001
1000
1100
0100
0010
0001
,
1001
1000
1010
0010
0110
0100
0101
0001
,
2000
0000
0000
0000
3020
0000
0000
0000
0130
0000
0001
0000
1000
0100
0010
0000
,
0001
0000
0100
0001
1000
0000
0100
0000
1000
0000
0010
0000
0100
0000
0001
0000
,
0010
0000
0100
0000
1000
0000
0001
0000
0100
0001
1000
0001
0010
0100
1000
0000
,
0001
0100
0010
0000
1000
0000
0001
0000
1000
0100
1000
0100
0010
0001
1000
0000
,
0010
0100
0001
0000
0010
0100
1000
0000
0010
0100
0001
0000
0010
0100
1000
0000
,
0001
0100
0001
0010
0001
0000
1000
0010
0100
0000
0001
0000
1000
0000
0100
0000
,
0010
0001
0010
0000
0100
0000
1000
0000
0001
0100
0010
0100
0001
1000
0100
0000
,
0010
0000
0100
1000
0001
0000
0100
0000
0001
0010
0100
1000
0001
1000
0100
0010
,
0001
0000
1000
0000
0010
0100
0001
0000
1000
0100
1000
0010
0100
0001
0010
0001
,
1000
0010
0100
0001
1000
0100
1000
0010
,
0100
0010
1000
0100
0010
0001
0010
0100
,
1000
0001
0100
0001
0010
0100
1000
0001
,
0100
0001
0100
0001
0010
0001
0010
0001
1000
0100
1000
0100
1000
0010
1000
0010
,
0100
0001
1000
0100
1000
0001
0100
0010
,
0100
0001
0010
0100
1000
0001
0100
0010
,
0100
0001
1000
0100
0010
0001
0010
0100
,
1000
0010
0100
0010
1000
0100
0010
0100
1000
0010
0100
0010
1000
0100
0010
0100
,
1000
0001
0100
0010
1000
0100
1000
0010
,
0100
0001
0010
0100
1000
1000
0100
0010
,
0001
1000
0010
1000
0001
0100
0001
0010
,
0001
0100
0010
0100
0001
0010
0100
0010
0001
0100
0010
0100
0001
0010
0100
0010
,
0001
0000
1000
0010
0100
0000
0001
0000
1000
0100
0010
0000
0100
1000
0001
0100
,
0010
0000
0100
0001
1000
0000
0100
0000
0010
0001
0010
0100
1000
0001
1000
0010
,
0100
0000
0001
0000
1000
0000
0001
0000
1000
0100
1000
0010
0100
0001
0010
0001
,
1000
0100
1000
0010
0100
0001
0010
0001
1000
0010
0100
0001
0010
0100
1000
0001
,
0200
0000
0000
0000
,
0300
0000
0000
0000
,
0000
0000
0000
0000
;
#NOTES:
     dance-double:
     :
     Easy:
     7:
     :
00000000
00000000
00000000
00000000
,
00000000
00000000
00000000
00000000
,
00000000
00000000
00000000
00000000
,
00000000
00000000
00000000
00000000
,
00000000
00000000
00000000
00000000
,
00000000
00000000
00000000
00000000
,
00000000
00000000
00000000
00000000
,
00011000
00000000
00000000
00000000
,
00000000
00000000
00000000
00001000
,
00011000
00000000
00000000
00000000
,
00000010
00000010
00000100
00000100
,
00000001
00000010
00000100
00001000
,
00000010
00010000
00001000
00000000
,
01000000
00010000
00100000
01000000
,
10000000
00010000
01000000
00000000
,
00010000
10000000
01000000
00100000
,
00001000
00010000
00001000
00000000
,
00010000
00000100
00000010
00000001
,
00001001
00000000
00000000
00000110
,
00000001
00000000
00000001
00000000
,
00000010
00000100
00001000
00000100
,
00010000
00000000
00001000
00000000
,
00100000
00010000
00100000
01000000
,
10000000
00000000
00100000
00000000
,
10000000
01000000
10000000
01000000
,
00100000
00000000
00001000
00000000
,
00010000
00000100
00000010
00000001
,
00001000
00000000
00000001
00000000
,
00000001
00000100
00001000
00010000
,
00001000
00000000
01000000
00000000
,
00010000
00100000
01000000
10000000
,
00100000
00000000
01000000
00000000
,
00010000
10000000
01000000
00010000
,
00001000
00000000
00010000
00000000
,
00010000
00000010
00000100
00000001
,
00001001
00000000
00000000
00000100
,
00000100
00000000
00000002
00000003
,
00002000
00003000
00000000
00000000
,
00000000
00000010
00000010
00000000
,
00000000
00000000
00010000
00001000
,
00011000
00000000
00000000
00000000
,
00000000
00000000
00000000
00000000
,
01000000
01000000
00010000
00010000
,
10010000
10000000
01000000
00100000
,
00010000
00100000
00001000
00000000
,
00010000
00000100
00000010
00000001
,
00001000
00000010
00000100
00000000
,
00000001
00000010
00000100
00001000
,
00000010
00010000
00001000
00000000
,
01000000
00010000
00100000
00010000
,
20020000
00000000
00000000
30030000
,
00010000
10000000
01000000
00100000
,
00001000
00010000
00001000
00010000
,
00000100
00001000
00000010
00000100
,
00000001
00001000
00001001
00000000
,
00000001
00000100
00000001
00001000
,
00000100
00010000
00001000
00100000
,
00010000
01000000
00100000
10000000
,
01000000
10000000
10010000
00000000
,
10000000
01000000
00100000
00010000
,
10000000
01000000
00010000
00001000
,
00010000
00000100
00000010
00000001
,
00001000
00000100
00000110
00000000
,
00000001
00000010
00000100
00001000
,
00000001
00000100
00001000
00010000
,
00001000
00010000
01000000
10000000
,
20020000
00000000
00000000
30030000
,
10000000
11000000
00100000
00110000
,
00001000
00010000
00001000
00010000
,
00000100
00000010
00000001
00001000
,
00001100
00000101
00001001
00000000
,
00000001
00000011
00000100
00001100
,
00010000
00001000
00010000
00001000
,
01000000
00010000
00100000
01000000
,
11000000
01010000
10010000
00000000
,
10000000
11000000
00100000
01100000
,
00010000
00110000
00001000
00011000
,
00000100
00001100
00000010
00000110
,
00000001
00000010
00000100
00001000
,
00000010
00000011
00000100
00000110
,
00001000
00001100
00010000
00011000
,
00100000
00110000
01000000
01100000
,
10000000
01000000
00100000
00001000
,
00022000
00000000
00000000
00000000
,
00033000
00000000
00000000
00000000
,
00000000
00000000
00000000
00000000
;
#NOTES:
     dance-double:
     :
     Medium:
     11:
     :
00000000
00000000
00000000
00000000
,
00000000
00000000
00000000
00000000
,
00000000
00000000
00000000
00000000
,
00000000
00000000
00000000
00000000
,
00000000
00000000
00000000
00000000
,
00000000
00000000
00000000
00000000
,
00000000
00000000
00000000
00000000
,
00011000
00000000
00000000
00000000
,
00000000
00000000
00000000
00000000
,
00001100
00000000
00000011
00000000
,
00001000
00000001
00000100
00000010
,
00001000
00000001
00001000
00000000
00000010
00000100
00000010
00000000
,
00010000
00001000
00010000
00000000
00001000
00000000
00100000
00000000
,
00010000
10000000
00010000
00000000
01000000
00100000
01000000
00000000
,
00001000
00010000
00001000
00000000
00010000
00000000
00000100
00000000
,
00001000
00000001
00001000
00000000
00000010
00000100
00000010
00000000
,
00010000
00001000
00010000
00000000
00001000
00000000
00100000
00000000
,
00010000
10000000
00010000
00000000
01000000
00000000
00100000
00000000
,
10000000
01000000
00010000
00011000
,
00001001
00000000
00000000
00000000
,
00000010
00000100
00000001
00001000
,
00000001
00000010
00000100
00001000
,
00000001
00000000
00000100
00000000
00001000
00000000
00010000
00001000
,
00010000
00001000
01000000
00010000
,
00100000
01000000
10000000
00010000
,
10000000
01000000
00010000
00001000
,
00000100
00000000
00000010
00000000
00001000
00000000
00000001
00000010
,
00000001
00000010
00000100
00001000
,
00000001
00000100
00001000
00010000
,
00100000
00010000
00001000
00010000
,
01000000
00000000
10000000
00000000
00100000
00000000
01000000
00010000
,
10000000
01000000
00100000
00010000
,
01000000
00100000
00010000
00001000
,
00010000
00000100
00000010
00000001
,
00001000
00000010
00000100
00000001
,
00001001
00000000
00000000
00000000
00000000
00000000
00000001
00000100
,
00000001
00000000
00000100
00000000
00000000
00000000
00000000
00000001
00000000
00000001
00000000
00000001
00000000
00000000
00000000
00000000
,
00001000
00001000
00001000
00000000
00000000
00000000
00000000
00000000
,
00000000
00000000
00000010
00000100
00000010
00000000
00000000
00000000
,
00000000
00000000
00000000
00000000
00010000
00001000
00010000
00000000
,
00011000
00000000
00000000
00000000
,
00000000
00000000
00000000
00000000
,
00010000
01000000
10000000
00100000
,
10000000
11000000
10000000
11000000
,
00100000
00001000
00010000
00000100
,
00000010
00000011
00000010
00000011
,
00000100
00010000
00001000
01000000
,
00100000
10100000
00100000
10100000
,
01000000
00001000
00010000
00000010
,
00000100
00000101
00000100
00000101
,
00002002
00000000
00000000
00003003
,
00000101
00000101
00001001
00001001
,
00000001
00000100
00001000
00010000
,
00011000
00011000
00101000
00101000
,
00001000
00000000
00010000
00000000
01000000
10000000
00100000
00000000
,
10100000
10100000
01010000
01010000
,
00001000
00010000
00000100
00001000
,
00001100
00001100
00001010
00001010
,
00000001
00000000
00000100
00000000
00001000
00010000
00001000
00000000
,
00011000
00010100
00011000
00010100
,
00000100
00000010
00001000
00010000
,
00011000
01001000
00011000
01001000
,
01000000
00000000
00010000
00000000
00100000
01000000
10000000
00000000
,
10100000
01010000
10100000
01010000
,
00001000
00000000
00010000
00000000
00000100
00000010
00000001
00000000
,
00000101
00001010
00000101
00001010
,
00001001
00000000
00000000
00000000
,
10000000
00010000
01000000
00100000
,
10000000
01000000
00100000
00000000
00010000
10000000
00100000
00000000
,
10000000
01000000
00010000
00001000
,
00010000
00001000
00010000
00001000
00010000
00001000
00010000
00000000
,
00000100
00000010
00000001
00001000
,
00000010
00001000
00000001
00000000
00000010
00000100
00001000
00000000
,
00000001
00000010
00001000
00010000
,
00001000
00010000
00001000
00010000
00001000
00010000
00001000
00000000
,
00100000
00000000
00010000
00000000
10000000
00100000
01000000
00000000
,
00010000
00000000
10000000
00000000
01000000
00100000
00001000
00000000
,
00010000
00000100
00001000
00000000
00000001
00000100
00000010
00000000
,
00001000
00000001
00001000
00000001
00000010
00000100
00001000
00000000
,
00000001
00000000
00000100
00000000
00001000
00010000
00001000
00000000
,
01000000
00000000
00010000
00000000
00100000
01000000
10000000
00000000
,
00100000
01000000
00100000
00000000
00010000
00001000
00010000
00000000
,
00000100
00001000
00000001
00000100
00000010
00000100
00000001
00000000
,
00002002
00000000
00000000
00000000
,
00003003
00000000
00000000
00000000
,
00000000
00000000
00000000
00000000
;
#NOTES:
     dance-double:
     :
     Hard:
     14:
     :
00000000
00000000
00000000
00000000
,
00000000
00000000
00000000
00000000
,
00000000
00000000
00000000
00000000
,
00000000
00000000
00000000
00000000
,
00000000
00000000
00000000
00000000
,
00000000
00000000
00000000
00000000
,
00000000
00000000
00000000
00000000
,
00022000
00000000
00000000
00000000
,
00033000
00000000
00000000
00000000
00000000
00001000
00010000
00001000
,
01000000
01000000
00000000
00000000
00010000
00010000
00000000
00000000
,
20000000
30200000
00320000
00031000
,
00001000
00010000
00100000
01000000
00001000
00010000
00100000
01000000
,
10000000
01000000
00100000
00010000
00001000
00100000
00001000
00000000
,
00010000
00001000
00000010
00000100
00010000
00001000
00000010
00000100
,
00000001
00000100
00000010
00001000
00010000
00000000
00011000
00000000
,
00001000
00010000
00100000
01000000
10000000
01000000
00100000
00010000
,
00001000
00000010
00000100
00000001
00000100
00000010
00001000
00000000
,
00010000
00001000
00010000
01000000
00100000
00001000
00010000
00100000
,
01000000
10000000
01000000
00100000
00010000
00000000
00011000
00000000
,
00001000
00000010
00000001
00001000
,
00000001
00000000
00000100
00000000
00000001
00001000
00000001
00001000
,
00000010
00000100
00001000
00010000
,
01000000
00000000
10000000
00000000
00010000
01000000
00010000
01000000
,
00100000
10000000
00010000
10000000
,
01000000
00000000
00010000
00000000
00001000
00010000
00001000
00010000
,
00000010
00000100
00000001
00001000
,
00000001
00000000
00000010
00000000
00000100
00001000
00000010
00000100
,
00000001
00000010
00000001
00000010
00000001
00000010
00000001
00000010
,
00000100
00001000
00000100
00001000
00000010
00000100
00001000
00010000
,
01000000
10000000
01000000
10000000
01000000
10000000
01000000
10000000
,
00010000
01000000
00010000
01000000
00100000
00010000
00001000
00010000
,
00000100
00000010
00000100
00000010
00000100
00000010
00000100
00000010
,
00000001
00001000
00000001
00000100
00000010
00010000
00001000
00010000
,
01000000
10000000
01000000
10000000
01000000
10000000
01000000
10000000
,
00100000
01000000
00100000
01000000
00100000
00010000
00001000
00000010
,
00000001
00000000
00000000
00000000
00000000
00000000
00000001
00001000
,
00000001
00000000
00000000
00000000
00000000
00000000
00000000
00000000
00000000
00001000
00000000
00000000
00000000
00000000
00000000
00000000
00000000
00000000
00000000
00000000
00000000
00000000
00000000
00000000
00000000
00000000
00000000
00000000
00000001
00000000
00000000
00000000
00000100
00000000
00000000
00000000
00000001
00000000
00000000
00000000
00000100
00000000
00000000
00000000
00000001
00000000
00000000
00000000
00000000
00000000
00000000
00000000
00000000
00000000
00000000
00000000
00000000
00000000
00000000
00000000
00000000
00000000
00000000
00000000
,
00001000
00000000
00000000
00000100
00000000
00000000
00001000
00000000
00000000
00000100
00000000
00000000
00001000
00000000
00000000
00000000
00000000
00000000
00000000
00000000
00000000
00000000
00000000
00000000
00000000
00000000
00000000
00000000
00000100
00000000
00000000
00000000
00010000
00000000
00000000
00000000
00001000
00000000
00000000
00000000
00000000
00000000
00000000
00000000
00000000
00000000
00000000
00000000
,
00000000
00000000
00000000
01000000
00100000
10000000
00010000
00000000
00000000
00000000
00000000
00000000
,
00000000
00000000
00000000
00000000
00000000
00000000
10000000
00000000
01000000
00000000
00100000
00000000
00001000
00000000
00000000
00010000
,
00001000
00000000
00000000
00000000
,
00000000
00000000
00000000
00000000
,
00001000
00000010
00000001
00001000
,
00002100
00003001
00000102
00001003
,
00000001
00000100
00001000
00000000
00010000
00000000
01000000
00000000
,
21000000
30010000
01020000
10030000
,
10000000
01000000
00010000
00000000
00001000
00000000
00000010
00000000
,
00000012
00001003
00001200
00010300
,
00010000
00001000
00000100
00000000
00000010
00000000
00010000
00000000
,
00001000
00010000
01000000
00000000
10000000
00010000
01000000
00000000
,
00100000
00000000
10000000
00000000
00010000
00000000
10000000
00000000
01000000
00000000
00000000
00010000
00001000
00000000
00000010
00000000
,
00000001
00001001
00001100
00000101
,
00001100
00001001
00000101
00010010
,
00011000
01001000
00011000
00010100
,
00010000
00001000
00100000
00010000
01000000
00100000
10000000
00000000
,
10010000
11000000
01010000
11000000
,
10010000
10100000
00110000
00011000
,
00101000
00011000
00010100
00011000
,
00010000
00000100
00000010
00001000
00000010
00000001
00001000
00000000
,
00001100
00001010
00010010
00011000
,
01001000
01010000
00110000
01010000
,
00110000
00101000
00011000
00010100
,
00010000
01000000
10000000
00100000
01000000
00100000
10000000
00000000
,
10010000
11000000
00101000
00011000
,
00010100
00000011
00010100
00011000
,
01001000
10100000
10010000
00011000
,
00001001
00000000
00000000
00000000
,
10000000
00010000
01000000
00000000
00100000
10000000
00010000
00000000
,
10000000
01000000
00010000
00001000
00000100
00000010
00001000
00000000
,
00000001
00000010
00000100
00001000
00000001
00000010
00001000
00000000
,
02000000
03200000
20300000
30010000
,
10000000
01000000
00100000
00000000
00001000
00010000
00000010
00000000
,
00001000
00000001
00000100
00001000
00010000
01000000
10000000
00000000
,
10000000
01000000
00100000
00010000
10000000
00100000
00010000
00000000
,
00000200
00000320
00000032
00001003
,
00000001
00000100
00001000
00010000
00100000
01000000
00001000
00010000
,
00100000
01000000
10000000
01000000
00100000
00010000
00001000
01000000
,
00100000
00010000
00001000
00000010
00000100
00010000
00001000
00000010
,
00000100
00000001
00000100
00000010
00001000
00010000
00000100
00000000
,
00010000
00001000
00000100
00000001
00000010
00001000
00010000
00100000
,
01000000
10000000
01000000
00100000
00010000
00001000
00000010
00000001
,
00000100
00001000
00010000
00100000
00010000
00001000
00000100
00000010
,
00001000
00000001
00000100
00000001
00000010
00000100
00010000
00100000
,
01000000
00000000
00000000
00000000
,
00000000
00000000
00000000
00000000
;
#NOTES:
     dance-double:
     :
     Challenge:
     17:
     :
00000000
00000000
00000000
00000000
,
00000000
00000000
00000000
00000000
,
00000000
00000000
00000000
00000000
,
00000000
00000000
00000000
00000000
,
00000000
00000000
00000000
00000000
,
00000000
00000000
00000000
00000000
,
00000000
00000000
00001000
00010000
,
00022000
00000000
00000000
00000000
,
00033000
00000000
00000000
00000000
00000000
00000000
00000000
00000000
00000000
00000000
00001000
00010000
00001000
00000000
00010000
00000000
,
01000000
00100000
00000000
00000000
00001000
00010000
00000000
00000000
,
00011000
00010100
00000011
00001001
,
00000001
00000010
00000100
00001000
00010000
00000010
00001000
00010000
,
00100000
01000000
00001000
00010000
01000000
10000000
00100000
00000000
,
10000000
01000000
00100000
00010000
00001000
01000000
00010000
00001000
,
00000100
00000010
00010000
00001000
00000010
00000000
00000011
00000000
,
00000001
00000100
00000010
00001000
00010000
00000100
00001000
00010000
,
01000000
00100000
00001000
00010000
00100000
01000000
10000000
00010000
,
10000000
01000000
00100000
00010000
00001000
00000010
00000100
00000001
,
00001000
00000010
00000001
00000100
00001000
00000000
00011000
00000000
,
00000000
00000000
00000000
00000000
00000000
00001000
00000000
00000000
,
00100000
00000000
00000000
00010000
01000000
00000000
01000000
00100000
00000000
10000000
00000000
00010000
00100000
00000000
00000000
00000000
,
00010000
00000000
00000000
00000000
10000000
00000000
00000000
00000000
00000000
00000000
00000000
00000000
10000000
00000000
00000000
00000000
01000000
00000000
00000000
00000000
00000000
00000000
00000000
00000000
00000000
00000000
00000000
00000000
00000000
00000000
00000000
00000000
00010000
00000000
00000000
00000000
00000000
00000000
00000000
00000000
00000000
00000000
00000000
00000000
00000000
00000000
00000000
00000000
00001000
00000000
00000000
00000000
00000000
00000000
00000000
00010000
00000000
00000000
00000000
00000000
00000000
00000000
00000000
00000000
,
00000000
00000000
00000000
00000000
00000000
00000000
00000000
00000000
00000100
00000000
00000000
00000000
00001000
00000000
00000000
00000000
00000000
00000000
00000001
00000000
00000000
00000000
00000100
00000000
00000000
00000000
00000010
00000000
00000000
00000000
00001000
00000000
00000000
00000000
00000000
00000000
00000100
00000000
00000000
00010000
00000000
00000000
00000000
00000000
00001000
00000000
00000000
00000000
,
00010000
00000000
00000000
00000000
00000000
00000000
00001000
00000000
00000000
00000000
00000000
00000000
00100000
00000000
00000000
00010000
00000000
00000000
00000000
00000000
00000000
00000000
00000000
00000000
10000000
00000000
01000000
00000000
00000000
00000000
10000000
00000000
00000000
01000000
00000000
00000000
00000000
00000000
00000000
00000000
10000000
00000000
00000000
00000000
01000000
00000000
00000000
00000000
,
00000000
00000000
00100000
00000000
00000000
00000000
00000000
00000000
00000000
00000000
00000000
00000000
00000000
00000000
00000000
00000000
00000000
00000000
00000000
00000000
00000000
00000000
00000000
00000000
00001000
00000000
00000000
00010000
00000000
00000000
00001000
00000000
00000000
00010000
00000000
00000000
00001000
00000000
00000000
00000000
00010000
00000000
00000000
00000000
00000100
00000000
00000000
00000000
,
00001000
00000000
00000000
00000000
00000010
00000100
00000000
00000001
00000000
00000100
00000010
00000000
00001000
00000001
00000000
00000100
,
00000010
00000000
00000000
00000100
00000000
00000000
00000001
00000000
00000010
00000000
00000000
00000000
00000100
00000000
00000000
00001000
00000000
00000000
00000100
00000000
00000000
00000000
00000000
00000000
00010000
00000000
00001000
00000000
00000000
00000000
00010000
00000000
,
00001000
00000000
00000000
00000000
00000000
00100000
00000000
00010000
00000000
00000000
00000000
00100000
00000000
00010000
00000000
00000000
00000000
00000000
01000000
00000000
00100000
00000000
00000000
10000000
00000000
00000000
00000000
00010000
00000000
00000000
00000000
00000000
,
02000000
00000000
00000000
00000000
00000000
03000000
00000000
00000000
00000000
00000000
00000000
00000000
00000000
00000000
00000000
00000000
00000000
00000000
00000000
00000000
00000000
00000000
00000000
00000000
00000000
00000000
00000000
00000000
00000000
00000000
00000000
00000000
,
00000000
00000000
00000000
00000000
00000000
00000000
00000000
00000000
00000000
00000000
00000000
00000000
00000000
00000000
00000000
00000000
00000000
00000000
00000000
00000000
00000000
00000000
00000000
00000000
00000000
00000000
00000000
00000000
00000000
00000000
00000000
00000000
00000000
00000000
00000000
00000000
00000000
00000000
00000000
00000000
00000000
00000000
00000000
00000000
00000000
00000000
00000000
00001000
,
00000000
00011000
00000000
00000000
00000000
00000000
00000000
00000000
00000100
00000000
00000000
00000000
00000000
00000000
00000000
00001000
,
00000000
00000000
00000000
00000000
00000000
00000000
00000000
00000000
00000000
00000001
00000100
00000000
00000000
00000000
00000001
00000100
,
00000000
00000000
00000000
00000000
00000000
00000000
00000010
00000000
00000000
00000000
00000000
00000000
00000000
00000000
00000000
00000000
00000000
00000000
00000000
00000000
00000000
00000000
00000000
00000000
00000000
00000000
00000000
00000000
00001000
00000000
00000000
00000000
00000000
00000000
00000000
00000000
00000000
00000100
00000000
00000000
00000000
00000000
00000000
00000000
00000000
00000000
00000010
00000000
00000000
00000000
00000000
00000000
00000000
00000000
00000000
00000000
00000000
00000000
00000000
00000000
00001000
00000000
00000000
00000000
,
00000000
00000000
00000000
00000000
00000000
00000000
00000000
00000000
00000000
00000000
00000000
00000000
00000000
00000000
00000000
00000000
00000000
00000000
00000000
00000000
00000000
00000000
00000000
00000000
00000000
00000000
00000000
00010000
00000000
00000000
00000000
00000000
00000000
00000000
00000000
00000000
00000000
00000000
00000000
00000000
00000000
00000000
00000000
00000000
00000000
00000000
00000000
00000000
00000000
00000000
00000000
00000000
00000000
00000000
00001000
00000000
00000000
00000000
00000000
00000000
00000000
00000000
00000000
00000000
00000000
00000000
00000000
00000000
00000000
00000000
00000000
00000000
00000000
00000000
00000000
00000000
00000000
00000000
00000000
00000000
01000000
00000000
00000000
00000000
00000000
00000000
00000000
00000000
00000000
00000000
00000000
00000000
00000000
00000000
00000000
00000000
00000000
00000000
00000000
00000000
00000000
00000000
00000000
00000000
00000000
00000000
00000000
00000000
00000000
00000000
00000000
00000000
00000000
00000000
00000000
00000000
00000000
00000000
00000000
00000000
00000000
00000000
00000000
00000000
00000000
00000000
00000000
00000000
00000000
00000000
00000000
00000000
00000000
00000000
00000000
00000000
00000000
00000000
00000000
00000000
00000000
00000000
00000000
00000000
00000000
00000000
00000000
00000000
00000000
00000000
00000000
00000000
00000000
00000000
00000000
00000000
00000000
00000000
00000000
00000000
00000000
00000000
00010000
00000000
00000000
00000000
00000000
00000000
00000000
00000000
00000000
00000000
00000000
00000000
00000000
00000000
00000000
00000000
00000000
00000000
00000000
00000000
00000000
00000000
00000000
00000000
00000000
00000000
00000000
00000000
00000000
00000000
,
00000000
00000000
00000000
00000000
00000000
00000000
00000000
10000000
00000000
00000000
00000000
00000000
01000000
00000000
00000000
00000000
10000000
00000000
00000000
00000000
00010000
00000000
00000000
00000000
10010000
00000000
00000000
00000000
00000000
00000000
00000000
00000000
,
00000000
00000000
00000000
00000000
00000000
00000000
00000000
00000000
00000000
00000000
00000000
00000000
10000000
00000000
00000000
00000000
00000000
00000000
00000000
00000000
01000000
00000000
00000000
00000000
00000000
00000000
00000000
00000000
00100000
00000000
00000000
00000000
00000000
00000000
00000000
00000000
00010000
00000000
00000000
00000000
00000000
00000000
00000000
00000000
00000000
00100000
00000000
00000000
00000000
00000000
00000000
00000000
00000000
00000000
00000000
00000000
00000000
00000000
00001000
00000000
00000000
00000000
00000000
00000000
00000000
00000000
00000000
00000000
00000000
00000000
00000000
00000000
00010000
00000000
00000000
00000000
00000000
00000000
00000000
00000000
00000000
00000000
00000000
00000000
00001000
00000000
00000000
00000000
00000000
00000000
00000000
00000000
00000000
00000000
00000000
00000000
,
00000100
00000000
00000000
00000000
00000000
00000000
00000000
00000000
00000000
00000001
00000000
00000000
00000000
00000000
00000000
00000000
00000000
00000000
00000000
00000000
00000000
00000000
00000000
00000000
00000000
00000000
00000000
00000000
00000010
00000000
00000000
00000000
00000001
00000000
00000000
00000000
00000010
00000000
00000000
00000000
00000001
00000000
00000000
00000000
00000010
00000000
00000000
00000000
00000000
00000000
00000000
00000000
00000000
00000000
00000000
00000000
00000000
00000000
00000000
00000000
00000000
00000000
00000000
00000000
,
00000100
00000000
00000000
00001000
00000000
00000000
00000100
00000000
00000000
00001000
00000000
00000000
00000100
00000000
00000000
00000000
00000000
00000000
00000000
00000000
00000000
00000000
00000000
00000000
00000000
00000000
00000000
00000000
00010000
00000000
00000000
00000000
00001000
00000000
00000000
00000000
00010000
00000000
00000000
00000000
00000000
00000000
00000000
00000000
00000000
00000000
00000000
00000000
,
00000000
00000000
00000000
00000000
00000000
00000000
00000000
00000000
00000000
00000000
00000000
00000000
00001000
00000000
00000000
00000000
00010000
00000000
00000000
00000000
00100000
00000000
00000000
00000000
01000000
00000000
00000000
00000000
00000000
00000000
00000000
00000000
00000000
00000000
00000000
00000000
00000000
00000000
00000000
00000000
00000000
00000000
00000000
00000000
00000000
00010000
00000000
00000000
,
00100000
00010000
00000000
00000000
00000000
00000000
10000000
00000000
01000000
00000000
00010000
00000000
00001000
00000000
00000000
00000100
,
00000010
00000000
00000000
00000000
,
00000000
00000000
00000000
00000000
00000000
00000000
00000000
00001000
00000000
00000001
00000000
00000000
00000000
00000000
00000000
00000000
,
00000000
00000000
00000000
00000000
,
00000001
00000000
00000100
00000010
00000100
00000000
00000001
00000000
00000010
00000000
00000100
00001000
00000100
00000000
00010000
00000000
,
00001000
00000100
00000001
00000010
00000100
00001000
00000010
00010000
,
00001000
00000000
00100000
00010000
00100000
00000000
00001000
00000000
00010000
00000000
00100000
01000000
00100000
00000000
00010000
00000000
,
00001000
00010000
01000000
10000000
00100000
00010000
00001000
00100000
,
00010000
00000000
01000000
00100000
01000000
00000000
00010000
00000000
00100000
00000000
00001000
00010000
00001000
00000000
00000100
00000000
,
00000010
00010000
00001000
00000010
00000001
00000100
00001000
00010000
,
00001000
00000000
01000000
00100000
01000000
00000000
00010000
00000000
00100000
00000000
01000000
10000000
01000000
00000000
00100000
00000000
,
00010000
10000000
00010000
10000000
01000000
00100000
00010000
00100000
00001000
00010000
00000000
00001000
00000010
00000000
00000001
00000000
,
00001000
00000100
00000010
00000001
00001000
00000010
00000100
00001000
,
00010000
01000000
00100000
00001000
00000010
00000001
00000010
00001000
,
00010000
01000000
10000000
00100000
01000000
00001000
00000100
00000001
,
00000010
00000000
00000010
00000000
00000100
00000000
00000100
00000000
00001000
00000000
00001000
00000000
00000010
00000100
00000010
00000000
,
00010000
00001000
00000100
00000001
00000010
00000100
00001000
00010000
,
00000010
00001000
00010000
01000000
00100000
00001000
00010000
00100000
,
01000000
10000000
01000000
00100000
00010000
00001000
00000010
00000001
,
00000100
00000000
00000100
00000000
00000010
00000000
00000010
00000000
00010000
00000000
00010000
00000000
00001000
00010000
00001000
00000000
,
01000000
00000000
00100000
10000000
00010000
00000000
10000000
00000000
01000000
00000000
00100000
00000000
00010000
00000000
00001000
00000000
,
01000000
00010000
00001000
00000010
00000001
00000100
00001000
00000100
,
00000001
00000010
00000100
00000000
00001000
00000000
00000001
00000000
00000100
00000000
00001000
00000000
00010000
00000000
01000000
00000000
,
10000000
00100000
01000000
00000000
00010000
00100000
01000000
00000000
10000000
00100000
01000000
00000000
00010000
00100000
01000000
00000000
,
10000000
01000000
10000000
01000000
10000000
00000000
00100000
01000000
00010000
00000000
00100000
00000000
00001000
00000000
00010000
00000000
,
00001000
00010000
00001000
00000000
00000010
00000000
00000100
00000000
00001000
00000100
00001000
00000100
00000010
00000001
00001000
00000000
,
00000010
00000000
00000100
00000001
00001000
00000000
00000001
00000000
00000100
00000000
00001000
00000000
00010000
00000000
01000000
00000000
,
10000000
00000000
00100000
00000000
01000000
00010000
10000000
00000000
00010000
00100000
01000000
10000000
01000000
00100000
00010000
10000000
,
00100000
10000000
01000000
00100000
00010000
00001000
01000000
10000000
,
00100000
00010000
00001000
00000100
00000001
00000010
00000100
00001000
,
00010000
00000010
00000001
00000100
00001000
00010000
00100000
00000000
,
10000000
01000000
10000000
00000000
01000000
00010000
01000000
00000000
00010000
00001000
00010000
00000000
00001000
00000010
00001000
00000000
,
00000010
00000001
00000100
00000010
00001000
00010000
00000100
00000001
,
00000010
00001000
00010000
01000000
10000000
00100000
01000000
00010000
,
00001000
00100000
10000000
01000000
00010000
00001000
00000010
00000000
,
00000001
00000100
00000001
00000000
00000100
00001000
00000100
00000000
00001000
00010000
00001000
00000000
00010000
00100000
00010000
00000000
,
00100000
10000000
01000000
00100000
00010000
00001000
01000000
10000000
,
00100000
01000000
00010000
00001000
00100000
10000000
01000000
00001000
,
00010000
00000010
00001000
00010000
00000010
00001000
00010000
00000100
,
00000001
00000010
00000100
00000000
00001000
00000100
00010000
00000000
00001000
00100000
00010000
00000000
00100000
01000000
10000000
00000000
,
00010000
10000000
00100000
01000000
00010000
00001000
00100000
10000000
,
01000000
00001000
00010000
00000010
00000001
00000100
00010000
00001000
,
00000010
00000000
00000100
00000000
00000001
00000000
00001000
00000000
00000001
00001000
00000001
00001000
00000001
00000010
00000100
00001000
,
00000001
00001000
00000001
00001000
00000001
00000100
00000010
00001000
00000001
00000010
00000100
00001000
00000100
00001000
00000100
00010000
,
00002000
00000000
00000000
00000000
,
00003000
00000000
00000000
00000000
,
00000000
00000000
00000000
00000000
;
