
//----- song ID: urli -----//
#TITLE:Urban Life;
#ARTIST:Sota Fujimori;
#BANNER:Urban Life.png;
#BACKGROUND:Urban Life-bg.png;
#CDTITLE:./CDTitles/NOSTALGIA.png;
#MUSIC:Urban Life.ogg;
#SAMPLESTART:75.79;
#SAMPLELENGTH:15;
#BPMS:0=133;
#BGSTAGE:16;
#NOTES:
     dance-single:
     :
     Beginner:
     2:
     :
0000
0000
0000
0000
,
0000
0000
0000
0000
,
0000
0000
0000
0000
,
0000
0000
0000
0000
,
0000
0000
0000
0000
,
0010
0000
0000
0000
,
0000
0000
0000
0000
,
0010
0000
0000
0000
,
0000
0000
0000
0000
,
0100
0000
0000
0000
,
0000
0000
0000
0000
,
0100
0000
0000
0000
,
0000
0000
0000
0000
,
0010
0000
0000
0000
,
0000
0000
0000
0000
,
0010
0000
0000
0000
,
0000
0000
0000
0000
,
1001
0000
0000
0000
,
0001
0000
0001
0000
,
0001
0000
0000
0000
,
0000
0000
0000
0000
,
1001
0000
0000
0000
,
1000
0000
1000
0000
,
1000
0000
0000
0000
,
0000
0000
0000
0000
,
0001
0000
0000
0000
,
0010
0000
0000
0000
,
0100
0000
0000
0000
,
1000
0000
0000
0000
,
0001
0000
0000
0000
,
0100
0000
0000
0000
,
0010
0000
0000
0000
,
1000
0000
0000
0000
,
1001
0000
0000
0000
,
0001
0000
1000
0000
,
0001
0000
0000
0000
,
0000
0000
0000
0000
,
1001
0000
0000
0000
,
1000
0000
0001
0000
,
1000
0000
0000
0000
,
1001
0000
1001
0000
,
1001
0000
0000
0000
,
1000
0000
0000
0000
,
0100
0000
0000
0000
,
0010
0000
0000
0000
,
0001
0000
0000
0000
,
1000
0000
0000
0000
,
0010
0000
0000
0000
,
0100
0000
0000
0000
,
0001
0000
0000
0000
,
1001
0000
0000
0000
,
0001
0000
0001
0000
,
1000
0000
1000
0000
,
0010
0000
0100
0000
,
1001
0000
0000
0000
,
1001
0000
0000
0000
,
1001
0000
0000
0000
,
1001
0000
1001
0000
,
0000
0000
0000
0000
,
0010
0000
0000
0000
,
0001
0000
0000
0000
,
0010
0000
0000
0000
,
0001
0000
0000
0000
,
0100
0000
0000
0000
,
0001
0000
0000
0000
,
0100
0000
0000
0000
,
1001
0000
0000
0000
,
0000
0000
0000
0000
;
#NOTES:
     dance-single:
     :
     Easy:
     5:
     :
0000
0000
0000
0000
,
0000
0000
0000
0000
,
0000
0000
0000
0000
,
0000
0000
0000
0000
,
0000
0000
0000
0000
,
0001
0000
0010
0000
,
0100
0000
1000
0000
,
0100
0000
0010
0000
,
0001
0001
0001
0000
,
0001
0010
0100
0000
,
0010
0100
1000
0000
,
0100
1000
0001
0000
,
1000
0001
0010
1001
,
0001
0100
0010
0000
,
0100
0010
1000
0000
,
0010
1000
0001
0000
,
0001
1000
0100
1001
,
0001
0010
0100
1000
,
0200
0310
0020
0031
,
1000
0100
0010
0001
,
0020
0130
0200
1300
,
0100
0010
0001
1000
,
0020
0130
0200
0301
,
0010
0100
1000
0001
,
0200
0310
0020
1030
,
1000
0000
0001
0000
,
0010
0100
1000
0000
,
0001
0010
0001
0000
,
1000
0100
1000
0000
,
1000
0100
0001
0000
,
0001
0100
1000
0000
,
2000
3000
0200
0300
,
0020
0031
0001
0000
,
1001
0000
0001
0100
,
0010
1000
0010
0000
,
1001
0000
1000
0100
,
0010
0001
0010
0000
,
1001
0000
0001
0100
,
0010
0100
0001
0000
,
1001
0000
1000
0100
,
0010
0100
1000
0000
,
2002
0000
0000
3003
,
1001
0001
0010
0100
,
1000
0100
0010
0001
,
1001
0001
0100
0010
,
1000
0010
0100
0001
,
1001
0001
0010
0100
,
0010
0100
1000
0001
,
1001
1000
0010
0100
,
0010
0100
0001
1000
,
2002
0000
3003
1000
,
0100
0010
0001
0010
,
0001
0010
0100
0010
,
0100
1000
0100
1000
,
0110
0000
1001
0000
,
0110
0000
0000
0000
,
1001
0000
0110
0000
,
1000
0001
1001
0000
,
0220
0000
0000
0330
,
1000
0010
0100
0000
,
0010
0100
0001
0000
,
0100
0001
1000
0000
,
1000
0001
0010
0000
,
0100
0010
0001
0000
,
0010
0001
1000
0000
,
0001
1000
0100
0000
,
0100
0010
1001
0000
,
0000
0000
0000
0000
;
#NOTES:
     dance-single:
     :
     Medium:
     11:
     :
0000
0000
0000
0000
,
0000
0000
0000
0000
,
0000
0000
0000
0000
,
0000
0000
0000
0000
,
0000
0000
0000
0000
,
1000
0000
0100
0000
0010
0000
0000
0001
0000
0000
0010
0000
0100
0000
0000
0000
,
0100
0000
0010
0000
0001
0000
0000
0010
0000
0000
0100
0000
1000
0000
0000
0000
,
0001
0000
0010
0000
0100
0000
0000
1000
0000
0000
0100
0000
0010
0000
0000
0000
,
0001
0000
0000
0010
0000
0100
0000
1000
0000
0000
0000
0000
0000
0000
0000
0000
,
0001
0000
0100
0000
0000
0010
0000
1000
0000
0000
0100
0000
0010
0000
0100
0000
,
1000
0000
0010
0000
0000
0100
0000
0001
0000
0000
0100
0000
0010
0000
0000
0000
,
1000
0000
0010
0000
0000
0100
0000
0001
0000
0100
0000
0010
0000
0000
1000
0000
,
0010
0000
0100
0000
0000
0010
0000
1000
0000
0000
0010
0000
0100
0000
0000
0000
,
0010
0000
0100
0000
0000
0001
0000
0010
0000
0100
0000
0000
1000
0000
0100
0000
,
0010
0000
0001
0000
0000
0010
0000
0100
0000
0010
0000
0100
0000
0000
1000
0000
,
0000
0000
0001
0000
0000
0010
0000
0100
0000
1000
0000
0100
0000
0000
0010
0000
,
0001
0000
0010
0000
0000
0100
0000
1000
0000
0000
0000
0000
0000
0000
0000
0001
,
0000
0000
0100
0000
0010
0000
1000
0000
0010
0000
0100
0000
0000
0001
0000
0010
,
0000
0000
0100
0000
1000
0000
0000
0100
0000
0000
0010
0000
0001
0000
0000
0001
,
0000
0000
0100
0000
0010
0000
0000
0000
1000
0000
0100
0000
0000
0010
0000
0001
,
0000
0000
0010
0000
0100
0000
0000
1000
0000
0000
0010
0000
0100
0000
0000
0001
,
0000
0000
0100
0000
0010
0000
0001
0000
0010
0000
0100
0000
0000
0001
0000
1000
,
0000
0000
0100
0000
0010
0000
0000
0001
0000
0000
0100
0000
0010
0000
0000
1000
,
0000
0000
0100
0000
0010
0000
0000
0000
0100
0000
0010
0000
0000
0100
0000
0010
,
0000
0000
0100
0000
0010
0000
0000
0002
0000
0000
0000
0000
1003
0000
0000
0000
,
0000
1000
0000
0000
0001
0000
0010
0000
0100
0000
1000
0000
0000
0001
0000
0010
,
0000
0001
0010
0100
1000
0100
0010
0001
,
0000
1000
0000
0100
0000
0010
0000
0001
0000
1000
0000
0100
0000
0010
0000
0001
,
0000
0001
0010
1000
0001
0100
1000
0001
,
0100
0010
0100
1000
0100
0010
0100
0001
,
0100
0000
1000
0000
0100
0000
0010
0000
0000
1000
0000
0100
0000
0010
0000
0000
,
0002
0000
0003
0000
0020
0000
0030
0000
0200
0000
0300
0000
2000
3000
0000
0220
,
0000
0000
0000
0330
0000
0000
0000
0000
,
1001
0000
0000
1001
0000
0000
0000
0100
0000
0000
0010
0000
0100
0000
0000
0000
,
1001
0000
0000
1001
0000
0000
0000
0100
0000
0000
0010
0100
0000
0000
0000
0000
,
1001
0000
0000
1001
0000
0000
0000
1000
0000
0000
0001
0000
1000
0000
0000
0000
,
1001
0000
0000
1001
0000
0000
0000
0001
0000
0000
0010
0000
0100
0000
1000
0000
,
0100
0000
0000
0100
0000
0000
0000
0010
0000
0000
0001
0000
0010
0000
0100
0000
,
1000
0000
0000
1000
0000
0000
0000
0100
0000
0000
0010
0000
0001
0000
0010
0000
,
0100
0000
0000
0100
0000
0000
0000
1000
0000
0000
0100
0000
0010
0000
0000
0000
,
0001
0000
0000
0001
0000
0000
0000
0001
0000
0000
0010
0000
0100
0000
1000
0000
,
2000
3000
0200
0300
0020
0030
0002
0003
,
0001
0000
0000
0001
0000
0010
0000
0100
0000
0000
1000
0000
0000
0000
0001
0000
,
0010
0000
0100
0000
0000
0010
0000
0100
0000
0100
0000
1000
0000
0000
0100
0000
,
0010
0000
0000
0100
0000
0010
0000
0001
0000
0000
1000
0000
0000
0000
0001
0000
,
0010
0000
0000
0100
0000
1000
0000
0010
0000
0010
0000
0010
0000
0000
0000
0000
,
1000
0000
0000
0100
0000
0010
0000
0001
0000
0000
0010
0000
0000
0000
0001
0000
,
0010
0000
0000
0001
0000
1000
0000
0100
0000
0100
0000
0010
0000
0000
0001
0000
,
0010
0000
0000
0100
0000
1000
0000
0100
0000
0000
0010
0000
0000
0000
0100
0000
,
1000
0000
0000
0001
0000
0010
0000
0100
0000
0100
0000
0100
0000
0000
0000
0000
,
1000
0100
0010
0100
1000
0000
1000
0100
,
0010
0000
0001
0000
0000
0010
0000
0001
0000
0000
0001
0000
0010
0000
0100
0000
,
0010
0001
0010
0100
0010
1000
0010
1000
,
0001
0000
0100
0000
0000
1000
0000
0100
0000
0010
0000
0001
0000
0000
0000
0000
,
1001
0000
0000
0010
0000
0100
0000
0000
,
1001
0000
0000
0000
1000
0000
0000
0100
0000
0000
0000
0010
0000
0000
0000
0000
,
1001
0000
0000
0000
0000
0000
0100
0000
0000
0000
0010
0000
0000
0001
0000
0000
,
0001
0001
0010
0000
0001
0100
1000
0000
0000
0000
0000
0000
,
2002
0000
0000
0000
0000
0000
0000
3003
,
0001
0000
0010
0000
0100
0000
0000
0010
0000
0000
0100
0000
1000
0000
0000
0000
,
1000
0000
0100
0000
0010
0000
0000
0100
0000
0000
0010
0000
0001
0000
0000
0000
,
0001
0000
0010
0000
0100
0000
0000
0010
0000
0000
0001
0000
0010
0000
0000
0000
,
0001
0000
0010
0000
0100
0000
0000
1000
0000
0000
0100
0000
1000
0000
0000
0000
,
0001
0000
0100
0000
0010
0000
0000
0100
0000
0000
0010
0000
1000
0000
0000
0000
,
0001
0000
0100
0000
0010
0000
0000
0100
0000
0000
0001
0000
1000
0000
0000
0000
,
0100
0000
0010
0000
0001
0000
0000
0010
0000
0000
0100
0000
1000
0000
0000
0000
,
1001
0000
0000
0010
0000
0000
1001
0000
0000
0000
0000
0000
0000
0000
0000
0000
,
0000
0000
0000
0000
;
#NOTES:
     dance-single:
     :
     Hard:
     15:
     :
0000
0000
0000
0000
,
0000
0000
0000
0000
,
0000
0000
0000
0000
,
0000
0000
0000
0000
,
0000
0000
0000
0000
,
1000
0000
0100
0000
0010
0001
0000
0002
0000
0000
0013
0000
0100
0000
0000
0000
,
0100
0000
0010
0000
0001
1000
0000
0020
0000
0000
0130
0000
0001
0000
0100
0000
,
0001
0000
0010
0000
0100
1000
0000
2000
0000
0000
3100
0000
0010
0000
0000
0000
,
0002
0000
0000
0100
0000
0100
0000
0103
0000
0000
0000
0000
0000
0000
0000
0000
,
0001
0000
1000
0100
0000
0010
0000
0001
0000
0010
0000
0000
0001
0000
1000
0000
,
0010
0000
1000
0100
0000
1000
0000
0010
0000
0000
0100
0000
0001
0000
0000
0000
,
0000
0000
1000
0100
0000
0010
0000
0100
0000
0010
0001
0010
0000
0000
0001
0000
,
1000
0000
0010
0100
0000
0001
0000
0100
0000
0000
0010
0000
1000
0000
0000
0000
,
0001
0000
0010
0100
0000
1000
0000
0001
0000
0100
0000
0000
0001
0010
0001
0000
,
1000
0000
0010
0100
0000
0010
0000
0001
0000
0010
0000
0100
0000
0000
0001
0000
,
0000
0000
1000
0100
0000
0010
0000
0100
0000
1000
0100
1000
0000
0000
0001
0000
,
0100
0000
0010
0100
0000
0010
0000
1000
0000
0000
0000
0000
0000
0000
0000
1000
,
0000
0100
0010
0000
0001
0000
0010
0000
0100
0000
1000
0001
0000
0100
0000
0010
,
0000
0000
1000
0000
1000
0001
0000
0010
0000
0000
0010
0000
0100
1000
0100
1000
,
0000
0001
0010
0000
0100
0000
0000
0000
0100
0000
0010
0001
0000
1000
0001
1000
,
0000
0000
0010
0000
0100
0001
0000
0100
0000
0000
0010
0000
1000
0010
1000
0010
,
0000
0100
0001
0000
0100
0000
1000
0000
0100
0000
0010
0001
0000
0010
0000
0100
,
0000
0000
0100
0000
0010
1000
0000
0010
0000
0000
0100
0000
0001
0010
0001
0010
,
0000
0010
0100
0000
1000
0000
0000
0000
1000
0000
0010
0100
0000
0010
0100
0010
,
0000
0000
0001
0000
0010
0100
0000
1000
0000
0000
0000
0000
0001
0000
0000
0000
,
0000
1000
0001
0000
0100
0000
0010
0000
1000
0000
0010
0100
0000
0001
0000
0100
,
0000
0010
0001
0010
0100
0010
1000
0010
0001
0000
0010
0100
0000
0010
0000
0100
,
0000
0001
0010
0001
0100
0001
1000
0001
1000
0100
1000
0010
1000
0001
1000
0100
,
0000
0010
0001
0010
0100
1000
0100
1000
0100
0010
0100
0010
0001
0010
0001
0010
,
0100
0000
1000
0100
0001
0100
1000
0100
0001
0100
0010
0100
0010
0100
1000
0100
,
0010
0000
0001
0000
0100
0000
0010
1000
0000
0010
1000
0100
1000
0010
1000
0100
,
0010
0000
0001
0010
0001
0010
0001
0000
1000
0100
1000
0100
1000
0000
0001
0100
0001
0100
0001
0000
1000
0001
1000
0001
,
2000
0000
0000
3001
0000
0000
0000
0000
,
1000
0000
0100
0010
0000
0001
0000
0010
0000
0001
0010
0000
0010
0001
0000
0000
,
0001
0000
0010
0100
0000
0100
0000
0010
0000
0001
0100
0001
0000
0000
0000
0000
,
0001
0000
0100
0010
0000
1000
0000
0010
0000
1000
0100
0000
0100
1000
0000
0000
,
0001
0000
0100
0010
0000
0100
0000
0010
0000
0000
1000
0000
0100
0000
0010
0000
,
0001
0000
1000
0100
0000
0010
0000
0001
0000
1000
0001
0000
0001
1000
0000
0000
,
0100
0000
0010
0100
0000
0010
0000
0001
0000
1000
0001
0100
0010
0000
1000
0001
,
1000
0000
0100
0010
0000
0100
0000
1000
0000
0010
0100
0000
0100
0010
0000
0000
,
1000
0000
0100
0010
0000
0001
0000
0010
0000
0001
0100
0001
0100
0000
0010
0001
,
0010
0000
0000
0000
0000
0001
0010
0000
0000
0000
0000
1000
0100
0000
0000
0100
0000
0000
1001
0000
0000
0000
0000
0000
,
0001
0000
0010
0100
0000
1000
0100
1000
0000
0000
0001
0010
0000
0000
0100
0000
,
1000
0000
0010
0100
0000
0100
0000
0010
0000
0010
0000
1000
0000
0000
0001
0000
,
1000
0000
0100
0010
0000
0001
0100
0001
0000
0100
0010
0100
0010
0000
1000
0000
,
0001
0010
0100
1000
0000
0100
0000
1001
0000
1001
0000
1001
0000
0000
0000
0000
,
0001
0000
0100
0010
0000
1000
0010
1000
0000
0100
0010
0100
0010
0000
0001
0000
,
1000
0000
0010
0100
0000
0100
0000
0010
0000
0010
0000
1000
0000
0000
0001
0000
,
1000
0000
0001
0100
0000
0001
0010
0001
0000
1000
0010
1000
0010
0000
0100
0000
,
0001
0010
1000
0010
0000
0001
0000
1001
0000
1001
0000
1001
0000
0000
0000
0000
,
1000
0000
0001
0010
1000
0010
0001
0100
1000
0000
0000
0000
1000
0000
0100
0010
,
0100
1000
0100
0001
0000
0100
1000
0100
0000
0010
0100
0010
0000
0001
0010
0001
,
0010
0000
0100
0000
1000
0000
0100
0001
0000
0010
1000
0010
0001
0010
1000
0010
,
0100
0000
1000
0100
0000
0010
0001
0010
0000
0100
0000
0010
0000
0000
0000
0000
,
1001
0000
0000
0000
0010
0000
0100
0000
0010
0000
0100
0000
0010
0100
0000
0000
,
1001
0000
1000
0001
1000
0001
0000
0001
1000
0000
0001
0000
1000
0000
0000
0000
,
1001
0000
0000
0001
0000
0010
0000
0100
0010
0000
0001
0000
0000
1000
0000
0000
,
1001
1001
0110
0000
0110
0110
1001
0000
0000
0000
0000
0000
,
1000
0000
0001
0010
0001
0010
0001
0010
0000
0010
0100
0000
1000
0100
1000
0000
,
1000
0000
0100
0000
0010
0001
0000
0001
0010
0000
0100
0000
1000
0000
0000
0000
,
0001
0000
0100
0000
0010
1000
0000
1000
0100
0000
0010
0000
0001
0000
1000
0000
,
0001
0000
0010
0000
0100
1000
0000
1000
0100
0000
0010
0000
0001
0000
0000
0000
,
1000
0000
0001
0000
1000
0100
0000
0100
0010
0000
0001
0000
0010
0000
0000
0000
,
0001
0000
0100
0000
0010
1000
0000
0010
1000
0000
0100
0000
1000
0000
0000
0000
,
0001
0000
0010
0000
0100
1000
0000
0100
1000
0000
0010
0000
0100
0000
0001
0000
,
1000
0000
0100
0000
0010
0001
0000
0010
0001
0000
0100
0000
0010
0000
1000
0000
,
1001
0000
0000
0110
0000
0000
1001
0000
0000
0000
0000
0000
0000
0000
0000
0000
,
0000
0000
0000
0000
;
#NOTES:
     dance-double:
     :
     Easy:
     5:
     :
00000000
00000000
00000000
00000000
,
00000000
00000000
00000000
00000000
,
00000000
00000000
00000000
00000000
,
00000000
00000000
00000000
00000000
,
00000000
00000000
00000000
00000000
,
10000000
00000000
01000000
00000000
,
00100000
00000000
00010000
00000000
,
00001000
00000000
00000100
00000000
,
00000010
00000000
00000001
00000000
,
00000001
00000010
00000100
00000000
,
00000010
00000100
00001000
00000000
,
00000100
00010000
00001000
00000000
,
00010000
00001000
00100000
00000000
,
01000000
00100000
00010000
00000000
,
00100000
00001000
00010000
00000000
,
00001000
00010000
00000010
00000000
,
00000100
00000001
00001000
00000000
,
00000001
00000010
00000100
00001000
,
00000200
00010300
00020000
00031000
,
01000000
00100000
00010000
00001000
,
00002000
00003100
00000200
00000301
,
00000100
00001000
00010000
00100000
,
00200000
01300000
02000000
13000000
,
01000000
00010000
00100000
00001000
,
00002000
00013000
00020000
00031000
,
00100000
00000000
00010000
00000000
,
10000000
01000000
00100000
00000000
,
00001000
00010000
00001000
00000000
,
00000100
00000010
00000100
00000000
,
00000001
00000010
00000100
00000000
,
00000010
00000100
00001000
00000000
,
00000200
00000300
00020000
00030000
,
00002000
00013000
00010000
00000000
,
00011000
00000000
00001000
00000100
,
00000010
00000100
00001000
00000000
,
00011000
00000000
00010000
00100000
,
01000000
00100000
00010000
00000000
,
00011000
00000000
00001000
00100000
,
00001000
01000000
00001000
00000000
,
00011000
00000000
00010000
00000100
,
00010000
00000010
00010000
00000000
,
00022000
00000000
00000000
00033000
,
00011000
00010000
00100000
01000000
,
00100000
00010000
00001000
00000100
,
00000110
00000010
00000100
00001000
,
00010000
00100000
01000000
10000000
,
01100000
01000000
00100000
00010000
,
00001000
00000100
00000010
00001000
,
00001001
00000001
00000010
00000100
,
00001000
00010000
00100000
00001000
,
00022000
00000000
00033000
00010000
,
00001000
00010000
00000100
00010000
,
00000010
00010000
00001000
00010000
,
00001000
00100000
00001000
01000000
,
00011000
00000000
00001000
00010000
,
00011000
00000000
00001000
00000010
,
00000110
00000000
00001001
00000000
,
00000010
00000100
00000110
00000000
,
00002002
00000000
00000000
00003003
,
00000001
00000010
00000100
00000000
,
00000010
00000100
00001000
00000000
,
00000100
00001000
00010000
00000000
,
00001000
00010000
00100000
00000000
,
01000000
00100000
00010000
00000000
,
00100000
00010000
00001000
00000000
,
00010000
00001000
00000100
00000000
,
00001000
00000100
00011000
00000000
,
00000000
00000000
00000000
00000000
;
#NOTES:
     dance-double:
     :
     Medium:
     11:
     :
00000000
00000000
00000000
00000000
,
00000000
00000000
00000000
00000000
,
00000000
00000000
00000000
00000000
,
00000000
00000000
00000000
00000000
,
00000000
00000000
00000000
00000000
,
10000000
00000000
01000000
00000000
00100000
00000000
00000000
00010000
00000000
00000000
00100000
00000000
01000000
00000000
00000000
00000000
,
01000000
00000000
00100000
00000000
00010000
00000000
00000000
00001000
00000000
00000000
00000100
00000000
00000010
00000000
00000000
00000000
,
00000001
00000000
00000010
00000000
00000100
00000000
00000000
00001000
00000000
00000000
00000100
00000000
00000010
00000000
00000000
00000000
,
00001000
00000000
00000000
00010000
00000000
00100000
00000000
01000000
00000000
00000000
00000000
00000000
00000000
00000000
00000000
00000000
,
00010000
00000000
00100000
00000000
00000000
00001000
00000000
00010000
00000000
00000000
00000100
00000000
00000010
00000000
00000100
00000000
,
00001000
00000000
00000010
00000000
00000000
00010000
00000000
00001000
00000000
00000000
00100000
00000000
01000000
00000000
00000000
00000000
,
10000000
00000000
01000000
00000000
00000000
00100000
00000000
00010000
00000000
00001000
00000000
00000100
00000000
00000000
00000010
00000000
,
00000001
00000000
00000010
00000000
00000000
00000100
00000000
00001000
00000000
00000000
00010000
00000000
00100000
00000000
00000000
00000000
,
00100000
00000000
00010000
00000000
00000000
10000000
00000000
01000000
00000000
00100000
00000000
00000000
00010000
00000000
00001000
00000000
,
00000100
00000000
00000010
00000000
00000000
00000001
00000000
00000010
00000000
00000001
00000000
00000010
00000000
00000000
00000100
00000000
,
00000000
00000000
00010000
00000000
00000000
00001000
00000000
00100000
00000000
00010000
00000000
10000000
00000000
00000000
00100000
00000000
,
01000000
00000000
00100000
00000000
00000000
00010000
00000000
00001000
00000000
00000000
00000000
00000000
00000000
00000000
00000000
00010000
,
00000000
00000000
01000000
00000000
10000000
00000000
01000000
00000000
00010000
00000000
00001000
00000000
00000000
00000100
00000000
00000010
,
00000000
00000000
00000100
00000000
00001000
00000000
00000000
00100000
00000000
00000000
00001000
00000000
00010000
00000000
00000000
00010000
,
00000000
00000000
00100000
00000000
01000000
00000000
00000000
00000000
01000000
00000000
00100000
00000000
00000000
00010000
00000000
00001000
,
00000000
00000000
00000100
00000000
00000001
00000000
00000000
00000001
00000000
00000000
00000001
00000000
00000010
00000000
00000000
00000100
,
00000000
00000000
00010000
00000000
00001000
00000000
00000100
00000000
00001000
00000000
00010000
00000000
00000000
00100000
00000000
01000000
,
00000000
00000000
00010000
00000000
10000000
00000000
00000000
01000000
00000000
00000000
10000000
00000000
00010000
00000000
00000000
00100000
,
00000000
00000000
00001000
00000000
00010000
00000000
00000000
00000000
00001000
00000000
00010000
00000000
00000000
00001000
00000000
00010000
,
00000000
00000000
00001000
00000000
00010000
00000000
00000000
00002000
00000000
00000000
00000000
00000000
00013000
00000000
00000000
00000000
,
00000000
00010000
00000000
00000000
00001000
00000000
00000100
00000000
00000010
00000000
00000100
00000000
00000000
00001000
00000000
00010000
,
00000000
00100000
01000000
10000000
01000000
00100000
00010000
00001000
,
00000000
00000100
00000000
00000010
00000000
00000001
00000000
00000010
00000000
00000100
00000000
00000010
00000000
00000001
00000000
00000010
,
00000000
00001000
00010000
01000000
00001000
00010000
00100000
00010000
,
00001000
00010000
01000000
00010000
00001000
00010000
00100000
00010000
,
00001000
00000000
00010000
00000000
01000000
00000000
10000000
00000000
00000000
01000000
00000000
00100000
00000000
00010000
00000000
00000000
,
00002000
00000000
00003000
00000000
00000200
00000000
00000300
00000000
00000020
00000000
00000030
00000000
00000002
00000003
00000000
00000220
,
00000000
00000000
00000000
00000330
00000000
00000000
00000000
00000000
,
00001001
00000000
00000000
00001001
00000000
00000000
00000000
00001000
00000000
00000000
00000100
00000000
00010000
00000000
00000000
00000000
,
00011000
00000000
00000000
00011000
00000000
00000000
00000000
01000000
00000000
00000000
00100000
01000000
00000000
00000000
00000000
00000000
,
10010000
00000000
00000000
10010000
00000000
00000000
00000000
00010000
00000000
00000000
00100000
00000000
00001000
00000000
00000000
00000000
,
00011000
00000000
00000000
00011000
00000000
00000000
00000000
00001000
00000000
00000000
00010000
00000000
00100000
00000000
01000000
00000000
,
00100000
00000000
00000000
00100000
00000000
00000000
00000000
00010000
00000000
00000000
00001000
00000000
00000100
00000000
00000010
00000000
,
00000100
00000000
00000000
00000100
00000000
00000000
00000000
00001000
00000000
00000000
00010000
00000000
00100000
00000000
01000000
00000000
,
10000000
00000000
00000000
10000000
00000000
00000000
00000000
01000000
00000000
00000000
00001000
00000000
00010000
00000000
00000000
00000000
,
00001000
00000000
00000000
00001000
00000000
00000000
00000000
00001000
00000000
00000000
00010000
00000000
00001000
00000000
00000100
00000000
,
00000200
00000300
00002000
00003000
00020000
00030000
00200000
00300000
,
10000000
00000000
00000000
01000000
00000000
00100000
00000000
00010000
00000000
00000000
00001000
00000000
00000000
00000000
00000100
00000000
,
00000010
00000000
00000001
00000000
00000000
00000010
00000000
00000100
00000000
00000100
00000000
00001000
00000000
00000000
00000100
00000000
,
00000010
00000000
00000000
00000100
00000000
00000010
00000000
00000001
00000000
00000000
00001000
00000000
00000000
00000000
00000100
00000000
,
00010000
00000000
00000000
00001000
00000000
00010000
00000000
00100000
00000000
00100000
00000000
00100000
00000000
00000000
00000000
00000000
,
10000000
00000000
00000000
01000000
00000000
00100000
00000000
00010000
00000000
00000000
00100000
00000000
00000000
00000000
00010000
00000000
,
00100000
00000000
00000000
00001000
00000000
00010000
00000000
00000100
00000000
00000100
00000000
00000010
00000000
00000000
00000001
00000000
,
00000010
00000000
00000000
00000100
00000000
00001000
00000000
00000100
00000000
00000000
00010000
00000000
00000000
00000000
00001000
00000000
,
00100000
00000000
00000000
00010000
00000000
10000000
00000000
01000000
00000000
01000000
00000000
01000000
00000000
00000000
00000000
00000000
,
10000000
01000000
00100000
01000000
10000000
00000000
00100000
00010000
,
00001000
00000000
00000100
00000000
00000000
00001000
00000000
00000100
00000000
00000000
00001000
00000000
00010000
00000000
00001000
00000000
,
00010000
00100000
01000000
00100000
01000000
00010000
00100000
00010000
,
00100000
00000000
00001000
00000000
00000000
00010000
00000000
00100000
00000000
01000000
00000000
10000000
00000000
00000000
00000000
00000000
,
10010000
00000000
00000000
00100000
00000000
01000000
00000000
00000000
,
10010000
00000000
00000000
00000000
00010000
00000000
00000000
00100000
00000000
00000000
00000000
00001000
00000000
00000000
00000000
00000000
,
00011000
00000000
00000000
00000000
00000000
00000000
00001000
00000000
00000000
00000000
00000010
00000000
00000000
00000001
00000000
00000000
,
00000001
00000001
00000010
00000000
00001000
00010000
01000000
00000000
00000000
00000000
00000000
00000000
,
20020000
00000000
00000000
00000000
00000000
00000000
00000000
30030000
,
10000000
00000000
01000000
00000000
00100000
00000000
00000000
01000000
00000000
00000000
00100000
00000000
00010000
00000000
00000000
00000000
,
00100000
00000000
00010000
00000000
00001000
00000000
00000000
00010000
00000000
00000000
00001000
00000000
00000100
00000000
00000000
00000000
,
00000010
00000000
00000100
00000000
00001000
00000000
00000000
00000100
00000000
00000000
00001000
00000000
00010000
00000000
00000000
00000000
,
00001000
00000000
00010000
00000000
00100000
00000000
00000000
00010000
00000000
00000000
00100000
00000000
01000000
00000000
00000000
00000000
,
10000000
00000000
01000000
00000000
00100000
00000000
00000000
01000000
00000000
00000000
00100000
00000000
00010000
00000000
00000000
00000000
,
00001000
00000000
00000100
00000000
00000010
00000000
00000000
00000100
00000000
00000000
00000010
00000000
00000001
00000000
00000000
00000000
,
00001000
00000000
00000100
00000000
00000010
00000000
00000000
00000100
00000000
00000000
00010000
00000000
00001000
00000000
00000000
00000000
,
00011000
00000000
00000000
00001000
00000000
00000000
00011000
00000000
00000000
00000000
00000000
00000000
00000000
00000000
00000000
00000000
,
00000000
00000000
00000000
00000000
;
#NOTES:
     dance-double:
     :
     Hard:
     15:
     :
00000000
00000000
00000000
00000000
,
00000000
00000000
00000000
00000000
,
00000000
00000000
00000000
00000000
,
00000000
00000000
00000000
00000000
,
00000000
00000000
00000000
00000000
,
10000000
00000000
01000000
00000000
00100000
00010000
00000000
00020000
00000000
00000000
00130000
00000000
00001000
00000000
00000000
00000000
,
00010000
00000000
00001000
00000000
00000100
00000010
00000000
00000200
00000000
00000000
00001300
00000000
00010000
00000000
00001000
00000000
,
00010000
00000000
00100000
00000000
01000000
10000000
00000000
20000000
00000000
00000000
31000000
00000000
00001000
00000000
00000000
00000000
,
00020000
00000000
00000000
00001000
00000000
00001000
00000000
00031000
00000000
00000000
00000000
00000000
00000000
00000000
00000000
00000000
,
00010000
00000000
00001000
00000010
00000000
00000100
00000000
00001000
00000000
00000100
00000000
00000000
00010000
00000000
00001000
00000000
,
00100000
00000000
00010000
10000000
00000000
01000000
00000000
00100000
00000000
00000000
00001000
00000000
00010000
00000000
00000000
00000000
,
00000000
00000000
00010000
00001000
00000000
00010000
00000000
00001000
00000000
00000010
00000001
00000010
00000000
00000000
00000001
00000000
,
00000010
00000000
00000100
00001000
00000000
00000100
00000000
00000010
00000000
00000000
00000001
00000000
00001000
00000000
00000000
00000000
,
00000001
00000000
00000010
00000100
00000000
00010000
00000000
00001000
00000000
00000100
00000000
00000000
00000001
00000100
00000001
00000000
,
00000010
00000000
00000100
00001000
00000000
00000100
00000000
00010000
00000000
00001000
00000000
00100000
00000000
00000000
01000000
00000000
,
00000000
00000000
10000000
01000000
00000000
00100000
00000000
00001000
00000000
00010000
00001000
00010000
00000000
00000000
00000100
00000000
,
00000010
00000000
00000100
00000010
00000000
00000100
00000000
00010000
00000000
00000000
00000000
00000000
00000000
00000000
00000000
00010000
,
00000000
00001000
00100000
00000000
00010000
00000000
00100000
00000000
01000000
00000000
10000000
01000000
00000000
00100000
00000000
01000000
,
00000000
00000000
00010000
00000000
00010000
00001000
00000000
00010000
00000000
00000000
00010000
00000000
00000100
00001000
00000100
00001000
,
00000000
00000001
00000010
00000000
00000100
00000000
00000000
00000000
00000100
00000000
00000010
00000001
00000000
00001000
00000100
00001000
,
00000000
00000000
00000010
00000000
00010000
00001000
00000000
01000000
00000000
00000000
00010000
00000000
10000000
01000000
10000000
01000000
,
00000000
00100000
00010000
00000000
00100000
00000000
00001000
00000000
00100000
00000000
00001000
00010000
00000000
00000100
00000000
00000010
,
00000000
00000000
00000001
00000000
00000010
00000100
00000000
00001000
00000000
00000000
00000100
00000000
00010000
00001000
00010000
00001000
,
00000000
00001000
00100000
00000000
01000000
00000000
00000000
00000000
10000000
00000000
01000000
00100000
00000000
00100000
01000000
00100000
,
00000000
00000000
00010000
00000000
00100000
00001000
00000000
00010000
00000000
00000000
00000000
00000000
00000100
00000000
00000000
00000000
,
00000000
00001000
00000001
00000000
00000100
00000000
00000010
00000000
00001000
00000000
00000001
00000100
00000000
00000001
00000000
00001000
,
00000000
00000100
00001000
00000100
00010000
00000100
00001000
00000100
00000010
00000000
00001000
00010000
00000000
00001000
00000000
00010000
,
00000000
00001000
00010000
00001000
00100000
00001000
00010000
00001000
00000100
00001000
00010000
00001000
00010000
00000100
00010000
00001000
,
00000000
00100000
00010000
00100000
00001000
00010000
00001000
00010000
00000010
00001000
00000010
00001000
00000001
00000100
00000001
00000100
,
00000010
00000000
00010000
00001000
00000100
00001000
00010000
00001000
00000100
00001000
00010000
00001000
00010000
00001000
00100000
00001000
,
00010000
00000000
00000100
00000000
00010000
00000000
00001000
01000000
00000000
00100000
10000000
01000000
10000000
00100000
10000000
01000000
,
00100000
00000000
00000000
00000000
00000000
00001000
00010000
00000000
00000000
00000000
00000000
00000100
00000010
00000000
00000000
00000000
00000000
00000001
00001000
00000000
00000000
00000000
00000000
00000010
,
00000200
00000000
00000000
00000301
00000000
00000000
00000000
00000000
,
00001000
00000000
00000100
00000010
00000000
00000001
00000000
00000010
00000000
00000001
00000010
00000000
00000010
00000001
00000000
00000000
,
00000001
00000000
00000010
00000100
00000000
00000100
00000000
00001000
00000000
00000100
00010000
00000100
00000000
00000000
00000000
00000000
,
00010000
00000000
00001000
00100000
00000000
00010000
00000000
10000000
00000000
00010000
01000000
00000000
01000000
00010000
00000000
00000000
,
10000000
00000000
01000000
00100000
00000000
01000000
00000000
01000000
00000000
00000000
10000000
00000000
01000000
00000000
00100000
00000000
,
00010000
00000000
00001000
00000100
00000000
00000010
00000000
00000001
00000000
00000010
00000100
00000000
00000100
00000010
00000000
00000000
,
00000001
00000000
00001000
00000001
00000000
00001000
00000000
00000010
00000000
00010000
00001000
00010000
00000100
00000000
00010000
00001000
,
00100000
00000000
00010000
01000000
00000000
00100000
00000000
10000000
00000000
01000000
00100000
00000000
00100000
01000000
00000000
00000000
,
10000000
00000000
00100000
01000000
00000000
00100000
00000000
01000000
00000000
00001000
00010000
00001000
00010000
00000000
00001000
00000100
,
00001000
00000000
00000000
00000000
00000000
00000100
00000001
00000000
00000000
00000000
00000000
00000010
00001000
00000000
00000000
00010000
00000000
00000000
00011000
00000000
00000000
00000000
00000000
00000000
,
00010000
00000000
00100000
01000000
00000000
00001000
00010000
00001000
00000000
00000000
00010000
00000100
00000000
00000000
00000010
00000000
,
00000001
00000000
00000100
00001000
00000000
00001000
00000000
00010000
00000000
00010000
00000000
00100000
00000000
00000000
10000000
00000000
,
00010000
00000000
00100000
00001000
00000000
00010000
00001000
00010000
00000000
00001000
00100000
00001000
00100000
00000000
00010000
00000000
,
00100000
00010000
00001000
00000100
00000000
00000010
00000000
00001001
00000000
00001001
00000000
00001001
00000000
00000000
00000000
00000000
,
00000001
00000000
00000010
00000100
00000000
00001000
00000100
00010000
00001000
00000000
00100000
00010000
00100000
00000000
01000000
00000000
,
10000000
00000000
01000000
00100000
00000000
00100000
00000000
00010000
00000000
00010000
00000000
00001000
00000000
00000000
00010000
00000000
,
00100000
00000000
01000000
00100000
00000000
00001000
00010000
00000100
00001000
00000000
00000010
00000100
00000010
00000000
00001000
00000000
,
00000010
00000100
00001000
00010000
00000000
00001000
00000000
00011000
00000000
00011000
00000000
00011000
00000000
00000000
00000000
00000000
,
00010000
00000000
00001000
00000100
00000001
00000010
00001000
00010000
01000000
00000000
00000000
00000000
10000000
00000000
01000000
00100000
,
01000000
10000000
01000000
00010000
00000000
00001000
00010000
00001000
00000000
00000010
00000100
00000010
00000000
00000001
00000100
00000001
,
00000100
00000000
00001000
00000000
00010000
00000000
00100000
00010000
00000000
00001000
00010000
00001000
00000100
00001000
00010000
00001000
,
00000010
00000000
00000001
00000100
00000000
00001000
00010000
00001000
00000000
00010000
00000000
00001000
00000000
00000000
00000000
00000000
,
00011000
00000000
00000000
00000000
00010000
00000000
00001000
00000000
00100000
00000000
00010000
00000000
10000000
00010000
00000000
00000000
,
10010000
00000000
10000000
00010000
10000000
00010000
00000000
00010000
00100000
00000000
00001000
00000000
00010000
00000000
00000000
00000000
,
00011000
00000000
00000000
00001000
00000000
00000100
00000000
00000001
00000010
00000000
00000100
00000000
00000000
00000010
00000000
00000000
,
00000010
00000010
00001001
00000000
00000100
00000100
00001001
00000000
00000000
00000000
00000000
00000000
,
00000001
00000000
00001000
00000100
00001000
00000100
00001000
00000100
00000000
00010000
00001000
00000000
00100000
00010000
01000000
00000000
,
00100000
00000000
00010000
00000000
00001000
00010000
00000000
00010000
00001000
00000000
00000100
00000000
00000210
00000000
00000000
00000000
,
00000301
00000000
00000010
00000000
00000100
00001000
00000000
00001000
00000100
00000000
00010000
00000000
00001000
00000000
00100000
00000000
,
00010000
00000000
10000000
00000000
00100000
01000000
00000000
01000000
00100000
00000000
00010000
00000000
00012000
00000000
00000000
00000000
,
00003010
00000000
00000100
00000000
00010000
00001000
00000000
00001000
00000100
00000000
00000001
00000000
00000010
00000000
00000000
00000000
,
00001000
00000000
00010000
00000000
00100000
10000000
00000000
00100000
10000000
00000000
01000000
00000000
00020000
00000000
00000000
00000000
,
00031000
00000000
00000010
00000000
00000001
00000100
00000000
00000001
00000100
00000000
00001000
00000000
00010000
00000000
00100000
00000000
,
01000000
00000000
10000000
00000000
01000000
00010000
00000000
01000000
00010000
00000000
00100000
00000000
00001000
00000000
00010000
00000000
,
00011000
00000000
00000000
00011000
00000000
00000000
00011000
00000000
00000000
00000000
00000000
00000000
00000000
00000000
00000000
00000000
,
00000000
00000000
00000000
00000000
;
