
//----- song ID: unry -----//
#TITLE:Unreality;
#ARTIST:sky_delta;
#BANNER:Unreality.png;
#BACKGROUND:Unreality-bg.png;
#CDTITLE:./CDTitles/DDR A3.png;
#MUSIC:Unreality.ogg;
#SAMPLESTART:77.242;
#SAMPLELENGTH:15;
#DISPLAYBPM:174;
#BPMS:0=174,34=348,34.5=174,70=348,70.5=174,78=348,78.5=174,86=348,86.5=174,94=348,94.5=174;
#STOPS:34=0.086,70=0.086,78=0.086,86=0.086,94=0.086;
#STAGE:3;
#NOTES:
     dance-single:
     :
     Beginner:
     2:
     :
0000
0000
0000
0000
,
0000
0000
0000
0000
,
0000
0000
0000
0000
,
0000
0000
0000
0000
,
0000
0000
0000
0000
,
1000
0000
0000
0000
,
0100
0000
0000
0000
,
0010
0000
0000
0000
,
0010
0000
0000
0000
,
0001
0000
0000
0000
,
0001
0000
0000
0000
,
0001
0000
0000
0000
,
0000
0000
0000
0000
,
0010
0000
0000
0000
,
0010
0000
0000
0000
,
0010
0000
0000
0000
,
0000
0000
0000
0000
,
0100
0000
0000
0000
,
0100
0000
0000
0000
,
1000
0000
0000
0000
,
1000
0000
0000
0000
,
0010
0000
0000
0000
,
0010
0000
0000
0000
,
0001
0000
0000
0000
,
0001
0000
0000
0000
,
0002
0000
0000
0000
,
0003
0000
0000
0000
,
0001
0000
0001
0000
,
0100
0000
0000
0000
,
0010
0000
0000
0000
,
0010
0000
0000
0000
,
0100
0000
0100
0000
,
1000
0000
0000
0000
,
1001
0000
0000
0000
,
0000
0000
0000
0000
,
1000
0000
0010
0000
,
1000
0000
0000
0000
,
1001
0000
0000
0000
,
0000
0000
0000
0000
,
0001
0000
0010
0000
,
0001
0000
0000
0000
,
0002
0000
0000
0000
,
0003
0000
0000
0000
,
0020
0000
0000
0000
,
0030
0000
0000
0000
,
0200
0000
0000
0000
,
0300
0000
0000
0000
,
2000
0000
0000
0000
,
3000
0000
0000
0000
,
1000
0000
1000
0000
,
0010
0000
0000
0000
,
0100
0000
0000
0000
,
0000
0000
0000
0000
,
0001
0000
0001
0000
,
0010
0000
0000
0000
,
0100
0000
0000
0000
,
0000
0000
0000
0000
,
0001
0000
0100
0000
,
1000
0000
0000
0000
,
1000
0000
0000
0000
,
0000
0000
0000
0000
,
1000
0000
0100
0000
,
0001
0000
0000
0000
,
0001
0000
0000
0000
,
0000
0000
0000
0000
,
0100
0000
0100
0000
,
0001
0000
0000
0000
,
1000
0000
0000
0000
,
0000
0000
0000
0000
,
0100
0000
0100
0000
,
1000
0000
0000
0000
,
0001
0000
0000
0000
,
0000
0000
0000
0000
,
1001
0000
0000
0000
,
0000
0000
0000
0000
,
0010
0000
0000
0000
,
0000
0000
0000
0000
,
0100
0000
0000
0000
,
0000
0000
0000
0000
,
1001
0000
0000
0000
,
0000
0000
0000
0000
;
#NOTES:
     dance-single:
     :
     Easy:
     6:
     :
0000
0000
0000
0000
,
0000
0000
0000
0000
,
0000
0000
0000
0000
,
0000
0000
0000
0000
,
0000
0000
0000
0000
,
1000
0010
1000
0000
,
0001
0010
0001
0000
,
1000
0001
1000
0001
,
1000
0000
0000
0000
2002
3003
0000
0000
,
1000
1000
0100
0000
,
1000
0010
0100
0001
,
0010
0010
0001
0000
,
1000
0100
0010
0000
,
0001
0001
0100
0000
,
0001
0010
0001
0000
,
1000
0001
1000
0001
,
1001
0000
0000
0000
,
0010
0000
0010
0000
2002
3003
0000
0000
,
0001
0000
1000
0000
,
0010
0000
0010
0000
2002
3003
0000
0000
,
1000
0000
0001
0000
,
0100
0000
0100
0000
0220
0330
0000
0000
,
0001
0000
1000
0000
,
0010
0000
0010
0000
0220
0330
0000
0000
,
1000
0000
0001
0000
,
1000
1000
1000
0000
,
0001
0001
0001
0000
,
1000
0100
1000
0100
,
0010
0001
0010
0000
,
0001
0100
0010
0100
,
0001
1000
0001
0000
,
1000
0000
0001
0000
,
1000
0001
1001
0000
,
2000
0000
3000
0000
,
1000
0010
0100
0000
,
0002
0000
0003
0000
,
0001
0010
0100
0000
,
1000
1000
1000
0000
,
0001
0001
0001
0000
,
1000
0000
0001
0000
,
1000
0001
1001
0000
,
0020
0000
0000
0000
,
0030
0000
0000
0000
,
0200
0000
0000
0000
,
0300
0000
0000
0000
,
2000
0000
0000
0000
,
3000
0000
0000
0000
,
0002
0000
0000
0000
,
0003
0000
0000
0000
,
0001
0000
0100
0000
,
0001
0100
0001
0000
,
1000
0000
0010
0000
,
1000
0010
1000
0000
,
0001
0100
0010
0000
,
1000
0100
0010
0000
,
0001
1000
0001
1000
,
0001
0000
0000
0000
,
0001
0001
0100
0000
,
0010
1000
0100
0000
,
1000
1000
0001
0000
,
0010
0100
0010
0000
,
0001
0001
1000
0000
,
0100
1000
0010
0000
,
0100
0100
0010
0000
,
0110
0000
1001
0000
,
2000
0000
0000
3000
,
0100
0000
0010
0000
,
0001
0000
1000
0000
,
0000
0000
0000
1000
,
0002
0000
0000
0003
,
0001
0000
0100
0000
,
0010
0000
0000
0000
,
1000
0100
0010
0001
,
2000
0000
0000
0000
,
3000
0000
0000
0000
,
0002
0000
0000
0000
,
0003
0000
0000
0000
,
0100
0000
0100
0000
,
0010
0010
0010
0000
,
1001
0000
0000
0000
,
0000
0000
0000
0000
;
#NOTES:
     dance-single:
     :
     Medium:
     11:
     :
0000
0000
0000
0000
,
0000
0000
0000
0000
,
0000
0000
0000
0000
,
0000
0000
0000
0000
,
0000
0000
0000
0000
,
0001
0000
0100
0000
0010
1000
0010
0000
,
1000
0000
0100
0000
0010
0001
0010
0000
,
0001
1000
0001
0000
1000
0001
1000
0000
,
0010
0000
0000
0000
0100
0100
0000
0000
,
0001
0100
0001
1000
0010
1000
0010
0000
,
1000
1100
0001
0101
,
1000
0100
1000
0001
0010
0001
0010
0000
,
0001
0101
1000
1100
,
0001
0100
0001
0100
0001
0100
0001
0000
,
1000
0010
1000
0010
1000
0010
1000
0000
,
0001
1000
0001
1000
0001
1000
0001
1000
,
0002
0000
0000
0003
,
0001
1000
0100
1000
0000
0010
0010
0000
,
1000
0000
0001
0000
0100
0010
0100
0000
,
0001
1000
0010
1000
0000
0100
0100
0000
,
2000
3200
0320
0032
,
1003
0001
0100
0001
0000
0010
0010
0000
,
0001
0000
1000
0000
0100
0010
0100
0000
,
1000
0001
0010
0001
0000
0100
0100
0000
,
0001
0100
0010
0000
1000
0100
0010
0000
,
0000
0001
0000
0001
0001
0000
0000
1000
,
0000
1000
1000
1000
0010
0100
0010
0000
,
1000
0000
0100
0000
0001
0100
1000
0000
,
0100
0010
0011
1100
,
0001
0000
0100
0000
1000
0100
0001
0000
,
1000
0000
0010
0000
1000
0001
1000
0000
,
0100
0010
0100
0000
0010
0100
0010
0000
,
0001
1000
0001
1000
0002
0000
0003
0000
,
1000
0000
1000
0000
1000
0100
0010
0000
,
0001
0000
0001
0000
0001
0100
0010
0000
,
1000
0000
1000
0000
1000
0010
0100
0000
,
0001
0000
0001
0000
0001
0010
0100
0000
,
1000
0100
0010
0001
0000
0000
,
0001
0100
0010
1000
0000
0000
,
1000
1000
1000
0001
0001
0001
,
0100
0010
0100
0110
0000
0000
,
2000
0000
0000
0000
,
3200
0000
0000
0000
,
0320
0000
0000
0000
,
0000
0000
0000
0030
,
0002
0000
0000
0000
,
0203
0000
0000
0000
,
0320
0000
0000
0000
,
2030
0000
0000
0000
,
3001
0000
0000
0001
0000
0000
0001
0000
0000
0000
0000
0000
0000
0000
0000
0000
,
1000
0000
0000
1000
0000
0000
1000
0000
0010
0000
0000
0000
1001
0000
0000
0000
,
0100
0000
0000
0100
0000
0000
0100
0000
0000
0000
0000
0000
0000
0000
0000
0000
,
0010
0000
0000
0010
0000
0000
0010
0000
0100
0000
0000
0000
1001
0000
0000
0000
,
0001
0100
0010
1000
0010
0100
0001
0000
,
1000
0100
0010
0001
0010
0100
1000
0000
,
0001
0100
0001
0100
0010
1000
0010
1000
,
0020
0000
0030
0000
,
1000
0010
0000
0000
1000
0000
0000
0100
0000
0000
0010
0000
0010
0000
0000
0000
,
0001
0100
0001
0010
0001
1000
0100
0000
,
1000
0100
0000
0000
1000
0000
0000
0010
0000
0000
0100
0000
0100
0000
0000
0000
,
0001
0010
0001
0100
0001
1000
0010
0000
,
0100
0001
0000
0000
0010
0000
0000
0100
0000
0000
0010
0000
0010
0000
0000
0000
,
0001
0100
0010
1000
0100
1000
0001
0000
,
0010
0001
0000
0000
0100
0000
0000
0010
0000
0000
0100
0000
0100
0000
0001
0000
,
0000
0000
1001
0000
0000
1001
0000
0000
1000
0000
0100
0000
0010
0000
0000
0000
,
0001
1000
0001
1000
0100
1000
0100
0000
,
0010
0100
0010
0100
1000
0001
1000
0000
,
0010
0100
0010
0100
0010
1000
0010
0000
,
0100
0001
0100
0001
0010
0001
0010
0000
,
0001
0101
0000
1100
,
0010
1010
0000
0011
,
2000
0010
3002
0010
,
1003
0100
0010
0001
1000
0100
0010
0001
,
2000
0000
0000
0000
,
0000
0000
0000
3000
,
0002
0000
0000
0000
,
0000
0000
0000
0003
,
0200
0000
0000
0300
,
0001
0010
1000
0010
0001
1000
0001
0000
,
1001
0000
0000
0000
,
0000
0000
0000
0000
;
#NOTES:
     dance-single:
     :
     Hard:
     14:
     :
0000
0000
0000
0000
,
0000
0000
0000
0000
,
0000
0000
0000
0000
,
0000
0000
0000
0000
,
0000
0000
0000
0000
,
0001
1000
0001
1000
0100
0010
0001
0000
,
1000
0001
1000
0001
0100
0010
1000
0000
,
0001
0010
0100
1000
0001
0010
0100
1000
,
0020
0000
0030
0000
0100
1001
0000
0000
,
1000
0000
0010
0000
0100
0000
0001
1000
0000
0000
0001
0000
0100
0000
0000
0000
,
0001
0000
0010
0000
0100
0000
1000
0001
0000
0000
1000
0000
0010
0000
0000
0000
,
0100
0000
0010
0000
1000
0000
0001
0010
0000
0000
0001
0000
0100
0000
0000
0000
,
0010
0000
0100
0000
0001
0000
1000
0010
0000
0000
1000
0000
0100
0000
0000
0000
,
1000
0010
1000
0010
1000
0010
0100
0001
,
0010
0001
0010
0001
0010
0001
0100
0010
,
1000
0100
1000
0000
0001
0000
0100
0000
0010
1000
0010
0000
0100
0000
0001
0000
,
0020
0000
0000
0000
0000
0000
0000
0000
0130
0000
1000
0001
1000
0000
0000
0000
,
0001
0000
0100
0000
0010
0000
1000
0001
0000
0000
1000
0000
1000
0000
0000
0000
,
0001
0100
0001
0000
0010
0000
0100
1000
0000
0001
1000
0000
0100
0000
0010
0000
,
0001
0000
1000
0000
0001
0000
0100
0010
0000
0000
1000
0000
1000
0000
0000
0000
,
0100
1000
0100
0000
0010
0000
0001
0000
1000
0000
0010
0100
0001
0100
0001
0000
,
1000
0000
0010
0000
0100
0000
0001
1000
0000
0000
0001
0000
0001
0000
0000
0000
,
1000
0100
0001
0100
1000
0010
0001
0010
,
1000
0000
0001
0000
1000
0000
0010
0100
0000
0000
0001
0000
0001
0000
0000
0000
,
0010
0001
0010
0000
0100
0000
1000
0000
0001
0000
0100
0010
1000
0010
1000
0000
,
0001
1000
0010
1000
1000
0010
0100
0001
,
1000
0000
0001
0000
0001
0000
0001
0000
0001
0000
0100
0010
1000
0000
0001
0000
,
1000
0001
0010
0001
0001
0010
0100
1000
,
0001
0000
0100
0000
0010
0000
1000
0001
0000
1000
0001
0000
0100
0010
0100
0000
,
0001
0000
0010
0000
0100
0000
1000
0010
0000
1000
0010
0000
1000
0100
1000
0000
,
0100
0000
0010
0000
0001
0000
0100
0001
0000
0100
0001
0000
0010
0001
0010
0000
,
0001
0100
0010
0000
0001
0100
0010
0000
,
0001
0000
0100
0010
1000
0000
0100
0010
0002
0000
0000
0000
0003
0000
0000
0000
,
1000
0100
0000
0010
0100
0000
0010
0001
0000
0000
1000
0000
1000
0000
0000
0000
,
0001
0100
0000
0010
0100
0000
0010
1000
0000
0000
0001
0000
0001
0000
0000
0000
,
1000
0010
0000
0100
0010
0000
0100
0001
0000
0000
1000
0000
1000
0000
0000
0000
,
0001
0010
0000
0100
0010
0000
0100
1000
0000
0000
0001
0000
0001
0000
0000
0000
,
1000
0010
1010
0100
0001
0101
,
0001
0010
0011
0100
1000
1100
,
1000
0101
1100
0001
1010
0011
,
0110
0000
1001
0000
0110
0000
2002
0000
0000
3003
0000
0000
,
2000
0000
0000
0000
,
3020
0000
0230
0000
,
0302
0000
2003
0000
,
0000
0000
0000
3001
,
0200
0000
0000
0000
,
0320
0000
2030
0000
,
0002
0000
0000
3003
,
0220
0330
2002
3003
,
0001
0000
1000
0010
0000
1000
0010
0000
0000
0000
1000
0000
0100
0010
0000
0100
,
0010
0000
0001
1000
0000
0001
1000
0000
0010
0000
0100
0001
0000
0100
0001
0000
,
0100
0000
0001
0010
0000
0001
0010
0000
0000
0000
0001
0000
1000
0001
0000
1000
,
0001
0000
1000
0100
0000
1000
0100
0000
1000
0000
0010
0000
0110
0000
0000
0000
,
0001
0010
1000
0010
0001
0010
1000
0010
,
0001
0100
1000
0100
0001
0100
1000
0100
,
0001
0100
0001
0000
1000
0000
0010
0000
1000
0100
1000
0000
0001
0000
0010
0000
,
0110
0000
0000
0000
0000
0000
0000
0000
1000
0000
1000
0001
1000
0000
0000
0000
,
0001
1000
0000
0100
1000
0000
0001
1000
0000
0100
1000
0000
0010
0000
0100
0000
,
0001
0010
0000
0010
0100
0000
0100
1000
0000
1000
0001
0000
0100
0000
0010
0000
,
1000
0100
0000
1000
0001
0000
1000
0100
0000
1000
0001
0000
1000
0000
0010
0000
,
1000
0100
0000
0100
0010
0000
0010
0001
0000
0001
1000
0000
0010
0000
0100
0000
,
0001
0100
0000
0010
0100
0000
0001
0010
0000
0100
0010
0000
0001
0000
1000
0000
,
0010
1000
0000
1000
0100
0000
0100
0010
0000
0010
0001
0000
1000
0000
0001
0000
,
1000
0100
0000
0010
0100
0000
1000
0010
0000
0100
0010
0000
1000
0000
0001
0000
,
0000
0000
0011
0000
0000
0110
0000
0000
1001
0000
0000
0000
0001
0000
1000
0000
,
1001
0000
0000
0000
0110
0000
0000
1000
0010
0000
0100
0000
0001
0000
0010
0000
,
0110
0000
0000
0000
1001
0000
0000
0001
0010
0000
0100
0000
1000
0000
0010
0000
,
1010
0000
0000
0000
0101
0000
0000
1000
0100
0000
0010
0000
0001
0000
1000
0000
,
1100
0000
0000
0000
0011
0000
0000
1000
0010
0000
0100
0000
0001
0000
0010
0000
,
0001
1000
0000
0100
1000
0000
0100
1000
0000
0000
0010
0000
0010
0000
0010
0000
,
1000
0001
0000
0100
0001
0000
0100
0001
0000
0000
0010
0000
0010
0000
0010
0000
,
0001
1000
0000
0010
0100
0000
0010
1000
0000
0000
0001
0000
0001
0000
0001
0000
,
1000
0100
0010
0000
0001
0000
1000
0000
0001
0100
0010
0000
1000
0000
0001
0000
,
2000
0000
0010
0000
0000
0010
0000
0000
,
0100
0000
0000
0100
0000
0000
3100
0000
,
0002
0000
0010
0000
0000
0010
0000
0000
,
0100
0000
0000
0100
0000
0000
0103
0000
,
0001
0010
0100
0010
0100
1000
0010
0100
,
0010
1000
0100
0010
0100
0010
0001
1000
,
1001
0000
0000
0000
,
0000
0000
0000
0000
;
#NOTES:
     dance-double:
     :
     Easy:
     6:
     :
00000000
00000000
00000000
00000000
,
00000000
00000000
00000000
00000000
,
00000000
00000000
00000000
00000000
,
00000000
00000000
00000000
00000000
,
00000000
00000000
00000000
00000000
,
10000000
01000000
10000000
00000000
,
00010000
00100000
00010000
00000000
,
00100000
00001000
00010000
00001000
,
00010000
00000000
00000000
00000000
00022000
00033000
00000000
00000000
,
00010000
00000100
00001000
00000000
,
00001000
00000100
00000010
00000100
,
00001000
00000001
00001000
00000000
,
00001000
00000100
00010000
00001000
,
00100000
00100000
00010000
00000000
,
01000000
01000000
00010000
00000000
,
10000000
00010000
10000000
00010000
,
10010000
00000000
00000000
00000000
,
10000000
00000000
10000000
00000000
02000000
03000000
00000000
00000000
,
00100000
00000000
00001000
00000000
,
00010000
00000000
00010000
00000000
00002000
00003000
00000000
00000000
,
00010000
00000000
00000010
00000000
,
00001000
00000000
00001000
00000000
00000002
00000003
00000000
00000000
,
00000010
00000000
00000100
00000000
,
00001000
00000000
00001000
00000000
00000200
00000300
00000000
00000000
,
00010000
00000000
00001000
00000000
,
00010000
00010000
00010000
00000000
,
00001000
00001000
00001000
00000000
,
00100000
00010000
00100000
00010000
,
01000000
00100000
01000000
00000000
,
00100000
10000000
01000000
00000000
,
00100000
00010000
01000000
00000000
,
00001000
00000000
00010000
00000000
,
00001000
00010000
00011000
00000000
,
00002000
00000000
00003000
00000000
,
00000010
00000000
00000001
00000000
,
00002000
00000000
00003000
00000000
,
00000100
00000000
00010000
00000000
,
00001000
00001000
00001000
00000000
,
00010000
00010000
00010000
00000000
,
00001000
00000000
00010000
00000000
,
00001000
00010000
00011000
00000000
,
00200000
00000000
00000000
00000000
,
00300000
00000000
00000000
00000000
,
00020000
00000000
00000000
00000000
,
00030000
00000000
00000000
00000000
,
00002000
00000000
00000000
00000000
,
00003000
00000000
00000000
00000000
,
00000200
00000000
00000000
00000000
,
00000300
00000000
00000000
00000000
,
00000001
00000000
00000100
00000000
,
00000001
00000100
00000001
00000000
,
00001000
00000000
00000010
00000000
,
00001000
00000010
00001000
00000000
,
00010000
00000000
01000000
00000000
,
00010000
01000000
00010000
00000000
,
10000000
00000000
00100000
00000000
,
10000000
00000000
00000000
00000000
,
10000000
01000000
00100000
00000000
,
00100000
00001000
00010000
00000000
,
00001000
00010000
00000100
00000000
,
00000100
00001000
00000010
00000000
,
00000100
00000001
00000010
00000000
,
00000010
00000100
00001000
00000000
,
00001000
00000100
00010000
00000000
,
00001000
00100000
00010000
00000000
,
02000000
00000000
00000000
03000000
,
00010000
00000000
00100000
00000000
,
00001000
00000000
00010000
00000000
,
00000000
00000000
00000000
00010000
,
00000200
00000000
00000000
00000300
,
00000100
00000000
00001000
00000000
,
00000010
00000000
00000000
00000000
,
00010000
00001000
00100000
00010000
,
20000000
00000000
00000000
00000000
,
30000000
00000000
00000000
00000000
,
00020000
00000000
00000000
00000000
,
00030000
00000000
00000000
00000000
,
00001000
00000000
00000000
00000000
,
00000001
00000000
00000000
00000000
,
00001001
00000000
00000000
00000000
,
00000000
00000000
00000000
00000000
;
#NOTES:
     dance-double:
     :
     Medium:
     11:
     :
00000000
00000000
00000000
00000000
,
00000000
00000000
00000000
00000000
,
00000000
00000000
00000000
00000000
,
00000000
00000000
00000000
00000000
,
00000000
00000000
00000000
00000000
,
10000000
00000000
00010000
00000000
00100000
01000000
00100000
00000000
,
00010000
00000000
00100000
00000000
00001000
00010000
00001000
00000000
,
00010000
00000100
00001000
00000000
00000100
00000010
00000100
00000000
,
00000010
00000000
00000000
00000000
00000001
00001000
00000000
00000000
,
00000001
00000100
00000001
00000100
00000001
00000010
00000001
00000000
,
00001000
00000000
00000100
00000000
00010000
00001000
00010000
00000000
,
00001000
00100000
00001000
00100000
00010000
00100000
00010000
00000000
,
01000000
00000000
00010000
00000000
00100000
01000000
00100000
00000000
,
00010000
10000000
01000000
00000000
00100000
00010000
01000000
00000000
,
00100000
01000000
00001000
00000000
00010000
00001000
00010000
00000000
,
00000100
00001000
00000100
00001000
00000100
00000010
00000001
00000000
,
00002002
00000000
00000000
00003003
,
00000001
00000100
00000001
00000100
00000000
00000010
00001000
00000000
,
00000100
00000000
00000010
00000000
00000100
00001000
00000100
00000000
,
00010000
00001000
00010000
00001000
00000000
00100000
00010000
00000000
,
02000000
03200000
20300000
30020000
,
10030000
01000000
10000000
01000000
00000000
00100000
00010000
00000000
,
01000000
00000000
00100000
00000000
01000000
00010000
01000000
00000000
,
00001000
00010000
00001000
00010000
00000000
00000010
00001000
00000000
,
00000001
00000100
00000001
00000000
00000010
00000001
00000010
00000000
,
00000000
00000100
00000000
00000100
00000100
00000000
00000000
00010000
,
00000000
00001000
00001000
00001000
00010000
00001000
00010000
00000000
,
00001000
00000000
01000000
00000000
00010000
00100000
00010000
00000000
,
10000000
01000000
01100000
00101000
,
00001000
00000000
00010000
00000000
00000010
00001000
00000010
00000000
,
00000100
00000000
00000001
00000000
00000010
00000100
00000010
00000000
,
00000001
00001000
00000100
00000000
00010000
00001000
01000000
00000000
,
00010000
10000000
00010000
10000000
00020000
00000000
00030000
00000000
,
10000000
00000000
00100000
00000000
00010000
00001000
00010000
00000000
,
00001000
00000010
00000100
00001000
,
00000001
00000000
00000100
00000000
00001000
00010000
00001000
00000000
,
00010000
00100000
01000000
00010000
,
10000000
01000000
10000000
01000000
00000000
00000000
,
00100000
00010000
00100000
00010000
00000000
00000000
,
00001000
00000100
00001000
00000100
00001000
00000100
,
00000010
00000001
00000010
00000011
00000000
00000000
,
00000002
00000000
00000000
00000000
,
00002003
00000000
00000000
00000000
,
00003200
00000000
00000000
00000000
,
00020300
00000000
00000000
00000000
,
00032000
00000000
00000000
00000000
,
00203000
00000000
00000000
00000000
,
00320000
00000000
00000000
00000000
,
02030000
00000000
00000000
00000000
,
03010000
00000000
00000000
00010000
00000000
00000000
00010000
00000000
00000000
00000000
00000000
00000000
00000000
00000000
00000000
00000000
,
10000000
00000000
00000000
10000000
00000000
00000000
10000000
00000000
00100000
00000000
00000000
00000000
01100000
00000000
00000000
00000000
,
01000000
00000000
00000000
01000000
00000000
00000000
01000000
00000000
00000000
00000000
00000000
00000000
00000000
00000000
00000000
00000000
,
00001000
00000000
00000000
00001000
00000000
00000000
00001000
00000000
00010000
00000000
00000000
00000000
00011000
00000000
00000000
00000000
,
00001000
00010000
00000100
00001000
00000010
00000100
00000001
00000000
,
00000010
00000001
00000100
00000010
00001000
00000100
00010000
00000000
,
00001000
00100000
00010000
01000000
00100000
10000000
01000000
00100000
,
00020000
00000000
00030000
00000000
,
10000000
00010000
00000000
00000000
10000000
00000000
00000000
01000000
00000000
00000000
00100000
00000000
00100000
00000000
00000000
00000000
,
00001000
00010000
00001000
00000010
00000100
00000010
00000001
00000000
,
00000100
00000010
00000000
00000000
00000100
00000000
00000000
00000001
00000000
00000000
00001000
00000000
00001000
00000000
00000000
00000000
,
00000001
00000100
00000010
00000100
00001000
00010000
00001000
00000000
,
01000000
00010000
00000000
00000000
00100000
00000000
00000000
01000000
00000000
00000000
10000000
00000000
10000000
00000000
00000000
00000000
,
01000000
00010000
00001000
00010000
00001000
00000010
00000001
00000000
,
00000100
00000001
00000000
00000000
00000010
00000000
00000000
00000100
00000000
00000000
00001000
00000000
00000100
00000000
00010000
00000000
,
00000000
00000000
00011000
00000000
00000000
00011000
00000000
00000000
00001000
00000000
00010000
00000000
01000000
00000000
00000000
00000000
,
10000000
00100000
00010000
00100000
10000000
01000000
00010000
00001000
,
00000010
00000100
00000010
00000001
00000100
00000010
00001000
00000000
,
00000001
00000010
00001000
00000010
00000001
00000100
00001000
00010000
,
00100000
01000000
00100000
10000000
01000000
00100000
00010000
00000000
,
00100000
00101000
00000000
00010010
,
00000100
00010100
00000000
01001000
,
00100000
00101000
00000000
00011000
,
00001000
00000100
00000010
00010000
00001000
01000000
00100000
00010000
,
00002000
00000000
00000000
00000000
,
00000000
00000000
00000000
00003000
,
00020000
00000000
00000000
00000000
,
00000000
00000000
00000000
00030000
,
00002000
00000000
00000000
00003000
,
00010000
00100000
00010000
00001000
00000010
00001000
00010000
00000000
,
00011000
00000000
00000000
00000000
,
00000000
00000000
00000000
00000000
;
#NOTES:
     dance-double:
     :
     Hard:
     14:
     :
00000000
00000000
00000000
00000000
,
00000000
00000000
00000000
00000000
,
00000000
00000000
00000000
00000000
,
00000000
00000000
00000000
00000000
,
00000000
00000000
00000000
00000000
,
10000000
01000000
10000000
00100000
01000000
00010000
00100000
00000000
,
01000000
00100000
00010000
00100000
00001000
00010000
00001000
00000000
,
00010000
00000100
00001000
00000100
00000010
00000001
00000100
00000001
,
00000020
00000000
00000030
00000000
00000100
00001001
00000000
00000000
,
00000001
00000000
00000100
00000000
00000010
00000000
00001000
00000100
00000000
00000000
00010000
00000000
00010000
00000000
00000000
00000000
,
00001000
00100000
00010000
01000000
00010000
00100000
01000000
10000000
,
00100000
00000000
01000000
00000000
00010000
00000000
10000000
01000000
00000000
00000000
00100000
00000000
00100000
00000000
00000000
00000000
,
00010000
00100000
01000000
10000000
00100000
00010000
00001000
00000100
,
00000001
00000010
00000001
00000010
00000100
00001000
00000100
00001000
,
00010000
00100000
00010000
00100000
01000000
10000000
01000000
10000000
,
01000000
00010000
00001000
00000010
00000001
00000100
00001000
00010000
,
00200000
00000000
00000000
00000000
00000000
00000000
00000000
00000000
10300000
00010000
10000000
00010000
10000000
00000000
00000000
00000000
,
00010000
00000000
10000000
00000000
00010000
00000000
00100000
01000000
00000000
00000000
00100000
00000000
00200000
00000000
00000000
00000000
,
00301000
00010000
00001000
00000010
00000001
00000100
00000010
00000000
,
00001000
00000000
00000001
00000000
00001000
00000000
00000010
00000100
00000000
00000000
00000010
00000000
00000020
00000000
00000000
00000000
,
00010030
00001000
00010000
00100000
10000000
01000000
00100000
00000000
,
00010000
00000000
01000000
00000000
10000000
00000000
01000000
00010000
00000000
00000000
10000000
00000000
20000000
00000000
00000000
00000000
,
31000000
00100000
00001000
00010000
00000100
00000010
00000001
00000000
,
00001000
00000000
00000100
00000000
00000001
00000000
00000100
00001000
00000000
00000000
00000001
00000000
00000002
00000000
00000000
00000000
,
00000103
00000010
00010000
00001000
01000000
00100000
10000000
00000000
,
00010000
10000000
00100000
01000000
01000000
00001000
00010000
00000100
,
00001000
00000000
00000010
00000000
00000010
00000000
00000100
00000000
00000100
00000000
00000001
00001000
00000001
00000000
00000100
00000000
,
00000001
00000010
00000100
00001000
00001000
00000010
00001000
00000100
,
00010000
00001000
01000000
00010000
00100000
10000000
00100000
00010000
,
10000000
00000000
01000000
00000000
00100000
00000000
00010000
01000000
00000000
00010000
01000000
00000000
00010000
00100000
00010000
00000000
,
00100000
00000000
00001000
00000000
00010000
00000000
00000100
00001000
00000000
00000100
00001000
00000000
00000010
00001000
00000010
00000000
,
00000100
00000000
00000001
00001000
00001010
00000000
00001000
00000001
,
00000010
00001000
00010000
01000000
20000000
00000000
30000000
00000000
,
10000000
01000000
00000000
10000000
01000000
00000000
10000000
01000000
00000000
00000000
00100000
00000000
00100000
00000000
00000000
00000000
,
00010000
10000000
01000000
00010000
00001000
00000010
00000001
00001000
,
00000001
00000100
00000000
00000001
00000100
00000000
00000001
00000100
00000000
00000000
00000010
00000000
00000010
00000000
00000000
00000000
,
00001000
00000001
00000100
00001000
00010000
00100000
10000000
00010000
,
10000000
00100000
00100000
00010000
00001000
00001000
,
00000010
00000001
00000001
00000100
00001000
00001000
,
00010000
01000000
11000000
10000000
00100000
10100000
,
00100000
00000000
00010000
00000000
00001000
00000000
00022000
00000000
00000000
00033000
00000000
00000000
,
00002000
00000000
00000000
00000000
,
00000010
00000000
00023000
00000000
,
00100000
00000000
00032000
00000000
,
00000000
00000000
00000000
00003100
,
00002000
00000000
00000000
00000000
,
00023000
00000000
01000000
00000000
,
00002000
00000000
00000000
00033000
,
02000000
03000000
00200000
00300000
,
10000000
00000000
01000000
00100000
00000000
01000000
00100000
00000000
00000000
00000000
01000000
00000000
00010000
00001000
00000000
00010000
,
00001000
00000000
00000010
00000100
00000000
00000010
00000100
00000000
00000010
00000000
00000001
00001000
00000000
00000001
00001000
00000000
,
00000001
00000000
00000100
00000010
00000000
00000100
00000010
00000000
00000000
00000000
00000100
00000000
00001000
00010000
00000000
00001000
,
00010000
00000000
00100000
01000000
00000000
00100000
01000000
00000000
00100000
00000000
10000000
00000000
10010000
00000000
00000000
00000000
,
10000000
01000000
00010000
01000000
00010000
00001000
00010000
00001000
,
00000010
00001000
00000010
00000001
00000010
00000001
00000100
00000001
,
00000100
00000010
00000100
00000000
00001000
00000000
00010000
00000000
00001000
00100000
00001000
00000000
00010000
00000000
01000000
00000000
,
10000000
00000000
00000000
00000000
00000000
00000000
00000000
00000000
00010000
00000000
00010000
10000000
00010000
00000000
00000000
00000000
,
10000000
01000000
00000000
01000000
00100000
00000000
00100000
00010000
00000000
00010000
10000000
00000000
00100000
00000000
01000000
00000000
,
00010000
10000000
00100000
00010000
00001000
00000100
00000001
00001000
,
00000001
00000010
00000000
00000010
00000100
00000000
00000100
00001000
00000000
00001000
00000001
00000000
00000100
00000000
00000010
00000000
,
00001000
00000001
00000010
00001000
00010000
01000000
10000000
00010000
,
10000000
00010000
00000000
00010000
01000000
00000000
01000000
00100000
00000000
00100000
10000000
00000000
01000000
00000000
00010000
00000000
,
00001000
00000010
00001000
00010000
00001000
00000100
00000001
00001000
,
00000001
00000100
00000000
00000100
00001000
00000000
00001000
00010000
00000000
00010000
00100000
00000000
10000000
00000000
00010000
00000000
,
00000000
00000000
00110000
00000000
00000000
01100000
00000000
00000000
10010000
00000000
00000000
00000000
10000000
00000000
00010000
00000000
,
10000000
00100000
00010000
00100000
01000000
00010000
00100000
00001000
,
00010000
00000100
00000010
00000100
00001000
00000010
00000100
00001000
,
00010000
00001000
00100000
00010000
01000000
00100000
00010000
00001000
,
00100000
00010000
01000000
00001000
00010000
00000100
00001000
00000010
,
00000100
00000010
00000000
00000100
00000010
00000000
00000100
00000010
00000000
00000000
00010000
00000000
00001000
00000000
00010000
00000000
,
01000000
00100000
00000000
01000000
00100000
00000000
01000000
00100000
00000000
00000000
00001000
00000000
00010000
00000000
00001000
00000000
,
00000010
00000100
00000000
00000010
00000100
00000000
00000010
00000100
00000000
00000000
00001000
00000000
00000001
00000000
00001000
00000000
,
00000010
00000100
00000010
00000000
00010000
00001000
00010000
00000000
00001000
00100000
00010000
00000000
01000000
00000000
00100000
00000000
,
20000000
00000000
00100000
00000000
00000000
00100000
00000000
00000000
,
01000000
00000000
00000000
01000000
00000000
00000000
31000000
00010000
,
00002000
00000000
00010000
00000000
00000000
00010000
00000000
00000000
,
01000000
00000000
00000000
01000000
00000000
00000000
00013000
00001000
,
00000010
00000001
00000100
00000010
00001000
00000100
00010000
00001000
,
00100000
00010000
01000000
00100000
10000000
01000000
00010000
00001000
,
00011000
00000000
00000000
00000000
,
00000000
00000000
00000000
00000000
;
