
//----- song ID: unit -----//
#TITLE:Unity;
#ARTIST:The Remembers;
#BANNER:Unity.png;
#BACKGROUND:Unity-bg.png;
#CDTITLE:./CDTitles/DDR HOTTEST PARTY2.png;
#MUSIC:Unity.ogg;
#SAMPLESTART:56.001;
#SAMPLELENGTH:15;
#BPMS:0=120;
#STAGE:2;
#NOTES:
     dance-single:
     :
     Beginner:
     2:
     :
0000
0000
0000
0000
,
0000
0000
0000
0000
,
0000
0000
0000
0000
,
0000
0000
0000
0000
,
0001
0000
0010
0000
,
0001
0000
0000
0000
,
0010
0000
0010
0000
,
0100
0000
0000
0000
,
1000
0000
0010
0000
,
1000
0000
0000
0000
,
0010
0000
0010
0000
,
0100
0000
0000
0000
,
1000
0000
0000
0000
,
1000
1000
0100
0000
,
0010
0000
0000
0000
,
0000
0000
0000
0000
,
0001
0000
0000
0000
,
0001
0001
0100
0000
,
0010
0000
0000
0000
,
0000
0000
0000
0000
,
1000
0000
1000
0000
,
1001
0000
0000
0000
,
0010
0000
0000
0000
,
0100
0000
0000
0000
,
0001
0000
0001
0000
,
1001
0000
0000
0000
,
0010
0000
0000
0000
,
0000
0000
0000
0000
,
0002
0000
0000
0000
,
0003
0000
0000
0000
,
0200
0000
0000
0000
,
0300
0000
0000
0000
,
0020
0000
0000
0000
,
0030
0000
0000
0000
,
2000
0000
0000
0000
,
3000
0000
0000
0000
,
1001
0000
0000
0000
,
1000
0000
0100
0000
,
0010
0000
0000
0000
,
0001
0000
0100
0000
,
0010
0000
0000
0000
,
0001
0000
0100
0000
,
0001
0000
0010
0000
,
0100
0000
0100
0000
,
1000
0000
0000
0000
,
0000
0000
0000
0000
,
1000
0000
0100
0000
,
1000
0000
0010
0000
,
0100
0000
0100
0000
,
0001
0000
0000
0000
,
1001
0000
0000
0000
,
0000
0000
0000
0000
;
#NOTES:
     dance-single:
     :
     Easy:
     5:
     :
0000
0000
0000
0000
,
0000
0000
0000
0000
,
0000
0000
0000
0000
,
0000
0000
0000
0000
,
0001
0100
0001
0010
,
0001
0000
1001
0000
,
1000
0100
1000
0010
,
1000
0000
1001
0000
,
1000
0100
0010
0001
,
1000
0000
0110
0000
,
0001
0100
0010
1000
,
0001
0001
0001
0000
,
1000
0100
1000
0100
,
0010
0001
0010
0000
,
0001
0100
0001
0100
,
0010
1000
0010
0000
,
1000
0001
0100
0010
,
1000
0001
0100
0000
,
0001
0010
0100
1000
,
0001
0010
0100
0000
,
1000
0100
0001
0000
,
0001
0100
1000
0000
,
0001
0100
1000
0100
,
0001
0000
1001
0000
,
1000
0010
0001
0000
,
0001
0010
1000
0000
,
0001
0010
1000
0010
,
0001
0000
1001
0000
,
2000
0000
0000
3000
,
0200
0000
0000
0300
,
0020
0000
0000
0030
,
0002
0000
0000
0003
,
2002
0000
0000
3003
,
0001
1000
0001
1000
,
0010
0100
0010
0100
,
0001
1000
0100
0000
,
0220
0000
0000
0330
,
1000
0001
1000
0001
,
1000
1000
0100
0000
,
0010
0010
0001
0000
,
0100
0001
0100
0001
,
1000
1000
1000
0000
,
0001
0010
0001
0100
,
0010
0000
0110
0000
,
1000
0010
1000
0100
,
0010
0000
0110
0000
,
0001
0100
1000
0100
,
0001
0000
1001
0000
,
1000
0100
0001
0100
,
1000
0000
0110
0000
,
1001
0000
1001
0000
,
0000
0000
0000
0000
;
#NOTES:
     dance-single:
     :
     Medium:
     8:
     :
0000
0000
0000
0000
,
0000
0000
0000
0000
,
0000
0000
0000
0000
,
0000
0000
0000
0000
,
1000
0000
0100
0000
1000
0010
1000
0000
,
0001
0001
0001
0000
,
0001
0000
0100
0000
0001
0010
0001
0000
,
1000
1000
1000
0000
,
0010
0000
1000
0000
0001
0100
0001
0000
,
0010
0010
0010
0000
,
0100
0000
1000
0000
0001
0010
0001
0000
,
1000
1000
0001
0001
1001
0000
0000
0000
,
0001
0100
0010
0100
0001
0100
0010
0000
,
1000
0100
0010
0100
1000
0100
0010
0000
,
0001
0100
0001
0000
1000
0100
1000
0100
,
0000
0010
0100
0000
1100
0000
0101
0000
,
1000
0010
0100
0010
1000
0010
0100
0000
,
0001
0010
0100
0010
0001
0010
0100
0000
,
1000
0010
1000
0000
0001
0010
0001
0010
,
0000
0100
0010
0000
0001
1000
0001
0000
,
0100
0001
0100
0001
1000
0010
1000
0000
,
0001
0000
0000
0001
0000
0000
0001
0000
1000
0000
0000
1000
0000
0000
1000
0000
,
0001
0010
1000
0000
1000
0010
0001
0010
,
0000
0001
0100
0000
0001
0100
0010
0000
,
1000
0100
1000
0100
0010
0001
0010
0001
,
1000
0000
0000
1000
0000
0000
0000
0000
0001
0000
0000
0001
0000
0000
0000
0000
,
1000
0010
0001
0000
0001
0010
1000
0010
,
0000
1000
0100
0000
1000
0100
0010
0000
,
0011
0011
1010
1010
,
0001
0010
0100
1000
0001
0010
0100
1000
,
0002
0100
1000
0103
,
2000
0100
0001
3100
,
0220
0000
0000
0330
,
0000
0001
0000
0010
0000
0100
0000
1000
,
0001
0100
0001
0000
1000
0010
1000
0000
,
0001
0010
0001
0000
1000
0100
1000
0000
,
0002
0100
1000
0103
,
0000
1000
0000
0010
0000
0100
0000
0001
,
0010
0001
0010
0000
0001
0100
0001
0000
,
1000
0010
1000
0000
0100
0010
0100
0000
,
2000
0100
0001
3100
,
0001
0001
1000
1000
1001
0000
0000
0000
,
0001
0000
0001
0000
1000
0010
1000
0000
,
0100
0100
0100
0000
,
1000
0000
1000
0000
0001
0010
0001
0000
,
0100
0100
0100
0000
,
0001
0000
0010
0000
0100
1000
0010
0000
,
0100
0001
1001
0000
,
1000
0000
0010
0000
0100
0001
0010
0000
,
0001
0101
1000
1100
,
0010
0000
0000
0000
0001
0000
0000
1001
0000
0000
0000
0000
0000
0000
0000
0000
,
0000
0000
0000
0000
;
#NOTES:
     dance-single:
     :
     Hard:
     12:
     :
0000
0000
0000
0000
,
0000
0000
0000
0000
,
0000
0000
0000
0000
,
0000
0000
0000
0000
,
0100
1000
0010
0000
0100
0001
0010
0000
,
0001
0000
0100
0010
0000
0100
0010
0000
1000
0000
0100
0000
0001
0000
0100
0000
,
1000
0010
0100
0000
0001
0010
0100
0000
,
1000
0000
0010
0000
0100
0010
0000
0100
0010
1000
0010
0000
0100
0001
0100
0000
,
0010
1000
0100
0000
0010
0001
0100
0000
,
0010
0000
1000
0001
0000
1000
0001
0000
0010
0000
1000
0000
0010
0000
0001
0000
,
1000
0100
0010
0000
0001
0100
0010
0000
,
1010
1010
0011
0011
1001
0000
0000
0000
,
1000
0000
0100
0000
1000
0010
0000
0100
0010
0000
1000
0010
0000
0100
0010
0000
,
1000
0000
0001
0000
0010
0100
0000
0010
0001
0000
0010
0100
0000
0010
0001
0000
,
1000
0100
0001
0000
0001
0100
1000
1100
,
0000
0000
1010
0000
0001
1000
0000
0000
0001
0000
0100
0000
0001
1000
0000
0000
,
0001
0000
0010
0000
0001
0100
0000
0010
0100
0000
0001
0100
0000
0010
0100
0000
,
0001
0000
1000
0000
0100
0010
0000
0100
1000
0000
0100
0010
0000
0100
1000
0000
,
0001
0010
1000
0000
1000
0010
0001
0010
,
0000
0000
0001
0000
1000
0001
0000
0000
0000
0000
0010
0000
0001
1000
0000
0000
,
0010
1000
0010
1000
0100
0010
0100
0010
,
0011
0000
0000
1001
0000
0000
1000
0000
1010
0000
0000
1001
0000
0000
1000
0000
,
0001
0100
1000
0100
0001
0100
1000
0100
,
0000
0000
0010
0000
1000
0010
0000
0000
0100
0000
0001
0000
0010
0001
0000
0000
,
0100
0001
0100
0001
0010
0100
0010
0100
,
1100
0000
0000
1001
0000
0000
0000
0000
0101
0000
0000
1001
0000
0000
0000
0000
,
1000
0010
0001
0010
1000
0010
0001
0010
,
0000
0000
0100
0000
0001
0100
0000
0000
0010
0000
1000
0000
0100
1000
0000
0000
,
0020
0000
0001
0000
1000
0000
0031
0010
,
1000
0000
0100
0000
1000
0100
0000
0000
1000
0000
0010
0000
1000
0010
0000
0000
,
1000
0100
0010
0001
0100
0010
1000
0100
,
0010
0000
0001
0000
1000
0010
1000
0000
0002
0000
0203
0000
0000
0000
0310
0000
,
2000
0100
0010
3100
,
0000
1010
0000
0011
0000
0101
0000
1100
,
1000
0010
1000
0010
0100
0001
0100
0001
,
0010
0001
0010
0001
1000
0100
1000
0100
,
0020
0001
1000
0031
,
0000
0011
0000
1010
0000
1100
0000
0101
,
0001
0010
0001
0010
0100
1000
0100
1000
,
0010
1000
0010
1000
0001
0100
0001
0100
,
0002
0010
1000
0103
,
0101
0101
1100
1100
1001
0000
0000
0000
,
0001
0100
1000
0000
0001
0010
1000
0000
,
0100
1000
0001
0010
0001
0100
0010
1000
,
0001
0010
1000
0000
0001
0100
1000
0000
,
0001
0000
0100
0000
0001
0100
0000
0001
0010
0100
0010
0000
0001
1000
0001
0000
,
1000
0100
0001
0000
1000
0010
0001
0000
,
0100
0010
1000
0001
0010
0001
0100
0010
,
1000
0010
0001
0000
1000
0100
0001
0010
,
0000
0000
0001
0000
0101
0000
0000
1000
0000
0000
0010
0000
1010
0000
0000
0000
,
0110
0000
0000
0000
1000
0000
0000
1001
0000
0000
0000
0000
0000
0000
0000
0000
,
0000
0000
0000
0000
;
#NOTES:
     dance-double:
     :
     Easy:
     4:
     :
00000000
00000000
00000000
00000000
,
00000000
00000000
00000000
00000000
,
00000000
00000000
00000000
00000000
,
00000000
00000000
00000000
00000000
,
00000001
00000100
00000010
00000100
,
00000001
00001000
00000100
00000000
,
00001000
00000100
00010000
00001000
,
00100000
00010000
01000000
00000000
,
00010000
01000000
00100000
10000000
,
01000000
00100000
01000000
00000000
,
00100000
00001000
00010000
00000100
,
00010000
00001000
00011000
00000000
,
00000010
00001000
00000010
00001000
,
00000100
00000010
00000001
00000000
,
00000100
00000010
00001000
00000010
,
00001000
00000100
00010000
00000000
,
00001000
00010000
00001000
01000000
,
00010000
00100000
00010000
00000000
,
10000000
01000000
00100000
00010000
,
01000000
00100000
01000000
00000000
,
00010000
00010000
00100000
00100000
,
00001000
00000000
00011000
00000000
,
00010000
00010000
00000010
00000010
,
00001000
00000000
00000110
00000000
,
00000001
00000001
00001000
00001000
,
00000100
00000000
00000110
00000000
,
00010000
00010000
00001000
00001000
,
00022000
00000000
00033000
00000000
,
00200000
00000000
00000000
00300000
,
00020000
00000000
00000000
00030000
,
20000000
00000000
00000000
30000000
,
02000000
00000000
00000000
03000000
,
00020000
00000000
00000000
00030000
,
00001000
00000010
00000001
00000000
,
00000100
00000001
00000100
00000001
,
00001000
00000010
00001000
00000000
,
00000220
00000000
00000000
00000330
,
00010000
00001000
00010000
00001000
,
01000000
01000000
00010000
00000000
,
10000000
10000000
00100000
00000000
,
01000000
00010000
00100000
00001000
,
00010000
00001000
00011000
00000000
,
00010000
00001000
00000010
00000000
,
00000001
00001000
00000001
00000000
,
00000001
00000100
00001000
00000000
,
00010000
00001000
00010000
00000000
,
00001000
00010000
00100000
00000000
,
10000000
00010000
10000000
00000000
,
10000000
01000000
00010000
00001000
,
00000010
00000010
00000001
00000001
,
00001000
00000000
00001001
00000000
,
00000000
00000000
00000000
00000000
;
#NOTES:
     dance-double:
     :
     Medium:
     8:
     :
00000000
00000000
00000000
00000000
,
00000000
00000000
00000000
00000000
,
00000000
00000000
00000000
00000000
,
00000000
00000000
00000000
00000000
,
00000001
00000000
00000010
00000000
00000100
00001000
00000100
00000000
,
00010000
00010000
00010000
00000000
,
00001000
00000000
01000000
00000000
00010000
00100000
00010000
00000000
,
10000000
10000000
00100000
00000000
,
10000000
00000000
01000000
00000000
00100000
00010000
00100000
00000000
,
00001000
00001000
00001000
00000000
,
00010000
00000000
00000100
00000000
00001000
00000010
00001000
00000000
,
00000001
00001000
00000001
00001000
00000001
00000000
00000000
00000000
,
00000100
00000001
00000100
00000001
00001000
00000100
00001000
00000000
,
00000010
00001000
00000010
00001000
00000010
00010000
00001000
00000000
,
00100000
00010000
00100000
00000000
00010000
01000000
00010000
01000000
,
00000000
00100000
10000000
00000000
10100000
00000000
00110000
00000000
,
10000000
01000000
10000000
01000000
00100000
00010000
00100000
00000000
,
00001000
00100000
00001000
00100000
00001000
00010000
00001000
00000000
,
00010000
00000100
00010000
00000000
00000100
00001000
00000100
00001000
,
00000000
00000001
00000100
00000000
00000010
00000100
00000010
00000000
,
00000100
00000001
00001000
00000100
00010000
00001000
00100000
00000000
,
00010000
00000000
00000000
00010000
00000000
00000000
00010000
00000000
10000000
00000000
00000000
10000000
00000000
00000000
10000000
00000000
,
01000000
10000000
00100000
00000000
01000000
00010000
00100000
00001000
,
00000000
00010000
00001000
00000000
00010000
00000010
00001000
00000000
,
00000001
00000100
00000001
00000100
00000010
00001000
00000010
00010000
,
00001000
00000000
00000000
00001000
00000000
00000000
00000000
00000000
00010000
00000000
00000000
00010000
00000000
00000000
00000000
00000000
,
00001000
01000000
00010000
01000000
10000000
01000000
00010000
00100000
,
00000000
01000000
10000000
00000000
00010000
00100000
00001000
00000000
,
00010000
00011000
00000010
00001010
,
00000001
00000010
00000100
00001000
00000010
00000100
00001000
00010000
,
00200000
01000000
10000000
01300000
,
10000000
01000000
00100000
00000000
00100000
00001000
00010000
00000000
,
00022000
00000000
00000000
00033000
,
00000000
00010000
00000000
00001000
00000000
00000010
00000000
00000001
,
00000100
00000010
00000100
00000000
00001000
00010000
00001000
00000000
,
00000010
00000100
00000010
00000000
00000001
00001000
00000001
00000000
,
00002000
00000010
00000100
00003010
,
00000000
00000001
00000000
00000100
00000000
00001000
00000000
00010000
,
00100000
01000000
00100000
00000000
00010000
00001000
00010000
00000000
,
01000000
00100000
01000000
00000000
10000000
00010000
10000000
00000000
,
00020000
00100000
01000000
00130000
,
00001000
00010000
00001000
00010000
00001000
00000000
00000000
00000000
,
00010000
00000010
00001000
00000000
00000100
00001000
00000010
00000000
,
00000100
00000100
00000110
00000000
,
00000001
00000100
00000010
00000000
00001000
00000100
00010000
00000000
,
00001000
00001000
00011000
00000000
,
00100000
00010000
01000000
00000000
00100000
10000000
01000000
00000000
,
00100000
00100000
01100000
00000000
,
00100000
00010000
00100000
00000000
00010000
00100000
00001000
00000000
,
00010000
00011000
00000100
00001100
,
00000010
00000000
00000000
00000000
00000001
00000000
00000000
00001001
00000000
00000000
00000000
00000000
00000000
00000000
00000000
00000000
,
00000000
00000000
00000000
00000000
;
#NOTES:
     dance-double:
     :
     Hard:
     11:
     :
00000000
00000000
00000000
00000000
,
00000000
00000000
00000000
00000000
,
00000000
00000000
00000000
00000000
,
00000000
00000000
00000000
00000000
,
00000001
00000100
00000010
00000000
00001000
00000100
00000010
00000000
,
00000001
00000100
00001000
00010000
00100000
10000000
00010000
00000000
,
10000000
01000000
00100000
00000000
00010000
01000000
00100000
00000000
,
10000000
01000000
00010000
00001000
00000010
00000001
00001000
00000000
,
00000001
00000100
00001000
00000000
00000001
00000010
00001000
00000000
,
00000100
00010000
00001000
00100000
00010000
01000000
00100000
00000000
,
10000000
01000000
00010000
00000000
10000000
00100000
00010000
00000000
,
00100000
00100000
00001000
00001000
00011000
00000000
00000000
00000000
,
00010000
00000000
00000100
00000000
00001000
00000100
00000000
00001000
00000100
00000000
00000010
00000001
00000000
00000010
00000001
00000000
,
00000100
00000000
00000010
00000000
00010000
00000100
00000000
00010000
00000100
00000000
00010000
00001000
00000000
00010000
00001000
00000000
,
01000000
00010000
00100000
00000000
00100000
00010000
10000000
01000000
,
00000000
00000000
00010000
00000000
01000000
10000000
00000000
00000000
01000000
00000000
00100000
00000000
00001000
00010000
00000000
00000000
,
00001000
00000000
01000000
00000000
00010000
00100000
00000000
00010000
00100000
00000000
01000000
10000000
00000000
01000000
10000000
00000000
,
00100000
00000000
01000000
00000000
00001000
00010000
00000000
00001000
00010000
00000000
00000100
00001000
00000000
00000100
00001000
00000000
,
00000010
00001000
00000100
00000000
00000100
00001000
00000010
00000100
,
00000000
00000000
00000001
00000000
00000010
00000001
00000000
00000000
00000000
00000000
00001000
00000000
00000100
00001000
00000000
00000000
,
00000001
00000010
00000100
00001000
00000010
00000100
00001000
00010000
,
00100000
00000000
00000000
01000000
00000000
00000000
00100000
00000000
00010000
00000000
00000000
00001000
00000000
00000000
00010000
00000000
,
01000000
10000000
01000000
10000000
00100000
01000000
00001000
00010000
,
00000000
00000000
00010000
00000000
00000010
00001000
00000000
00000000
00000100
00000000
00001000
00000000
00000100
00000010
00000000
00000000
,
00000001
00000100
00000010
00001000
00000100
00000010
00001000
00010000
,
00100000
00000000
00000000
10100000
00000000
00000000
00000000
00000000
01000000
00000000
00000000
01010000
00000000
00000000
00000000
00000000
,
10000000
00100000
10000000
00100000
01000000
00100000
00010000
00001000
,
00000000
00000000
00010000
00000000
00000010
00001000
00000000
00000000
00000100
00000000
00001000
00000000
00000010
00001000
00000000
00000000
,
00000020
00000000
00002030
00000000
00023000
00000000
01030000
00100000
,
10000000
01000000
00010000
00001000
00000010
00001000
00010000
00100000
,
01000000
00010000
00100000
00001000
00010000
00000100
00001000
00000010
,
00000100
00000000
00000001
00000000
00000010
00000100
00000010
00000000
00000002
00000000
00002003
00000000
00000000
00000000
00003100
00000000
,
00020000
00001000
00100000
00031000
,
00000000
00011000
00000000
01010000
00000000
11000000
00000000
10100000
,
00100000
10000000
00010000
00000000
00100000
00001000
00010000
00000000
,
00000010
00001000
00000001
00000000
00001000
00000100
00010000
00000000
,
00002000
00010000
00000010
00013000
,
00000000
00011000
00000000
00001010
00000000
00000011
00000000
00000101
,
00000100
00000001
00001000
00000000
00000100
00010000
00001000
00000000
,
01000000
00010000
10000000
00000000
00010000
00100000
00001000
00010000
,
00002000
01000000
00023000
00000100
,
00031000
00001000
00010000
00010000
00011000
00000000
00000000
00000000
,
00001000
00010000
00000100
00000000
00001000
00000100
00000010
00000000
,
00000001
00000100
00001000
00000001
00000010
00001000
00000001
00000000
,
00000100
00000010
00010000
00000000
00001000
00100000
00010000
00000000
,
01000000
00000000
00100000
00000000
10000000
00100000
00000000
10000000
00010000
01000000
00010000
00000000
00100000
00000000
00010000
00000000
,
01000000
00010000
00100000
00000000
00010000
00100000
01000000
00000000
,
10000000
00100000
00010000
10000000
01000000
00010000
10000000
00000000
,
00100000
01000000
00001000
00000000
00010000
00000100
00001000
00000010
,
00000000
00000000
00000100
00000000
00000101
00000000
00000000
00000001
00000000
00000000
00001000
00000000
00001100
00000000
00000000
00000000
,
00000100
00000000
00000000
00000000
00010000
00000000
00000000
00011000
00000000
00000000
00000000
00000000
00000000
00000000
00000000
00000000
,
00000000
00000000
00000000
00000000
;
