
//----- song ID: ueue -----//
#TITLE:↑↑↓↓←→←→BA;
#ARTIST:meiyo;
#TITLETRANSLIT:Ue ue shita shita hidari migi hidari migi BA;
#BANNER:Ue ue shita shita hidari migi hidari migi BA.png;
#BACKGROUND:Ue ue shita shita hidari migi hidari migi BA-bg.png;
#CDTITLE:./CDTitles/SDVX EXCEED GEAR.png;
#MUSIC:Ue ue shita shita hidari migi hidari migi BA.ogg;
#SAMPLESTART:19.355;
#SAMPLELENGTH:15;
#BPMS:0=124;
#NOTES:
     dance-single:
     :
     Beginner:
     4:
     :
0000
0000
0000
0000
,
0000
0000
0000
0000
,
0000
0000
0000
0000
,
0000
0000
0000
0000
,
1000
0000
0001
0000
,
0110
0000
0000
0000
,
0010
0000
0010
0000
,
0100
0000
0100
0000
,
1000
0000
0001
0000
,
0110
0000
0000
0000
,
0000
0010
0010
0000
,
0000
0100
0100
0000
,
1000
0000
1001
0000
,
0001
0000
0110
0000
,
0000
0010
0010
0000
,
0000
0100
0100
0000
,
1000
0000
1001
0000
,
0001
0000
0110
0000
,
0001
0001
0001
0000
,
1000
1000
1000
0000
,
0010
0000
0100
0000
,
0010
0010
0010
0000
,
1000
1000
1000
0000
,
0001
0001
0001
0000
,
0010
0000
0100
0000
,
0010
0010
0010
0000
,
0020
0000
0030
0000
,
0020
0000
0030
0000
,
0200
0000
0300
0000
,
0200
0000
0300
0000
,
2000
0000
3000
0000
,
0002
0000
0003
0000
,
1000
0000
0001
0000
,
0000
0000
0110
0000
,
0000
0010
0010
0000
,
0000
0100
0100
0000
,
1000
0000
1001
0000
,
0001
0000
0110
0000
,
0000
0010
0010
0000
,
0000
0100
0100
0000
,
1000
0000
1001
0000
,
0001
0000
0110
0000
,
1000
1000
1000
0000
,
0001
0001
0001
0000
,
0100
0000
0010
0000
,
0100
0100
0100
0000
,
0001
0001
0001
0000
,
1000
1000
1000
0000
,
0100
0000
0010
0000
,
0100
0100
0100
0000
,
0010
0000
0100
0000
,
1000
0000
0001
0000
,
0010
0000
0100
0000
,
1001
0000
0110
0000
,
0010
0000
0100
0000
,
1000
0000
0001
0000
,
0010
0000
0100
0000
,
1001
0000
0110
0010
,
0000
0000
0000
0000
;
#NOTES:
     dance-single:
     :
     Easy:
     6:
     :
0000
0000
0000
0000
,
0000
0000
0000
0000
,
0000
0000
0000
0000
,
0000
0000
0000
0000
,
2000
3002
1003
0001
,
0110
0000
1001
0000
,
0020
0030
0010
0010
,
0200
0300
0100
0100
,
2000
3002
1003
0001
,
0110
0000
1001
0001
,
0000
0010
0020
0030
,
0000
0100
0200
0300
,
2000
3000
0001
1000
,
0001
0110
2002
3000
,
0003
0010
0020
0030
,
0000
0100
0200
0300
,
2000
3000
0001
1000
,
0001
0110
2002
3003
,
0001
0100
0100
0010
,
1000
0100
0100
0010
,
0001
0000
0001
0100
,
0010
1000
0001
0000
,
1000
0100
0100
0010
,
0001
0100
0100
0010
,
1000
0000
1000
0100
,
0010
0001
0002
0003
,
0020
0130
2000
3001
,
2000
3001
0110
1001
,
0020
0130
2000
3001
,
1001
0110
2002
3003
,
0200
0310
0002
1003
,
0002
1003
0110
1001
,
0100
0010
0001
1000
,
1001
0110
1001
0000
,
0000
0010
0020
0030
,
0000
0100
0200
0300
,
2000
3000
0001
1000
,
0001
0110
2002
3000
,
0003
0010
0020
0030
,
0000
0100
0200
0300
,
2000
3000
0001
1000
,
0001
0110
2002
3003
,
0001
0010
0010
0100
,
1000
0010
0010
0100
,
0001
0000
0001
0010
,
0100
1000
0001
0000
,
1000
0010
0010
0100
,
0001
0010
0010
0100
,
1000
0000
1000
0010
,
0100
0001
0001
0000
,
2000
3002
0103
0010
,
0100
0010
1001
0110
,
0002
2003
3010
0100
,
0110
1001
0110
0000
,
0020
0230
1300
0001
,
1000
0001
0110
1001
,
0200
0320
0031
1000
,
1001
0110
1001
0000
,
0000
0000
0000
0000
;
#NOTES:
     dance-single:
     :
     Medium:
     11:
     :
0000
0000
0000
0000
,
0000
0000
0000
0000
,
0000
0000
0000
0000
,
0000
0000
0000
0000
,
1000
0001
1000
0001
0020
0000
0030
0000
,
0110
1001
0000
2000
3000
0000
0200
0000
,
0310
0000
0010
0000
0002
0003
0002
0003
,
0100
0000
0100
0000
0020
0030
0020
0030
,
1000
0001
1000
0001
0020
0000
0030
0000
,
0110
1001
0000
0002
0003
0000
2000
0000
,
3000
0001
0010
0100
0020
0000
0031
0000
,
0000
1000
0100
0010
0200
0000
1300
0010
,
2000
0000
3001
0000
0001
0100
1000
0100
,
0001
0000
0110
0000
2002
0000
0000
3003
,
0000
1000
0010
0100
0020
0000
1030
0000
,
0000
0001
0100
0010
0200
0000
1300
0100
,
1000
0000
0100
0000
0001
0010
1000
0010
,
0001
0110
1002
0103
,
0001
0010
0100
1000
0010
0000
0001
0010
,
1000
0100
0010
0001
0100
0000
1000
0100
,
0001
0000
0110
0000
0001
0010
1000
0000
,
0001
0100
1000
0001
1000
0000
0100
0000
,
1000
0010
0100
0001
0010
0000
1000
0010
,
0001
0100
0010
1000
0100
0000
0001
0100
,
1000
0000
0110
0000
1000
0100
0001
0000
,
1000
0010
0001
1000
0002
0000
0013
0000
,
0010
0010
0100
0100
2000
0000
3002
0000
,
2003
3001
0110
1002
,
0013
0010
0100
0100
2000
0000
3002
0000
,
1003
0001
0110
0000
2001
0000
3020
0000
,
0130
0100
0010
0010
0002
0000
2003
0000
,
3002
1003
0110
2001
,
3100
0100
0010
0010
0001
0000
1000
0000
,
0001
1000
0110
0000
1001
0000
0001
0000
,
0000
1000
0010
0100
0020
0000
1030
0000
,
0000
0001
0100
0010
0200
0000
0301
0010
,
0002
0000
1003
0000
1000
0100
0001
0100
,
1000
0000
0110
0000
2002
0000
0000
3003
,
0000
0001
0010
0100
0020
0000
0031
0000
,
0000
1000
0100
0010
0200
0000
0301
0100
,
0001
0000
0100
0000
1000
0010
0001
0010
,
1000
0000
0000
0000
0000
0000
0000
0000
0000
0000
0000
0000
0000
0000
0000
0000
0000
0000
0000
0000
0000
0000
0000
0000
0000
0000
0000
0000
0000
0000
0000
0000
0000
0000
0000
0000
0000
0000
0000
0000
0000
0000
0000
0000
0000
0000
0000
0000
0110
0000
0000
0000
0000
0000
0000
0000
0000
0000
0000
0000
0000
0000
0000
0000
0000
0000
0000
0000
0000
0000
0000
0000
0000
0000
0000
0000
0000
0000
0000
0000
0000
0000
0000
0000
0000
0000
0000
0000
0000
0000
0000
0000
0000
0000
0000
0000
2002
0000
0000
0000
0000
0000
0000
0000
0000
0000
0000
0000
0000
0000
0000
0000
0000
0000
0000
0000
0000
0000
0000
0000
0000
0000
0000
0000
0000
0000
0000
0000
0000
0000
0000
0000
0000
0000
0000
0000
0000
0000
0000
0000
0000
0000
0000
0000
0003
0000
0000
0000
0000
0000
0000
0000
0000
0000
0000
0000
0000
0000
0000
0000
0000
0000
0000
0000
0000
0000
0000
0000
0000
0000
0000
0000
0000
0000
0000
0000
0000
0000
0000
0000
0000
0000
0000
0000
0000
0000
0000
0000
0000
0000
0000
3000
,
0001
0100
0010
1000
0100
0000
0001
0100
,
1000
0010
0100
0001
0010
0000
1000
0010
,
0001
0000
0110
0000
0001
0100
1000
0000
,
0001
0010
1000
0001
1000
0000
0010
0000
,
1000
0100
0010
0001
0100
0000
1000
0100
,
0001
0010
0100
1000
0010
0000
0001
0010
,
1000
0000
0110
0000
1000
0010
0001
0000
,
1000
0100
0001
1000
0001
0000
0001
0000
,
1000
1000
0001
0001
0200
0000
0310
0000
,
0200
0310
1001
0110
,
0001
0001
1000
1000
0020
0000
0130
0000
,
0010
0100
1001
0000
0110
0000
0001
0000
,
0010
0010
0100
0100
2000
0000
3001
0000
,
2000
3001
0110
1002
,
0103
0100
0010
0010
0001
0000
1000
0000
,
0001
1000
0110
0000
1001
0000
0200
0000
,
0000
0000
0000
0300
,
0000
0000
0000
0000
;
#NOTES:
     dance-single:
     :
     Hard:
     12:
     :
0000
0000
0000
0000
,
0000
0000
0000
0000
,
0000
0000
0000
0000
,
0000
0000
0000
0000
,
1000
0001
0000
1000
0002
0000
0003
0000
1000
0100
0000
0010
0001
0000
0000
0000
,
0110
2002
0003
3010
0010
0000
0200
0000
,
0010
0000
0310
0000
1020
0030
0021
0030
,
0100
0000
0100
0000
1200
0300
0201
0300
,
1000
0001
0000
1000
0002
0000
0003
0000
1000
0100
0000
0010
0001
0000
0000
0000
,
0110
2002
3003
1000
1000
0000
0200
0000
,
0300
0011
0020
1030
0020
0000
0031
0000
,
0000
1100
0200
0301
0200
0000
1300
0100
,
2010
0000
3001
0000
0002
0013
2000
3001
,
0002
0103
0220
0330
2002
0000
0000
3003
,
0000
1010
0020
0031
0020
0000
1030
0000
,
0000
0101
0200
1300
0200
0000
1300
0100
,
2010
0000
3001
0000
0002
0103
2000
3001
,
0002
0013
0220
0330
2002
0003
3100
0000
,
1000
0010
0001
1000
0100
0000
0010
0100
,
0001
0010
1000
0001
0100
0000
0010
0100
,
1000
0000
1010
0000
0001
0100
1000
0000
,
0010
0000
1000
0000
0100
0000
0001
0000
1000
0000
0000
0000
0001
0010
0000
0000
,
0001
0100
1000
0001
0010
0000
0100
0010
,
1000
0100
0001
1000
0010
0000
0100
0010
,
0001
0000
0101
0000
1000
0010
0001
0000
,
0100
0000
0000
0001
0000
0000
0010
0000
0000
1000
0000
0000
0001
0000
0010
0000
0100
0000
1000
0000
0000
0000
0000
0000
,
0012
0010
0103
0100
1200
0000
0301
0000
,
1020
0000
0031
0000
0220
0330
1001
0000
,
2010
0010
3100
0100
1200
0000
0301
0000
,
2000
3001
0110
0000
1002
0000
0103
0000
,
2100
0100
3010
0010
0021
0000
1030
0000
,
0201
0000
1300
0000
0220
0330
1001
0000
,
0100
0100
0010
0010
0001
0000
1000
0000
,
0001
1000
0110
0000
1001
0000
0100
0000
,
0000
1010
0020
0031
0020
0000
1030
0000
,
0000
0101
0200
1300
0200
0000
0301
0100
,
0012
0000
1003
0000
2000
3010
0002
1003
,
2000
3100
0220
0330
2002
0000
0000
3003
,
0000
0011
0020
1030
0020
0000
0031
0000
,
0000
1100
0200
0301
0200
0000
0301
0100
,
0012
0000
1003
0000
2000
3100
0002
1003
,
2000
3010
0220
0330
2002
0000
0003
0000
,
3001
0010
1000
0001
0100
0000
0010
0100
,
1000
0010
0001
1000
0100
0000
0010
0100
,
0001
0000
0011
0000
1000
0100
0001
0000
,
0010
0000
0001
0000
0100
0000
1000
0000
0001
0000
0000
0000
1000
0010
0000
0000
,
1000
0100
0001
1000
0010
0000
0100
0010
,
0001
0100
1000
0001
0010
0000
0100
0010
,
1000
0000
1100
0000
0001
0010
1000
0000
,
0100
0000
1000
0000
0010
0000
0001
0000
1000
0000
0000
0000
1000
0002
0000
0000
,
0013
0010
0100
0100
1100
0000
0101
0000
,
1010
0011
0110
1002
,
0103
0100
0010
0010
0011
0000
1010
0000
,
0001
1000
0110
0000
1001
0000
2000
0000
,
3010
0010
0100
0100
1010
0000
0011
0000
,
1100
0101
0110
2001
,
3100
0100
0010
0010
0101
0000
1100
0000
,
0001
1000
0110
0000
1001
0000
0200
0000
,
0000
0000
0000
0300
,
0000
0000
0000
0000
;
#NOTES:
     dance-double:
     :
     Easy:
     6:
     :
00000000
00000000
00000000
00000000
,
00000000
00000000
00000000
00000000
,
00000000
00000000
00000000
00000000
,
00000000
00000000
00000000
00000000
,
00002000
00023000
00031000
00010000
,
01100000
00000000
10010000
10000000
,
00200000
00300000
00100000
00100000
,
02000000
03000000
01000000
01000000
,
00002000
00023000
00031000
00010000
,
00000110
00000000
00001001
00001000
,
00000000
00000010
00000020
00000030
,
00000000
00000100
00000200
00000300
,
00002000
00003000
00010000
00001000
,
00010000
01100000
20010000
00000000
,
30000000
00100000
00200000
00300000
,
00000000
01000000
02000000
03000000
,
00002000
00003000
00010000
00001000
,
00010000
00000110
00002002
00003003
,
00000001
00000010
00000010
00000100
,
00001000
00000010
00000010
00010000
,
00001000
00000000
00001000
00010000
,
00100000
10000000
01000000
00000000
,
10000000
00100000
00100000
01000000
,
00010000
00100000
00100000
00001000
,
00010000
00000000
00010000
00001000
,
00000010
00000001
00000002
00000003
,
00000020
00000130
00002000
00003001
,
00002000
00003001
00000110
00011000
,
00200000
01300000
20000000
30010000
,
10010000
01100000
00022000
00033000
,
00000200
00000310
00000002
00001003
,
00000002
00001003
00000110
00011000
,
01000000
00100000
00010000
10000000
,
10010000
01100000
00011000
00000000
,
00000000
00100000
00200000
00300000
,
00000000
01000000
02000000
03000000
,
00002000
00003000
00010000
00001000
,
00010000
00000110
00002001
00000000
,
00003000
00000010
00000020
00000030
,
00000000
00000100
00000200
00000300
,
00002000
00003000
00010000
00001000
,
00010000
01100000
20020000
30030000
,
10000000
01000000
01000000
00100000
,
00010000
01000000
01000000
00001000
,
00010000
00000000
00010000
00001000
,
00000100
00000001
00000010
00000000
,
00000001
00000100
00000100
00000010
,
00001000
00000100
00000100
00010000
,
00001000
00000000
00001000
00010000
,
01000000
10000000
00100000
00000000
,
20000000
30020000
01030000
00100000
,
01000000
00100000
00011000
00000110
,
00000002
00002003
00003010
00000100
,
00000110
00011000
01100000
00000000
,
00200000
02300000
13000000
00010000
,
10000000
00010000
01100000
00011000
,
00000200
00000320
00000031
00001000
,
00001001
00000110
00011000
00000000
,
00000000
00000000
00000000
00000000
;
#NOTES:
     dance-double:
     :
     Medium:
     11:
     :
00000000
00000000
00000000
00000000
,
00000000
00000000
00000000
00000000
,
00000000
00000000
00000000
00000000
,
00000000
00000000
00000000
00000000
,
00001000
00010000
00001000
00010000
00200000
00000000
00300000
00000000
,
01100000
10010000
00000000
00020000
00030000
00000000
02000000
00000000
,
03100000
00000000
00100000
00000000
20000000
30000000
20000000
30000000
,
01000000
00000000
01000000
00000000
00200000
00300000
00200000
00300000
,
00001000
00010000
00001000
00010000
00000020
00000000
00000030
00000000
,
00000110
00011000
00000000
00002000
00003000
00000000
00020000
00030000
,
00000000
00001000
00000010
00000100
00000020
00000000
00000031
00000000
,
00000000
00000001
00000100
00000010
00000200
00000000
00001300
00010000
,
00002000
00000000
01003000
00000000
00010000
01000000
10000000
01000000
,
00010000
00000000
01100000
00000000
00022000
00000000
00000000
00033000
,
00000000
00010000
00100000
01000000
00200000
00000000
10300000
00000000
,
00000000
00010000
01000000
00100000
02000000
00000000
03001000
00010000
,
00002000
00000000
00003010
00000000
00000001
00000010
00001000
00000010
,
00000001
00000110
00021000
00130000
,
10000000
00100000
01000000
00010000
00100000
00000000
10000000
00100000
,
00010000
01000000
00100000
10000000
01000000
00000000
00010000
00001000
,
00000100
00000000
00000101
00000000
00000001
00000010
00001000
00000000
,
00010000
00100000
10000000
01000000
00010000
00000000
00001100
00000000
,
00000001
00000010
00000100
00001000
00000010
00000000
00000001
00000010
,
00001000
00000100
00000010
00000001
00000100
00000000
00001000
00010000
,
01000000
00000000
11000000
00000000
10000000
00100000
00010000
00000000
,
00001000
00000010
00000001
00000100
00002000
00000000
00103000
00000000
,
00100000
00100000
01000000
01000000
20000000
00000000
30020000
00000000
,
20030000
30010000
01100000
00012000
,
00003010
00000010
00000100
00000100
00002000
00000000
00003002
00000000
,
00001003
00000001
00000110
00000000
00021000
00000000
00030020
00000000
,
00000130
00000100
00000010
00000010
00000002
00000000
00002003
00000000
,
00003002
00001003
00000110
00021000
,
01030000
01000000
00100000
00100000
00010000
00000000
10000000
00000000
,
00010000
10000000
01100000
00000000
00011000
00000000
00001000
00000000
,
00000000
00010000
00100000
01000000
00200000
00000000
10300000
00000000
,
00000000
10000000
01000000
00100000
02000000
00000000
03010000
00001000
,
00020000
00000000
00030100
00000000
00001000
00000100
00000001
00000100
,
00001000
00000000
00000110
00000000
00022000
00000000
00000000
00033000
,
00000000
00001000
00000010
00000100
00000020
00000000
00000031
00000000
,
00000000
00001000
00000100
00000010
00000200
00000000
00010300
00001000
,
00020000
00000000
00130000
00000000
10000000
00100000
00010000
00100000
,
10000000
01100000
00022000
00033000
,
00000001
00000100
00000010
00001000
00000100
00000000
00000001
00000100
,
00001000
00000010
00000100
00000001
00000010
00000000
00001000
00010000
,
00100000
00000000
10100000
00000000
10000000
01000000
00010000
00000000
,
00001000
00000100
00000001
00000010
00001000
00000000
00110000
00000000
,
10000000
01000000
00100000
00010000
01000000
00000000
10000000
01000000
,
00010000
00100000
01000000
10000000
00100000
00000000
00010000
00001000
,
00000010
00000000
00000011
00000000
00000001
00000100
00001000
00000000
,
00010000
01000000
10000000
00100000
00010000
00000000
00100000
00000000
,
10000000
10000000
00010000
00010000
02000000
00000000
03100000
00000000
,
02000000
03100000
00011000
00000110
,
00000001
00000001
00001000
00001000
00000020
00000000
00000130
00000000
,
00000010
00000100
00011000
00000000
01100000
00000000
00010000
00000000
,
00100000
00100000
01000000
01000000
20000000
00000000
30010000
00000000
,
20000000
30010000
01100000
00012000
,
00003100
00000100
00000010
00000010
00000001
00000000
00001000
00000000
,
00000001
00001000
00000110
00000000
00011000
00000000
00200000
00000000
,
00000000
00000000
00000000
00300000
,
00000000
00000000
00000000
00000000
;
#NOTES:
     dance-double:
     :
     Hard:
     12:
     :
00000000
00000000
00000000
00000000
,
00000000
00000000
00000000
00000000
,
00000000
00000000
00000000
00000000
,
00000000
00000000
00000000
00000000
,
00001000
00010000
00000000
00001000
00020000
00000000
00030000
00000000
00000100
00001000
00000000
00000001
00000100
00000000
00000000
00000000
,
00000110
00021000
00000000
00130000
00100000
00000000
20000000
00000000
,
00100000
00000000
30100000
00000000
00201000
00300000
00010020
00000030
,
00000100
00000000
00000100
00000000
00010200
00000300
02001000
03000000
,
00001000
00010000
00000000
00001000
00020000
00000000
00030000
00000000
00100000
10000000
00000000
00010000
00100000
00000000
00000000
00000000
,
01100000
00022000
00033000
00010000
00010000
00000000
00000200
00000000
,
00000300
00000011
00000020
00001030
00000020
00000000
00000031
00000000
,
00000000
00001100
00000200
00000301
00000200
00000000
00001300
00010000
,
20000000
00000000
30010000
00000000
00020000
00130000
00002000
00003010
,
00000002
00001003
00000220
00000330
00022000
00000000
00000000
00033000
,
00000000
00110000
00200000
10300000
00200000
00000000
00310000
00000000
,
00000000
11000000
02000000
03010000
02000000
00000000
13000000
00010000
,
00002000
00000000
00003001
00000000
00000002
00000103
00002000
01003000
,
00020000
10030000
02200000
03300000
00012000
00000000
00003010
00000000
,
00000001
00000010
00001000
00000001
00000100
00000000
00000010
00000100
,
00001000
00000010
00000001
00001000
00000100
00000000
00000001
00000010
,
00001000
00000000
00110000
00000000
00010000
01000000
10000000
00000000
,
00100000
00000000
10000000
00000000
01000000
00000000
00010000
00000000
00100000
00000000
00000000
00000000
00100000
00010000
00000000
00000000
,
10000000
01000000
00010000
10000000
00100000
00000000
01000000
00100000
,
00010000
01000000
10000000
00010000
00100000
00000000
10000000
01000000
,
00010000
00000000
00001100
00000000
00001000
00000010
00000001
00000000
,
00000100
00000000
00000000
00000001
00000000
00000000
00000010
00000000
00000000
00001000
00000000
00000000
00010000
00000000
00100000
00000000
01000000
00000000
10000000
00000000
00000000
00000000
00000000
00000000
,
00120000
00100000
01030000
01000000
12000000
00000000
03010000
00000000
,
10200000
00000000
00310000
00000000
02200000
03300000
00011000
00000000
,
00002010
00000010
00003100
00000100
00001200
00000000
00000301
00000000
,
00002000
00003001
00000110
00000000
00012000
00000000
00003100
00000000
,
00002100
00000100
00003010
00000010
00000021
00000000
00001030
00000000
,
00000201
00000000
00001300
00000000
00000220
00000330
00011000
00000000
,
01000000
01000000
00100000
00100000
00010000
00000000
10000000
00000000
,
00010000
10000000
01100000
00000000
00011000
00000000
01000000
00000000
,
00000000
10100000
00200000
00310000
00200000
00000000
10300000
00000000
,
00000000
01010000
02000000
13000000
02000000
00000000
13000000
01000000
,
00002000
00000000
00003010
00000000
00000002
00000103
00002000
01003000
,
00020000
10030000
02200000
03300000
00022000
00000000
00000000
00033000
,
00000000
00001010
00000020
00000031
00000020
00000000
00001030
00000000
,
00000000
00000101
00000200
00001300
00000200
00000000
00001300
01000000
,
20000000
00000000
31000000
00000000
00020000
00130000
00002000
00003010
,
00000002
00001003
00000220
00000330
00022000
00000000
00033000
00000000
,
10000000
00100000
00010000
10000000
01000000
00000000
00100000
01000000
,
00010000
00100000
10000000
00010000
01000000
00000000
10000000
00100000
,
00010000
00000000
00001010
00000000
00001000
00000100
00000001
00000000
,
00000010
00000000
00000001
00000000
00000100
00000000
00001000
00000000
00000010
00000000
00000000
00000000
00000010
00001000
00000000
00000000
,
00000001
00000100
00001000
00000001
00000010
00000000
00000100
00000010
,
00001000
00000100
00000001
00001000
00000010
00000000
00000001
00000100
,
00001000
00000000
01010000
00000000
00010000
00100000
10000000
00000000
,
01000000
00000000
10000000
00000000
00100000
00000000
00010000
00000000
10000000
00000000
00000000
00000000
10000000
00020000
00000000
00000000
,
00130000
00100000
01000000
01000000
11000000
00000000
01010000
00000000
,
10100000
00110000
01100000
00012000
,
00003100
00000100
00000010
00000010
00000011
00000000
00001010
00000000
,
00000001
00001000
00000110
00000000
00011000
00000000
00020000
00000000
,
00030010
00000010
00000100
00000100
00001010
00000000
00000011
00000000
,
00001100
00000101
00000110
00021000
,
01030000
01000000
00100000
00100000
01010000
00000000
11000000
00000000
,
00010000
10000000
01100000
00000000
00011000
00000000
00000020
00000000
,
00000000
00000000
00000000
00000030
,
00000000
00000000
00000000
00000000
;
