
//----- song ID: trda -----//
#TITLE:トランスダンスアナーキー;
#ARTIST:暁Records;
#TITLETRANSLIT:Trance dance anarcky;
#ARTISTTRANSLIT:Akatsuki Records;
#BANNER:Trance dance anarcky.png;
#BACKGROUND:Trance dance anarcky-bg.png;
#CDTITLE:./CDTitles/SDVX EXCEED GEAR.png;
#MUSIC:Trance dance anarcky.ogg;
#SAMPLESTART:61.522;
#SAMPLELENGTH:15;
#BPMS:0=195;
#BGSTAGE:14;
#NOTES:
     dance-single:
     :
     Beginner:
     3:
     :
0000
0000
0000
0000
,
0000
0000
0000
0000
,
0000
0000
0000
0000
,
0000
0000
0000
0000
,
0000
0000
0000
0000
,
1000
0000
0001
0000
,
0100
0000
0000
0001
,
1000
0000
0001
0000
,
0010
0000
0000
0001
,
1000
0000
0010
0000
,
0100
0000
0000
0001
,
1000
0000
0001
0000
,
0100
0000
0100
0000
,
0001
0000
0000
0000
,
1000
0000
0000
0000
,
0100
0000
0000
0000
,
0010
0000
0000
0000
,
0001
0000
0000
0000
,
1000
0000
0000
0000
,
0010
0000
0000
0000
,
0100
0000
0100
0000
,
0001
0000
0000
0000
,
1000
0000
0000
0000
,
0100
0000
0000
0000
,
0010
0000
0000
0000
,
0001
0000
1000
0000
,
0001
0000
0000
0000
,
0100
0000
0010
0000
,
0100
0000
0000
0000
,
0001
0000
1000
0000
,
0001
0000
0000
0000
,
0010
0000
0100
0000
,
0010
0000
0000
0000
,
1000
0000
0001
0000
,
0100
0000
0000
0000
,
0001
0000
1000
0000
,
0100
0000
0000
0000
,
1000
0000
0001
0000
,
0010
0000
0000
0000
,
0001
0000
1000
0000
,
0010
0000
0000
0000
,
0200
0000
0000
0000
,
0300
0000
0000
0000
,
0020
0000
0000
0000
,
0030
0000
0000
0000
,
2000
0000
0000
0000
,
3000
0000
0000
0000
,
0002
0000
0000
0000
,
0003
0000
0000
0000
,
0000
0000
0000
0000
,
1000
0000
0000
0000
,
0001
0000
0000
0000
,
0100
0000
0000
0000
,
0010
0000
0010
0000
,
0100
0000
0000
0000
,
0001
0000
0000
0000
,
1000
0000
0000
0000
,
0100
0000
0100
0000
,
0010
0000
0000
0000
,
0001
0000
0000
0000
,
0100
0000
0000
0000
,
0010
0000
0000
0000
,
1000
0000
1000
0000
,
0001
0000
0000
0000
,
0010
0000
0010
0000
,
0100
0000
0100
0000
,
1000
0000
0000
0000
,
0001
0000
0000
0000
,
0100
0000
0000
0000
,
0100
0000
0000
0000
,
0002
0000
0000
0000
,
1003
0000
0000
0000
,
0000
0000
0000
0000
,
0001
0000
0000
0000
,
0000
0000
0000
0000
,
0100
0000
0000
0000
,
0000
0000
0000
0000
,
0010
0000
0000
0000
,
0000
0000
0000
0000
,
1000
0000
0000
0000
,
0001
0000
0000
0000
,
0100
0000
0000
0000
,
0010
0000
0000
0000
,
0100
0000
0100
0000
,
0100
0000
0000
0000
,
0001
0000
0001
0000
,
1000
0000
0000
0000
,
0010
0000
0010
0000
,
0010
0000
0000
0000
,
0200
0000
0000
0000
,
0300
0000
0000
0000
,
0001
0000
0001
0000
,
0001
0000
0000
0000
,
2000
0000
0000
0000
,
3000
0000
0000
0000
,
0100
0000
0100
0000
,
0100
0000
0000
0000
,
0010
0000
0010
0000
,
0010
0000
0000
0000
,
0001
0000
0001
0000
,
0001
0000
0000
0000
,
1000
0000
1000
0000
,
1000
0000
1000
0000
,
0010
0000
0000
0000
,
0100
0000
0000
0000
,
0001
0000
0000
0000
,
1000
0000
0000
0000
,
0010
0000
0100
0000
,
0010
0000
0000
0000
,
1000
0000
0001
0000
,
2000
0000
0000
0000
,
3000
0000
0000
0000
,
0000
0000
0000
0000
;
#NOTES:
     dance-single:
     :
     Easy:
     9:
     :
0000
0000
0000
0000
,
0000
0000
0000
0000
,
0000
0000
0000
0000
,
0000
0000
0000
0000
,
0000
0000
0000
0000
,
0001
0010
0100
0010
,
0001
1000
0010
0100
,
0100
0001
0010
0100
,
1000
0010
0100
0001
,
0001
0010
0100
0010
,
0001
1000
0001
0010
,
0010
0100
0010
0100
,
1000
0000
1000
0000
0001
0100
0001
0000
,
1000
0100
0010
0000
,
0001
0100
0010
0000
,
1000
0010
0100
0001
,
0020
0000
0030
0000
,
0002
0000
2003
3020
,
0230
0000
0302
0000
,
1003
0100
0010
0001
,
1000
0000
0010
0000
0100
0010
0100
0001
,
1000
1000
0001
0001
,
0010
0000
0010
0000
0000
0100
0100
0000
,
1000
1000
0010
0010
,
0100
0000
0100
0000
0000
0001
0001
0000
,
1000
0100
0010
0001
,
0100
0000
0010
0000
1000
0001
1000
0000
,
0010
0100
0001
1000
,
0001
0000
0010
0000
0100
1000
0100
0000
,
1000
0100
0010
0100
,
1000
0000
1000
0000
0001
0100
0001
0000
,
0010
0100
1000
0010
,
0100
0000
0100
0000
0001
0100
0001
0000
,
1000
0100
0001
0100
,
1000
0100
0001
0100
,
1000
1000
0001
0001
,
0100
0000
0100
0000
0010
1000
0010
0000
,
1000
0010
0001
0010
,
1000
0010
0001
0010
,
1000
1000
0100
0100
,
0010
0000
0010
0000
0001
1000
0001
0000
,
0200
0000
0000
0000
,
0302
0000
0000
0000
,
0023
0000
0000
0000
,
0230
0000
0000
0000
,
1300
0000
1000
0000
,
0001
0000
0001
0000
,
0100
0010
0100
0010
,
1000
0001
1000
0000
0100
0010
0100
0020
,
0000
0000
0000
0000
,
0032
0000
0203
0000
,
0310
1000
0100
0010
,
0002
0000
2003
0000
,
3010
0000
0010
0000
0100
0001
1000
0000
,
0100
0010
0001
0010
,
0200
0000
0300
0000
,
2000
0000
3002
0000
,
0103
0000
0100
0000
0001
1000
0001
1000
,
0002
0000
0023
0000
,
0130
1000
0010
0100
,
0002
0000
2003
0000
,
3020
0000
0000
0030
,
0100
0100
0001
0010
,
0200
0000
2300
0000
,
3010
0100
0010
0100
,
0001
1000
0001
0000
0010
0100
0010
0100
,
0010
0010
0001
0001
,
1000
0000
1000
0000
0000
0010
0010
0000
,
0100
0100
0001
0001
,
0010
0000
0010
0000
0000
0100
0100
0000
,
2000
0000
0000
0000
,
3002
0000
0000
0000
,
0023
0000
0000
0000
,
0230
0000
2300
0000
,
3010
0100
0001
1000
,
0200
0000
0000
0000
,
0320
0000
0000
0000
,
0032
0000
2003
0000
,
3010
0000
0100
0000
0001
1000
0001
1000
,
0002
0000
0203
0000
,
0310
1000
0100
0010
,
0002
0000
0023
0000
,
0230
0000
0000
0300
,
1000
1000
0010
0010
,
0100
0100
0001
0001
,
0010
0100
1000
0001
,
0100
0010
0100
0000
0001
1000
0001
1000
,
0200
0310
0200
0310
,
0200
0310
0002
2003
,
3020
0130
0020
0130
,
0020
0130
0002
2003
,
3200
0310
0200
0310
,
0200
0310
0200
0000
,
2300
3010
2000
3100
,
2000
3010
0100
0100
,
0002
0013
0002
0103
,
0002
0013
0100
0100
,
0020
0130
0020
0031
,
1000
1000
0001
0001
,
0200
0310
0200
0301
,
0200
0310
2000
0000
,
3100
0100
0100
0100
,
0010
0000
0001
0000
1000
0100
1000
0100
,
1000
1000
0001
0001
,
0100
0000
0100
0000
0000
0010
0010
0000
,
1000
1000
0001
0001
,
0010
0000
0010
0000
0000
0100
0100
0000
,
1000
1000
0001
0001
,
0100
0000
0100
0000
0000
0010
0010
0000
,
1000
1000
0001
0001
,
0010
0100
0010
0100
0000
1000
1000
0000
,
0000
0000
0000
0000
;
#NOTES:
     dance-single:
     :
     Medium:
     12:
     :
0000
0000
0000
0000
,
0000
0000
0000
0000
,
0000
0000
0000
0000
,
0000
0000
0000
0000
,
0000
0000
0000
0000
,
1000
0100
1000
0000
0001
0100
0001
0000
,
0010
0100
0010
0000
0001
1000
0010
0000
,
0010
0100
0010
0000
1000
0001
1000
0000
,
0100
0010
0100
0000
0010
0001
1000
0000
,
1000
0100
0010
0000
0001
0100
0010
0000
,
0100
0010
1000
0000
0100
0010
0001
0000
,
0001
0100
0010
1000
0000
1000
0100
0010
,
0001
0000
0001
0000
0100
0010
0100
0000
,
0001
0000
0010
0000
0100
1000
0001
0000
,
0100
0000
0010
0000
1000
0001
0100
0000
,
0010
0000
1000
0000
0100
0010
0100
0000
,
0010
0000
0001
0000
1000
0100
0001
0000
,
0100
0000
1000
0000
0010
0100
0010
0000
,
1000
0000
0010
0000
0100
0001
0010
0000
,
0100
1000
0100
0000
0010
0001
0010
0000
,
0100
1000
0100
1000
0001
0100
0001
0100
,
0010
0000
0010
0000
1000
0001
0100
0000
,
0010
1000
0100
0010
0000
0001
0001
0000
,
0100
0000
0100
0000
0001
1000
0010
0000
,
0100
0001
0010
0100
0000
1000
1000
0000
,
0010
0100
0001
0010
,
0100
0000
1000
0000
0010
0100
0001
0000
,
0010
0100
1000
0001
,
0100
0000
0010
0000
1000
0001
0010
0000
,
0100
1000
0001
0010
,
0100
0000
1000
0000
0001
0100
0010
0000
,
1000
0100
0010
0000
0100
0010
0100
0000
,
0010
0001
1000
0000
0010
0100
0010
0000
,
1000
0001
0100
0000
0010
0000
0100
0000
,
0001
0010
0100
0000
1000
0000
0100
0000
,
0010
0001
1000
0000
0010
0100
0001
0000
,
0010
0100
0010
0001
1000
0010
0100
0000
,
0001
1000
0010
0000
0100
0000
0010
0000
,
1000
0100
0010
0000
0001
0000
0010
0000
,
0100
1000
0001
0000
0100
0010
1000
0000
,
0100
0010
0100
1000
0001
0100
0010
0000
,
2000
0000
3002
0000
,
0023
0000
0230
0000
,
2300
0000
3020
0000
,
0230
0000
0302
0000
,
0013
0010
0100
0100
,
1000
1000
0010
0010
,
0100
0001
0100
0001
1000
0010
1000
0010
,
1000
0100
0010
0001
1000
0100
0010
0002
,
0000
0000
0000
0000
,
2003
0010
3002
0010
,
1003
0100
0001
0100
,
2000
0010
3002
0010
,
1003
0000
0100
0000
0001
0100
1000
0010
,
0100
0100
0001
0010
,
0100
0000
1000
0000
0010
0100
0010
1000
,
0001
0100
1000
0100
,
0001
0000
0001
0000
1000
0100
0001
0000
,
0200
1300
0020
0130
,
0001
0010
0001
0000
1000
0010
1000
0000
,
0200
0310
0002
1003
,
0010
0000
0010
0000
0100
0010
0100
0001
,
2000
3100
0020
0032
,
0103
0100
0010
0010
,
1000
0100
0010
0000
0001
0010
0100
0000
,
1000
0010
1000
0010
0100
0001
0100
0001
,
0010
0000
0010
0000
0100
1000
0100
0000
,
0010
0001
1000
0010
0000
0100
0100
0000
,
0010
0000
0010
0000
0100
0001
0100
0000
,
0010
1000
0001
0010
0000
0100
0100
0000
,
2000
0000
0000
0000
,
3002
0000
0203
0000
,
0310
1000
0001
0010
,
0200
0000
2300
0000
,
3001
0010
1000
0010
0001
0000
0100
0000
,
0020
0000
2030
0000
,
3200
0000
0320
0000
,
0032
0100
2003
0100
,
3001
0000
0001
0000
0010
0100
0010
0100
,
1000
0000
1000
0000
0001
0100
0010
0000
,
1000
0000
1000
0000
0001
0010
0100
0000
,
1000
0010
0100
0001
,
0010
0000
0010
0000
0100
1000
0001
0100
,
0010
0010
1000
0100
,
0010
0001
0010
0000
0100
1000
0100
0000
,
1000
0010
0100
0010
1000
0001
0010
0000
,
0001
0010
0100
0010
0001
1000
0010
0100
,
0010
0100
0010
0000
0010
1000
0010
0000
,
0010
0100
0010
0000
2000
0000
3200
0000
,
0310
0001
0010
0000
0010
0100
0010
0000
,
0010
0001
0010
0000
0110
0000
1100
0000
,
1000
0001
1000
0000
1000
0010
1000
0000
,
1000
0100
1000
0000
0020
0000
0230
0000
,
0301
1000
0001
0000
0001
0010
0001
0000
,
0001
0100
0001
0000
0101
0000
1001
0000
,
1000
0100
0010
0000
0001
0100
0010
0000
,
1000
0100
0001
0000
0100
0000
1000
0000
,
0001
0100
0010
0000
1000
0100
0010
0000
,
0001
0100
1000
0100
0001
0100
1000
0100
,
0001
1000
0001
0000
0010
0100
0010
0000
,
0001
1000
0001
0000
0200
0000
0000
0000
,
0310
1000
0010
0100
0010
0001
0010
0100
,
0001
0010
0100
1000
0001
0010
0100
1000
,
0010
0000
0010
0000
1000
0001
0100
0000
,
0010
1000
0100
0010
0000
0001
0001
0000
,
0100
0000
0100
0000
0001
1000
0010
0000
,
0100
0001
0010
0100
0000
1000
1000
0000
,
0010
0000
0010
0000
1000
0010
0001
0000
,
0010
1000
0100
0020
0000
0031
0001
0000
,
0100
0000
0100
0000
0001
0100
1000
0000
,
0100
0001
0010
2000
0000
0010
3010
0000
,
0000
0000
0000
0000
;
#NOTES:
     dance-single:
     :
     Hard:
     16:
     :
0000
0000
0000
0000
,
0000
0000
0000
0000
,
0000
0000
0000
0000
,
0000
0000
0000
0000
,
0000
0000
0000
0000
,
0001
0010
0100
0010
0001
1000
0010
0100
,
0010
1000
0001
0010
0100
1000
0002
0010
,
1003
0010
1000
0100
0010
0100
1000
0010
,
0100
0001
1000
0100
0010
0100
2000
0010
,
3001
0100
0010
0100
0001
0010
0100
0010
,
1000
0010
0001
0100
0010
0100
1000
0100
,
0001
0010
0001
0010
0000
0010
0100
1000
,
0010
0000
0000
0000
0010
0000
0000
0000
0100
0010
0100
0001
1000
0000
0000
0000
,
0100
0010
0001
1000
0010
0100
0001
1000
,
0100
0001
0100
1000
0010
0100
1000
0100
,
0001
0100
1000
0100
0001
0010
0100
1000
,
0002
0000
0010
0000
1000
1000
1003
0000
,
0001
0010
0100
1000
0010
0100
0001
0010
,
1000
0010
0001
0100
1000
0100
0001
0010
,
0100
0100
1000
1000
0001
0001
0100
0100
,
1000
0000
1000
0000
0100
0000
0100
0000
0001
0100
0001
0100
0001
0100
0001
0100
,
0001
0000
1001
0000
1000
1000
1010
0000
,
0010
0010
0010
0110
0000
0101
1001
0000
,
1000
0000
1100
0000
0100
0100
0110
0000
,
0010
0010
0010
0011
0000
1001
1010
0000
,
1000
0010
0100
0010
1000
0100
0010
0001
,
0100
0010
0100
0010
2000
0100
3001
0100
,
0001
0100
0010
0100
0001
0010
0100
1000
,
0010
0100
0010
0100
0002
0010
1003
0010
,
1000
0010
0100
0010
1000
0100
0001
0100
,
1000
0010
0001
0010
2000
0100
3001
0100
,
0001
0100
0010
0100
0001
0010
1000
0010
,
0001
0100
1000
0100
0002
0010
1003
0010
,
1000
0001
0100
0010
1000
0100
0010
0100
,
1000
0001
1000
0000
0010
0000
0100
0000
1000
0000
0100
0000
0001
0000
0010
0000
,
0100
1000
0100
0000
0010
0000
0001
0000
1000
0000
0010
0000
0100
0000
0010
0000
,
1000
0001
1000
0000
0100
0000
0010
0000
0002
0000
0100
0000
1003
0000
0100
0000
,
1000
0001
0100
0010
1000
0100
0010
0100
,
1000
0001
1000
0000
0010
0000
0100
0000
1000
0000
0100
0000
0001
0000
0010
0000
,
0100
1000
0100
0000
0010
0000
0001
0000
1000
0010
1000
0000
0001
0000
0010
0000
,
0100
1000
0100
0000
0010
0000
0001
0000
2000
0000
0100
0000
3001
0000
0100
0000
,
0020
2030
3002
0023
0230
2300
3020
0032
,
2003
3200
0302
0023
0230
2300
3002
0023
,
2030
3002
0203
2300
3020
0032
2003
3200
,
0302
2003
3200
0302
0203
0000
0000
0000
,
1300
1000
0101
0101
,
0010
0010
1100
1100
,
1000
0100
0010
0001
1000
0100
0010
0001
,
0100
0000
0100
0000
0100
0000
0100
0000
0010
1000
0001
0010
0100
1000
0001
0200
,
0000
0000
0000
0000
,
0301
0010
0001
0010
1000
0010
1000
0010
,
0001
0100
1000
0100
0001
0010
1000
0010
,
0001
0100
0001
0100
1000
0100
1000
0100
,
0001
0100
0000
0000
0100
1000
0000
0000
0010
0000
0010
0000
0010
0000
0100
0000
,
0010
1000
0010
0000
0100
0000
0001
0000
0010
0000
0100
0000
1000
0000
0100
0000
,
0010
0001
0010
0000
0100
0000
1000
0000
0001
0000
0100
0000
0010
0000
1000
0000
,
0100
0010
0100
0000
0010
0000
0001
0000
1000
0001
1000
0000
0010
0000
0100
0000
,
0001
0000
0001
0000
1000
1000
0011
0000
,
1000
0010
0100
0001
0010
0100
1000
0100
,
0010
0001
0000
0000
0001
0100
0000
0000
0100
1000
0000
0000
1000
0010
0000
0000
,
0200
0010
0302
0010
,
2003
0000
0010
0000
0001
0001
3001
0000
,
1000
0010
0100
0001
0010
0100
1000
0010
,
0001
0010
1000
0100
0001
0100
1000
0010
,
0100
0100
0001
0001
1000
1000
0100
0100
,
0001
0000
0001
0000
0100
0000
0100
0000
1000
0100
1000
0100
1000
0100
1000
0100
,
1000
0000
1001
0000
0001
0001
0011
0000
,
0010
0010
0010
0110
0000
1100
0101
0000
,
0001
0000
1001
0000
1000
1000
1010
0000
,
0010
0010
0010
0110
0000
0101
1001
0000
,
0001
0010
0100
1000
0002
0000
0000
0000
,
0203
0300
0200
0300
,
0020
2030
3002
0023
,
0130
1000
0001
0100
,
0010
1000
0000
0000
1000
0001
0000
0000
0001
0010
0000
0000
0010
0000
0100
0000
,
1000
0100
0001
0100
2000
0000
3020
0000
,
0230
0000
0300
0001
,
0002
0003
1000
1000
,
0010
0000
0010
0000
0100
0010
0100
0010
,
1000
0001
0010
0100
1000
0100
0010
0001
,
0100
0010
0100
1000
0100
0010
0100
0001
,
0020
0130
0200
1300
,
2000
0000
0010
0000
0001
0001
3001
0000
,
1000
0100
0010
0001
1000
0010
0100
0001
,
0010
0110
1000
1001
,
0001
0100
1000
0100
0001
0100
1000
0100
,
0001
0010
1000
0010
0001
0010
1000
0010
,
0001
1000
0001
0000
0100
0000
0000
0000
0001
1000
0001
0000
0010
0000
0000
0000
,
0001
1000
0001
0000
0100
0000
0000
0000
0110
0000
0000
0000
1001
0000
0000
0000
,
1000
0001
1000
0000
0100
0000
0000
0000
1000
0001
1000
0000
0010
0000
0000
0000
,
1000
0001
1000
0000
0100
0000
0000
0000
0110
0000
0000
0000
1001
0000
0000
0000
,
0001
0010
0100
0000
1000
0000
0000
0000
1000
0010
0100
0000
0001
0000
0000
0000
,
0001
0100
0010
0000
1000
0000
0000
0000
0001
0000
0000
0000
1001
0000
0000
0000
,
1000
0010
0100
0000
0001
0000
0000
0000
0001
0010
0100
0000
1000
0000
0000
0000
,
1000
0100
0010
0000
0001
0000
0000
0000
0011
0000
0000
0000
1001
0000
0000
0000
,
1000
0010
1000
0010
1000
0000
0000
0000
0001
0100
0001
0100
0001
0000
0000
0000
,
0010
0100
0010
0100
0010
0000
0000
0000
0110
0000
0000
0000
1001
0000
0000
0000
,
0001
0100
0001
0100
0001
0000
0000
0000
1000
0010
1000
0010
1000
0000
0000
0000
,
1010
0011
0101
1100
,
1000
0100
0010
0100
0010
0000
0000
0000
0010
0001
1000
0001
1000
0000
0000
0000
,
1000
0010
0100
0010
0100
0000
0000
0000
0002
0000
0000
0000
0000
0000
0000
0000
,
1003
1000
0100
0100
0001
0001
0100
0100
,
1000
0000
1000
0000
0010
0000
0010
0000
0100
0001
0100
0001
0100
0001
0100
0001
,
0100
0000
1001
0000
1000
1000
1010
0000
,
0010
0010
0010
0110
0000
0101
1001
0000
,
1010
0000
1100
0000
0100
0100
0110
0000
,
0010
0010
0010
0011
0000
1001
1010
0000
,
0110
0000
1001
0000
0101
0001
0011
0000
,
0110
0100
0100
1100
0000
1001
0101
0000
,
0011
0000
1001
0000
1010
1000
1100
0000
,
0110
0010
0010
0011
0000
0101
1001
0000
,
0000
0000
0000
0000
;
#NOTES:
     dance-single:
     :
     Challenge:
     18:
     :
0000
0000
0000
0000
,
0000
0000
0000
0000
,
0000
0000
0000
0000
,
0000
0000
0000
0000
,
0000
0000
0000
0000
,
0011
0010
0100
1000
0010
0100
0001
0010
,
0100
1000
0010
0100
0001
0100
0110
0010
,
1001
1000
0001
0010
0100
1000
0001
0100
,
0010
1000
0100
0010
0001
0010
0110
0100
,
1001
0010
0001
1000
0100
0001
0100
1000
,
0010
0100
1000
0100
0001
0010
0110
0100
,
1001
1000
0010
0001
1000
0100
0001
0010
,
0110
0000
0100
0000
1100
0000
1000
0000
0001
0100
0010
0000
1001
0000
0000
0000
,
0011
1000
0100
0010
1010
0001
0100
0010
,
1100
0001
0010
0100
0110
1000
0010
0100
,
1001
0001
1000
0010
0110
0001
1000
0100
,
0011
1000
0010
0100
1001
0110
1001
0010
,
0101
1000
0100
0010
1001
0100
1001
0010
,
1001
0100
0010
1000
0110
0001
1000
0010
,
0110
0100
0101
0001
1001
1000
1100
0100
,
0010
0001
0010
0000
0010
0100
0010
0000
0010
1000
0010
0100
0010
0001
0010
0000
,
1100
1000
1001
0001
0101
0101
0101
0100
,
0110
0000
1010
0000
1001
0000
0011
0000
0010
0000
0100
1000
0010
0000
0100
0000
,
0101
0001
1001
1000
1100
1100
1100
0100
,
0110
0000
0011
0000
1001
0000
1010
0000
0010
0000
0100
0001
0010
0000
0100
0000
,
1000
0010
0001
0010
1000
0100
0001
0100
,
1000
0010
0001
0010
1010
0011
0110
0001
,
1000
0100
0001
0100
1000
0010
0001
0010
,
1000
0100
0001
0100
1100
0101
0110
0001
,
1000
0010
0100
0000
0001
0000
0010
0000
1000
0010
0100
0000
1000
0000
0010
0000
,
0001
0010
0100
0000
0001
0000
0010
0000
0011
0000
1001
0000
0101
0000
1000
0000
,
0001
0010
0100
0000
1000
0000
0010
0000
0001
0010
0100
0000
0001
0000
0010
0000
,
1000
0010
0100
0000
1000
0000
0010
0000
1010
0000
1001
0000
0011
0000
0100
0000
,
1000
0010
1000
0000
0001
0010
0001
0000
1000
0100
1000
0000
0001
0100
0001
0000
,
0010
0100
0010
0000
0001
1000
0001
0000
0110
0000
1001
0000
0110
0000
1000
0000
,
0001
0100
0001
0000
1000
0100
1000
0000
0001
0010
0001
0000
1000
0010
1000
0000
,
0100
0010
0100
0000
1000
0001
1000
0000
0110
0000
1001
0000
0110
0000
0001
0000
,
1000
0010
0100
0000
0100
0001
0010
0000
0010
0100
1000
0000
1000
0001
0100
0000
,
0100
0010
1000
0000
1000
0100
0001
0000
0110
0000
1100
0000
0101
0000
0010
0000
,
0001
0100
0010
0000
0010
1000
0100
0000
0100
0010
0001
0000
0001
1000
0010
0000
,
0010
0100
0001
0000
0001
0010
1000
0000
0110
0000
1010
0000
0011
0000
0000
0000
,
0002
0103
2000
3002
0013
2000
3002
0013
,
2000
3002
0103
2000
3002
0103
2000
3002
,
0013
2000
3002
0013
2000
3002
0103
2000
,
3002
0103
2000
3002
0023
0000
0000
0030
,
0201
0001
0310
1010
1020
1000
0130
0101
,
0201
0010
0301
0011
0120
1000
0130
1001
,
2010
3100
0012
0103
2010
3100
0012
0103
,
0110
0000
0110
0000
0110
0000
0110
0000
1000
0001
0010
0100
1000
0010
0100
0002
,
0000
0000
0000
0000
,
2003
3100
0010
0001
0200
0310
1000
0010
,
0100
0001
0100
0000
0100
1000
0100
0000
0010
0001
0010
0000
0010
1000
0010
0000
,
0200
0301
0010
0100
2000
3001
0100
0010
,
1000
0010
0001
0000
1000
0100
0001
0000
0010
0000
0010
0000
0010
0000
0100
0000
,
1000
0010
0100
0000
0001
0000
0010
0000
0100
0000
1000
0000
0100
0000
0010
0000
,
0001
0100
0010
0000
1000
0000
0010
0000
0001
0000
0010
0000
1000
0000
0100
0000
,
0001
0100
0010
0000
0001
0000
0100
0000
1000
0100
0010
0000
1000
0000
0100
0000
,
0110
0010
0011
0001
0101
0101
1010
0000
,
1001
0010
0100
0001
0110
1000
0001
0100
,
1010
0001
0110
1000
0101
0010
1100
0001
,
0110
0001
0100
1000
0110
0001
0010
1000
,
0110
1000
0100
0010
0001
0001
0001
0010
,
1100
0001
0100
0010
1001
0100
1010
0001
,
0110
1000
0010
0100
0101
1000
0100
0010
,
1100
0100
0101
0100
1100
0100
0101
0100
,
0010
0001
0010
0000
0010
1000
0010
0000
0010
0001
0100
0010
0100
1000
0100
0000
,
1010
0010
0110
0100
0101
0101
0101
1000
,
1010
0000
0011
0000
0101
0000
1100
0000
1000
0000
0100
1000
0010
0000
0100
0000
,
0110
0010
1010
1000
1001
1001
1001
0001
,
0011
0000
1010
0000
1100
0000
0101
0000
0001
0000
0100
0001
0010
0000
0100
0000
,
1000
1000
1000
1000
2000
0000
0000
0000
,
3002
0000
0023
0000
,
0230
0300
0200
0300
2000
3000
2000
3000
,
0020
0100
0230
0001
,
0301
1000
0001
0000
0001
1000
0001
0000
0100
0000
0100
0000
0100
0000
0010
0000
,
1000
0100
0010
0001
0200
0000
0320
0000
,
2030
0000
3001
0100
1000
0100
0002
0000
,
0013
1001
0100
1001
,
0010
0000
0010
0000
0001
0001
0001
0001
,
0002
0100
1003
0100
2000
0100
3001
0100
,
0110
1000
1100
0001
0101
0010
1010
0001
,
0011
0100
1000
0010
0101
0010
1000
0100
,
1010
0100
0001
0100
0010
0010
0010
1000
,
0110
0001
0110
1000
0110
0001
0110
1000
,
0110
0001
1000
0010
1001
0100
0001
0010
,
0110
0100
1100
1000
1001
0001
0101
0100
,
0110
0110
1010
1010
1100
0101
0011
1010
,
1000
0010
0100
0000
0001
0000
0100
0000
0010
1000
0001
0000
0100
0000
0010
0000
,
1000
0010
0100
0000
0001
0000
0100
0000
0010
1000
0010
0000
0001
0010
0001
0000
,
1000
0100
0010
0000
0001
0000
0010
0000
0100
1000
0001
0000
0010
0000
0100
0000
,
1000
0100
0010
0000
0001
0000
0010
0000
0001
0100
0001
0000
1000
0100
1000
0000
,
0001
0010
0100
0010
0001
0000
1000
0000
0010
1000
0001
1000
0010
0000
0100
0000
,
0001
0010
0100
0010
0001
0000
1000
0000
0020
0000
2030
0000
3002
0000
0023
0000
,
0130
1000
0010
0100
0001
0000
0010
0000
0100
0010
0001
0100
0010
0000
1000
0000
,
0010
0100
0001
0010
0100
0000
1000
0000
0010
0000
0010
0000
0110
0000
0101
0000
,
0001
1000
0010
0000
0100
0001
0100
0000
0010
1000
0100
0000
0010
0100
0010
0000
,
0001
1000
0010
0000
0100
0010
1000
0000
1001
0000
0001
0000
0011
0000
0010
0000
,
0001
1000
0100
0000
0010
0001
0010
0000
0100
1000
0010
0000
0100
0010
0100
0000
,
0001
0010
0001
0000
0010
1000
0010
0000
0001
0100
0001
0000
0100
1000
0100
0000
,
0001
1000
0100
0010
0001
0000
0100
0000
0010
1000
0001
0010
0100
0000
0001
0000
,
0100
1000
0010
0100
0001
0000
0010
0000
0200
0000
2300
0000
3002
0000
0023
0000
,
0130
0100
1000
1000
1010
1010
0011
0011
,
0001
1000
0100
0010
0001
0100
0010
1000
0100
0010
0100
1000
0001
0100
0010
0000
,
0101
0100
0110
0010
1010
1010
1010
1000
,
1100
0000
0101
0000
0011
0000
1010
0000
1000
0000
0010
1000
0100
0000
0010
0000
,
0110
0100
1100
1000
1001
1001
1001
0001
,
0101
0000
1100
0000
1010
0000
0011
0000
0001
0000
0010
0001
0100
0000
0010
0000
,
1010
0010
0110
0100
0101
1100
1010
0010
,
0011
0000
0101
0000
1100
0000
1010
0000
0010
0000
1000
0100
0001
0000
0100
0000
,
1100
1000
1001
0001
0101
0011
1010
1000
,
0011
0000
1100
0000
0011
0000
1100
0000
1000
0000
0001
0100
2000
0000
0000
0000
,
0000
0000
0000
0000
,
3000
0000
0000
0000
,
0000
0000
0000
0000
;
#NOTES:
     dance-double:
     :
     Easy:
     9:
     :
00000000
00000000
00000000
00000000
,
00000000
00000000
00000000
00000000
,
00000000
00000000
00000000
00000000
,
00000000
00000000
00000000
00000000
,
00000000
00000000
00000000
00000000
,
10000000
01000000
00100000
00010000
,
00100000
00001000
00010000
00001000
,
00001000
00010000
00000100
00001000
,
00000010
00000100
00000001
00000010
,
00000010
00000100
00001000
00000100
,
00010000
00001000
00100000
00010000
,
00010000
00100000
01000000
00100000
,
00010000
00000000
00010000
00000000
10000000
00010000
10000000
00000000
,
00100000
01000000
00010000
00100000
,
00001000
00010000
00000100
00001000
,
00000001
00000100
00000010
00001000
,
00000200
00000000
00000300
00000000
,
00020000
00000000
00031000
00100000
,
00020000
00000000
20030000
00000000
,
30100000
01000000
00100000
01000000
,
00010000
00000000
01000000
00000000
00001000
00010000
00001000
00000000
,
00010000
00010000
00000100
00000100
,
00001000
00000000
00001000
00000000
00000000
00000001
00000001
00000000
,
00000100
00000100
00000010
00000010
,
00001000
00000000
00001000
00000000
00000000
00000100
00000100
00000000
,
00010000
00001000
00100000
00010000
,
00100000
00000000
01000000
00000000
10000000
01000000
10000000
00000000
,
00100000
01000000
00010000
00100000
,
00001000
00000000
00010000
00000000
00000100
00001000
00000100
00000000
,
00001000
00000001
00000100
00000010
,
00001000
00000000
00001000
00000000
00000100
00001000
00000100
00000000
,
00010000
00001000
00100000
00010000
,
00100000
00000000
00100000
00000000
01000000
10000000
01000000
00000000
,
10000000
01000000
00100000
00010000
,
00001000
00000100
00000010
00000001
,
00000010
00000010
00000100
00000100
,
00001000
00000000
00001000
00000000
00000001
00000100
00000001
00000000
,
00000100
00000001
00000100
00000010
,
00001000
00000100
00010000
00001000
,
00100000
00100000
00010000
00010000
,
10000000
00000000
10000000
00000000
00010000
10000000
00010000
00000000
,
00200000
00000000
00000000
00000000
,
00302000
00000000
00000000
00000000
,
00023000
00000000
00000000
00000000
,
00030200
00000000
00000000
00000000
,
00001300
00000000
00001000
00000000
,
00000001
00000000
00000001
00000000
,
00000010
00000100
00000010
00000100
,
00001000
00000001
00001000
00000000
00000010
00000100
00000010
00000200
,
00000000
00000000
00000000
00000000
,
00000320
00000000
00002030
00000000
,
00003100
00000100
00010000
00010000
,
00002000
00000000
00203000
00000000
,
00310000
00000000
00010000
00000000
10000000
00100000
10000000
00000000
,
00100000
01000000
00010000
01000000
,
00200000
00000000
00300000
00000000
,
20000000
00000000
32000000
00000000
,
03100000
00000000
00100000
00000000
00010000
00100000
00010000
00000000
,
00200000
00000000
00302000
00000000
,
00013000
00000100
00001000
00000100
,
00002000
00000000
00003002
00000000
,
00000203
00000000
00000000
00000300
,
00000010
00000010
00001000
00000100
,
00000020
00000000
00000230
00000000
,
00001300
00000100
00001000
00000100
,
00010000
00001000
00010000
00000000
00001000
00100000
00010000
00100000
,
00010000
00010000
00100000
00100000
,
00010000
00000000
00010000
00000000
00000000
01000000
01000000
00000000
,
00100000
00100000
10000000
10000000
,
01000000
00000000
01000000
00000000
00000000
00100000
00100000
00000000
,
00020000
00000000
00000000
00000000
,
00230000
00000000
00000000
00000000
,
00302000
00000000
00000000
00000000
,
00023000
00000000
00030200
00000000
,
00001300
00001000
00000001
00000001
,
00000020
00000000
00000000
00000000
,
00000230
00000000
00000000
00000000
,
00002300
00000000
00003200
00000000
,
00010300
00000000
00001000
00000000
00010000
00001000
00010000
00001000
,
00200000
00000000
00320000
00000000
,
01030000
00010000
00100000
01000000
,
20000000
00000000
32000000
00000000
,
03200000
00000000
00000000
00300000
,
00010000
00010000
00100000
00100000
,
00001000
00001000
00010000
00010000
,
00000100
00001000
00000001
00000100
,
00000010
00000100
00000010
00000000
00001000
00000001
00001000
00000001
,
00000020
00000130
00000020
00000130
,
00000020
00000130
00002000
00003200
,
00020300
00031000
00020000
00031000
,
00020000
00031000
00200000
00320000
,
02030000
03100000
02000000
03100000
,
02000000
03100000
20000000
00000000
,
30020000
01030000
00020000
00130000
,
00020000
01030000
00001000
00001000
,
00020000
00030100
00020000
00031000
,
00020000
00030100
00001000
00001000
,
00000200
00001300
00000200
00000310
,
00000001
00000001
00001000
00001000
,
00000020
00000130
00000020
00001030
,
00000020
00000130
00000002
00000000
,
00000013
00000010
00000010
00000010
,
00000100
00000000
00001000
00000000
00000100
00001000
00000100
00001000
,
00000100
00010000
00001000
00001000
,
00100000
00000000
00100000
00000000
00000000
00010000
00010000
00000000
,
01000000
01000000
00100000
00100000
,
10000000
00000000
10000000
00000000
00000000
01000000
01000000
00000000
,
00100000
00100000
00010000
00010000
,
00100000
00000000
00100000
00000000
00000000
00001000
00001000
00000000
,
00010000
00010000
00000100
00000100
,
00001000
00000001
00001000
00000001
00000000
00000100
00000100
00000000
,
00000000
00000000
00000000
00000000
;
#NOTES:
     dance-double:
     :
     Medium:
     12:
     :
00000000
00000000
00000000
00000000
,
00000000
00000000
00000000
00000000
,
00000000
00000000
00000000
00000000
,
00000000
00000000
00000000
00000000
,
00000000
00000000
00000000
00000000
,
00000001
00000010
00000100
00000000
00001000
00000100
00000010
00000000
,
00000100
00001000
00000100
00000000
00010000
00001000
00010000
00000000
,
00010000
00001000
00100000
00000000
00010000
01000000
00010000
00000000
,
10000000
01000000
00100000
00000000
00010000
00100000
00001000
00000000
,
00001000
00010000
00001000
00000000
00010000
00000010
00001000
00000000
,
00000010
00000100
00000001
00000000
00000010
00000100
00001000
00000000
,
00001000
00000010
00000100
00000001
00000000
00000001
00000010
00000100
,
00010000
00000000
00001000
00000000
00100000
00010000
00100000
00000000
,
00010000
00000000
01000000
00000000
00100000
10000000
00010000
00000000
,
00100000
00000000
01000000
00000000
10000000
01000000
00100000
00000000
,
00010000
00000000
00100000
00000000
00001000
00010000
00001000
00000000
,
00010000
00000000
00000010
00000000
00001000
00000010
00000100
00000000
,
00000001
00000000
00000010
00000000
00000100
00001000
00000100
00000000
,
00010000
00000000
00001000
00000000
01000000
00010000
01000000
00000000
,
00100000
01000000
00100000
00000000
10000000
01000000
10000000
00000000
,
00010000
00100000
00010000
00100000
00001000
00010000
00001000
00010000
,
00000100
00000000
00000100
00000000
00001000
00000001
00000010
00000000
,
00000100
00001000
00000010
00000100
00000000
00000001
00000001
00000000
,
00001000
00000000
00001000
00000000
00000100
00010000
00001000
00000000
,
00100000
00010000
01000000
00100000
00000000
01000000
01000000
00000000
,
00100000
10000000
00100000
01000000
,
00010000
00000000
01000000
00000000
00001000
00010000
00001000
00000000
,
00010000
00000100
00001000
00000010
,
00000100
00000000
00000001
00000000
00000010
00000001
00000100
00000000
,
00000010
00001000
00000100
00010000
,
00001000
00000000
00100000
00000000
00010000
00100000
01000000
00000000
,
10000000
00100000
01000000
00000000
00010000
00100000
00001000
00000000
,
00010000
00000100
00001000
00000000
00000100
00000010
00000100
00000000
,
00001000
00000001
00000100
00000000
00000010
00000000
00000100
00000000
,
00001000
00000100
00000010
00000000
00001000
00000000
00000010
00000000
,
00010000
00001000
00010000
00000000
00001000
01000000
00010000
00000000
,
01000000
00100000
01000000
10000000
01000000
00010000
00100000
00000000
,
00001000
00010000
00001000
00000000
00010000
00000000
00000100
00000000
,
00001000
00000100
00000010
00000000
00000001
00000000
00000010
00000000
,
00000100
00001000
00000010
00000000
00010000
00001000
00010000
00000000
,
00001000
00100000
00010000
00100000
10000000
00100000
00010000
00000000
,
20000000
00000000
30020000
00000000
,
02030000
00000000
03200000
00000000
,
00320000
00000000
00032000
00000000
,
00003200
00000000
00000320
00000000
,
00000130
00000100
00000001
00000001
,
00001000
00001000
00000100
00000100
,
00010000
00001000
00010000
00001000
00100000
01000000
00100000
01000000
,
10000000
00010000
00100000
01000000
10000000
01000000
00100000
00002000
,
00000000
00000000
00000000
00000000
,
00023000
00000100
00032000
01000000
,
00013000
00000100
00001000
00000010
,
00000200
00000001
00000320
00001000
,
00000130
00000000
00000001
00000000
00000010
00000100
00001000
00000100
,
00010000
00001000
00100000
00010000
,
01000000
00000000
00100000
00000000
10000000
01000000
00100000
00010000
,
00100000
00001000
00010000
00000010
,
00001000
00000000
00001000
00000000
00000001
00000010
00001000
00000000
,
00000020
00000031
00000200
00000310
,
00001000
00000100
00001000
00000000
00000100
00010000
00001000
00000000
,
00200000
00310000
02000000
03100000
,
10000000
00000000
10000000
00000000
00100000
01000000
00100000
10000000
,
00200000
00310000
00002000
00023000
,
00030010
00000010
00000100
00000100
,
00000001
00000010
00000100
00000000
00001000
00000100
00000010
00000000
,
00000001
00000100
00000001
00000100
00000010
00001000
00000010
00001000
,
00000100
00000000
00000100
00000000
00010000
00001000
00010000
00000000
,
00001000
00100000
01000000
00100000
00000000
00010000
00010000
00000000
,
10000000
00000000
10000000
00000000
00100000
01000000
00001000
00000000
,
00010000
00000100
00001000
00000001
00000000
00000010
00000010
00000000
,
00000002
00000000
00000000
00000000
,
00002003
00000000
00003020
00000000
,
00000130
00000001
00001000
00000100
,
00020000
00000000
00032000
00000000
,
01003000
00010000
01000000
00100000
10000000
00000000
01000000
00000000
,
00200000
00000000
00302000
00000000
,
00023000
00000000
00030200
00000000
,
00002300
00000010
00003002
00000010
,
00001003
00000000
00001000
00000000
00000100
00000010
00000100
00000010
,
00000001
00000000
00000001
00000000
00000100
00000010
00001000
00000000
,
00000100
00000000
00000100
00000000
00010000
00001000
00100000
00000000
,
00010000
00100000
10000000
00100000
,
00010000
00000000
00010000
00000000
10000000
00100000
01000000
00010000
,
00100000
00100000
00001000
00010000
,
00000100
00001000
00000100
00000000
00000010
00000001
00000010
00000000
,
00000001
00000100
00000010
00000100
00000001
00001000
00000100
00000000
,
00010000
00001000
00100000
00010000
10000000
00100000
00010000
00100000
,
01000000
00100000
01000000
00000000
01000000
00010000
01000000
00000000
,
00001000
00010000
00001000
00000000
00020000
00000000
00030020
00000000
,
00000130
00001000
00000100
00000000
00000100
00000010
00000100
00000000
,
00000100
00001000
00000100
00000000
00000110
00000000
00001010
00000000
,
00000010
00001000
00000100
00000000
00000100
00010000
00001000
00000000
,
00001000
01000000
00100000
00000000
20000000
00000000
30020000
00000000
,
00130000
01000000
00100000
00000000
00100000
00010000
00100000
00000000
,
00100000
01000000
00100000
00000000
00110000
00000000
00011000
00000000
,
00001000
00010000
00000100
00000000
00001000
00000010
00000100
00000000
,
00000001
00000010
00001000
00000000
00000010
00000000
00000001
00000000
,
00001000
00000010
00000100
00000000
00001000
00000100
00000010
00000000
,
00010000
00001000
00000100
00000010
00000100
00001000
00010000
00100000
,
01000000
00010000
01000000
00000000
00100000
10000000
00010000
00000000
,
00100000
00010000
10000000
00000000
02000000
00000000
00000000
00000000
,
03100000
00010000
00100000
00001000
00010000
00001000
00000010
00000100
,
00001000
00000100
00000010
00000001
00000010
00000100
00010000
00001000
,
00100000
00000000
00100000
00000000
00010000
10000000
00100000
00000000
,
01000000
00010000
00100000
01000000
00000000
10000000
10000000
00000000
,
00100000
00000000
00100000
00000000
00010000
00001000
00000100
00000000
,
00000010
00001000
00000100
00000010
00000000
00000001
00000001
00000000
,
00000100
00000000
00000100
00000000
00000001
00000100
00001000
00000000
,
00000100
00000001
00000010
00000200
00000000
00010300
00010000
00000000
,
00001000
00000000
00001000
00000000
00010000
01000000
10000000
00000000
,
00100000
01000000
00100000
00020000
00000000
00001000
00031000
00000000
,
00000000
00000000
00000000
00000000
;
#NOTES:
     dance-double:
     :
     Hard:
     16:
     :
00000000
00000000
00000000
00000000
,
00000000
00000000
00000000
00000000
,
00000000
00000000
00000000
00000000
,
00000000
00000000
00000000
00000000
,
00000000
00000000
00000000
00000000
,
10000000
01000000
00100000
01000000
00100000
00010000
00100000
00001000
,
00010000
00000010
00000100
00000001
00000010
00000001
00002000
00000000
,
00003001
00000100
00000010
00001000
00000100
00010000
00001000
01000000
,
00100000
10000000
00010000
00100000
01000000
00100000
00020000
00000000
,
10030000
00100000
01000000
00010000
00100000
01000000
00010000
00001000
,
00010000
01000000
00100000
00001000
00010000
00000100
00001000
00000010
,
00000100
00000001
00000100
00000001
00000000
00000001
00000100
00000010
,
00010000
00000000
00000000
00000000
00010000
00000000
00000000
00000000
00001000
00100000
00010000
10000000
00100000
00000000
00000000
00000000
,
10000000
01000000
10000000
00010000
01000000
00100000
01000000
00001000
,
00100000
00001000
00010000
00000100
00001000
00000010
00000100
00000001
,
00001000
00000100
00000001
00000100
00001000
00000100
00010000
00001000
,
00200000
00000000
00010000
00000000
01000000
01000000
01300000
00000000
,
10000000
01000000
00100000
00010000
01000000
00100000
00010000
00001000
,
00100000
00010000
00001000
00000100
00010000
00001000
00000100
00000010
,
00001000
00001000
00000001
00000001
00000010
00000010
00000100
00000100
,
00010000
00000000
00010000
00000000
00001000
00000000
00001000
00000000
00100000
00010000
00100000
00010000
00100000
00010000
00100000
00010000
,
00100000
00000000
01100000
00000000
10000000
10000000
11000000
00000000
,
01000000
01000000
01000000
01100000
00000000
00110000
00101000
00000000
,
00001000
00000000
00011000
00000000
00010000
00010000
00010100
00000000
,
00000100
00000100
00000100
00001100
00000000
00000110
00000011
00000000
,
00000001
00000100
00000010
00000100
00000001
00000010
00000100
00010000
,
00001000
01000000
00100000
01000000
00020000
00100000
10030000
00000000
,
10000000
00100000
01000000
00100000
10000000
01000000
00100000
00001000
,
00010000
00000010
00000100
00000010
00002000
00000100
00003001
00000000
,
00000001
00000100
00001000
00000100
00000010
00000100
00001000
00010000
,
00001000
01000000
00010000
01000000
00020000
00100000
10030000
00000000
,
10000000
00100000
01000000
00100000
10000000
01000000
00010000
01000000
,
00100000
00010000
00001000
00000100
00002000
00000100
00003001
00000000
,
00000001
00001000
00000100
00000010
00000100
00001000
00010000
00100000
,
00010000
00100000
00010000
00000000
10000000
00000000
00100000
00000000
00010000
00000000
00100000
00000000
10000000
00000000
01000000
00000000
,
00100000
00001000
00010000
00000010
00001000
00000001
00000010
00000100
,
00001000
00000001
00001000
00000000
00000010
00000000
00000100
00000000
00000002
00000000
00000010
00000000
00001003
00000000
00000000
00000000
,
00001000
00000100
00010000
00001000
01000000
00010000
00100000
01000000
,
10000000
00010000
10000000
00000000
01000000
00000000
00100000
00000000
10000000
00000000
00100000
00000000
00010000
00000000
00100000
00000000
,
00001000
00010000
00001000
00000000
00010000
00000000
00000100
00000000
00000010
00000000
00000001
00000000
00000100
00000000
00001000
00000000
,
00000100
00000010
00000100
00000000
00000001
00000000
00001000
00000000
00000002
00000000
00000010
00000000
00001003
00000000
00000000
00000000
,
00002000
00003002
00000023
00002030
00023000
02030000
03200000
00320000
,
20030000
30200000
00320000
00032000
00203000
00320000
00032000
00003200
,
00000302
00002003
00003020
00000230
00020300
00032000
00203000
02300000
,
23000000
30200000
00320000
00032000
00003200
00000000
00000000
00000000
,
00000301
00000001
00001010
00001010
,
00000100
00000100
00011000
00011000
,
00001000
00100000
01000000
00100000
00010000
00100000
01000000
10000000
,
00100000
00000000
00100000
00000000
00100000
00000000
00100000
00000000
01000000
00010000
10000000
01000000
00100000
00010000
00100000
00002000
,
00000000
00000000
00000000
00000000
,
00013000
00000100
00001000
00000100
00000001
00000100
00000001
00000100
,
00001000
00000010
00000001
00000010
00001000
00010000
01000000
10000000
,
01000000
00010000
00100000
01000000
10000000
01000000
00010000
00001000
,
00010000
00000100
00000000
00000000
00000100
00001000
00000000
00000000
00000001
00000000
00000001
00000000
00000001
00000000
00000100
00000000
,
00000010
00001000
00000100
00000010
00000001
00000010
00001000
00010000
,
00001000
00010000
00001000
00000000
00100000
00000000
00010000
00000000
10000000
00000000
00100000
00000000
01000000
00000000
00010000
00000000
,
01000000
00100000
01000000
00000000
00100000
00000000
10000000
00000000
01000000
00100000
01000000
00000000
00100000
00000000
00001000
00000000
,
00010000
00000000
00010000
00000000
00000100
00000100
00011000
00000000
,
00010000
00000100
00001000
00000010
00000100
00000001
00000100
00000010
,
00001000
00000100
00000000
00000000
00000100
00010000
00000000
00000000
00010000
00001000
00000000
00000000
00001000
01000000
00000000
00000000
,
00200000
01000000
20300000
01000000
,
30020000
00000000
01000000
00000000
10000000
10000000
10030000
00000000
,
00010000
01000000
00100000
00010000
00001000
00100000
00001000
00010000
,
00000100
00000010
00000001
00000010
00001000
00000010
00000001
00000100
,
00000010
00000010
00001000
00001000
00000100
00000100
00010000
00010000
,
00001000
00000000
00001000
00000000
00100000
00000000
00100000
00000000
00010000
01000000
00010000
01000000
00010000
01000000
00010000
01000000
,
00010000
00000000
10010000
00000000
10000000
10000000
11000000
00000000
,
01000000
01000000
01000000
01100000
00000000
00110000
00011000
00000000
,
00010000
00000000
00010010
00000000
00000010
00000010
00000110
00000000
,
00000100
00000100
00000100
00000101
00000000
00001001
00001100
00000000
,
00001000
00000100
00000010
00000100
00020000
00000000
00000000
00000000
,
00032000
00003000
00002000
00003000
,
02000000
03020000
20030000
32000000
,
03100000
00010000
00001000
00000100
,
00000010
00000001
00000000
00000000
00000001
00000100
00000000
00000000
00000100
00001000
00000000
00000000
00001000
00000000
00000100
00000000
,
00000001
00000010
00001000
00000010
00000200
00000000
00020300
00000000
,
00032000
00000000
00003000
00010000
,
00001000
00000000
00100000
00100000
,
01000000
00000000
01000000
00000000
10000000
00010000
10000000
00010000
,
01000000
00100000
01000000
00001000
00010000
00100000
01000000
00001000
,
00010000
00000100
00000010
00000001
00000010
00000100
00000010
00001000
,
00020000
01030000
02000000
13000000
,
00020000
00000000
01000000
00000000
10000000
10000000
10030000
00000000
,
00010000
00100000
01000000
00100000
00001000
00010000
01000000
00010000
,
00001000
00010100
00000100
00001001
,
00001000
00000100
00000001
00000100
00001000
00000100
00010000
00001000
,
00010000
01000000
10000000
01000000
00010000
01000000
00100000
00001000
,
00010000
00001000
00010000
00000000
00000100
00000000
00000000
00000000
00010000
00001000
00010000
00000000
00000010
00000000
00000000
00000000
,
00010000
00001000
00010000
00000000
00000100
00000000
00000000
00000000
00001010
00000000
00000000
00000000
00001001
00000000
00000000
00000000
,
00000001
00001000
00000001
00000000
00000100
00000000
00000000
00000000
00000001
00001000
00000001
00000000
00000010
00000000
00000000
00000000
,
00000100
00001000
00000100
00000000
00010000
00000000
00000000
00000000
00101000
00000000
00000000
00000000
00110000
00000000
00000000
00000000
,
00010000
00100000
01000000
00000000
10000000
00000000
00000000
00000000
10000000
00100000
01000000
00000000
00010000
00000000
00000000
00000000
,
00010000
01000000
00100000
00000000
01000000
00000000
00000000
00000000
00001000
00000000
00000000
00000000
00011000
00000000
00000000
00000000
,
00001000
00010000
00000100
00000000
00001000
00000000
00000000
00000000
00001000
00000100
00000010
00000000
00000100
00000000
00000000
00000000
,
00000100
00001000
00000001
00000000
00001000
00000000
00000000
00000000
00001010
00000000
00000000
00000000
00001001
00000000
00000000
00000000
,
00000001
00000010
00000001
00000010
00000001
00000000
00000000
00000000
00001000
00000100
00001000
00000100
00001000
00000000
00000000
00000000
,
00000100
00010000
00000100
00010000
00000100
00000000
00000000
00000000
00011000
00000000
00000000
00000000
01001000
00000000
00000000
00000000
,
00010000
01000000
00010000
01000000
00010000
00000000
00000000
00000000
10000000
00100000
10000000
00100000
10000000
00000000
00000000
00000000
,
01100000
01001000
00011000
00010010
,
00001000
00000010
00000100
00000010
00000100
00000000
00000000
00000000
00000100
00000001
00001000
00000001
00001000
00000000
00000000
00000000
,
00001000
00000100
00010000
00000100
00010000
00000000
00000000
00000000
00002000
00000000
00000000
00000000
00000000
00000000
00000000
00000000
,
00103000
00100000
00010000
00010000
10000000
10000000
01000000
01000000
,
00100000
00000000
00010000
00000000
00001000
00000000
00000100
00000000
00000010
00000100
00000010
00000100
00000010
00000100
00000010
00000100
,
00000010
00000000
00000110
00000000
00001000
00001000
00001001
00000000
,
00000001
00000001
00000001
00000101
00000000
00000110
00001010
00000000
,
00001000
00000000
00010100
00000000
00010000
00010000
00011000
00000000
,
00001000
00001000
00001000
01001000
00000000
01010000
01100000
00000000
,
10010000
00000000
11000000
00000000
01100000
00100000
00110000
00000000
,
00010000
00001000
00000100
00000110
00000000
00001100
00001001
00000000
,
00000101
00000000
00000110
00000000
00010010
00010000
00011000
00000000
,
00001000
00010000
00100000
01100000
00000000
10100000
10010000
00000000
,
00000000
00000000
00000000
00000000
;
#NOTES:
     dance-double:
     :
     Challenge:
     18:
     :
00000000
00000000
00000000
00000000
,
00000000
00000000
00000000
00000000
,
00000000
00000000
00000000
00000000
,
00000000
00000000
00000000
00000000
,
00000000
00000000
00000000
00000000
,
00000101
00000100
00000010
00001000
00000100
00000010
00000100
00010000
,
00001000
01000000
00100000
10000000
01000000
00100000
00110000
00010000
,
10100000
00100000
01000000
00010000
00100000
01000000
00100000
00001000
,
00010000
00000010
00000100
00000001
00000010
00000100
00001100
00001000
,
00000101
00000100
00000010
00001000
00010000
01000000
00100000
00010000
,
00000010
00000100
00000001
00000010
00001000
00010000
00011000
00001000
,
00110000
00100000
01000000
00010000
00001000
00000010
00000001
00000010
,
00000110
00000000
00000100
00000000
00010100
00000000
00010000
00000000
00001000
00100000
01000000
10000000
00100000
00000000
00000000
00000000
,
01010000
00100000
10000000
01000000
01100000
00100000
00001000
00010000
,
00010010
00000010
00000100
00000001
00000011
00000010
00000100
00001000
,
00001100
00000100
00010000
00001000
01001000
01000000
00100000
10000000
,
11000000
01000000
00100000
00001000
00011000
00010010
00001010
00000000
,
00000101
00000100
00000010
00000100
00001001
00001000
00001100
00000100
,
00010100
00010000
00001000
00100000
00110000
00010000
01000000
00001000
,
00011000
00010000
00010100
00000100
00000110
00000010
00000011
00000001
,
00001000
00000100
00001000
00000000
00000100
00010000
00001000
00000000
00100000
00001000
00100000
00010000
00100000
01000000
10000000
00010000
,
01000000
00000000
10010000
00000000
00110000
00110000
00110000
00000000
,
00101000
00000000
00011000
00000000
00010010
00000000
00001010
00000000
00000000
00000000
00000001
00000010
00000100
00000000
00000010
00000000
,
00000011
00000000
00001001
00000000
00001010
00001010
00001010
00000000
,
00010010
00000000
00011000
00000000
00101000
00000000
00110000
00000000
00000000
00000000
10000000
00100000
01000000
00000000
00100000
00000000
,
10000000
01000000
00010000
01000000
00100000
00001000
00010000
00000010
,
00000100
00001000
00010000
00100000
01100000
10100000
10010000
00010000
,
10000000
00100000
00010000
00100000
01000000
00001000
00010000
00000100
,
00000010
00001000
00010000
01000000
01100000
11000000
10010000
00000000
,
10000000
01000000
10000000
00000000
00100000
00000000
01000000
00000000
00001000
00010000
00001000
00000000
00010000
00000000
00000010
00000000
,
00000100
00000001
00000100
00000000
00000010
00000000
00010000
00000000
00011000
00000000
00001000
00000000
01001000
00000000
00000000
00000000
,
10000000
00100000
10000000
00000000
01000000
00000000
00100000
00000000
00001000
00010000
00001000
00000000
00010000
00000000
00000100
00000000
,
00000010
00000001
00000010
00000000
00000100
00000000
00010000
00000000
00011000
00000000
00101000
00000000
00110000
00000000
00000000
00000000
,
10000000
01000000
10000000
00000000
00010000
00100000
00010000
00000000
00100000
00001000
00100000
00000000
00001000
00010000
00001000
00000000
,
00010000
00000010
00010000
00000000
00000010
00001000
00000010
00000000
00000100
00000000
00000100
00000000
00000101
00000000
00000000
00000000
,
00000001
00001000
00000001
00000000
00001000
00000100
00001000
00000000
00000100
00010000
00000100
00000000
00010000
00001000
00010000
00000000
,
00001000
01000000
00001000
00000000
01000000
00010000
01000000
00000000
00100000
00000000
00100000
00000000
10100000
00000000
00000000
00000000
,
10000000
01000000
00100000
00000000
00100000
00010000
00100000
00000000
00100000
00001000
00010000
00000000
00010000
00000100
00001000
00000000
,
00001000
00000100
00000010
00000000
00000010
00000001
00000100
00000000
00000001
00000000
00000001
00000000
00001001
00000000
00000000
00000000
,
00000001
00000010
00000100
00000000
00000100
00001000
00000100
00000000
00000100
00010000
00001000
00000000
00001000
00100000
00010000
00000000
,
00010000
00100000
01000000
00000000
01000000
10000000
00100000
00000000
01000000
00000000
01000000
00000000
01100000
00000000
00000000
00000000
,
10000000
02000000
03020000
00032000
00003010
00000002
00000203
00002300
,
00013000
00200000
20300000
32000000
03010000
00002000
00003020
00000032
,
00000103
00002000
00023000
00230000
00310000
00002000
00003020
00002030
,
00013000
00200000
20300000
32000000
03200000
00000000
00000000
00300000
,
00010000
10000000
01000000
00010000
00000100
00001000
00000010
00000001
,
00001000
00000100
00000001
00001000
00000001
00000010
00001000
00010000
,
01000000
10000000
00010000
01000000
00010000
00100000
00001000
00010000
,
00011000
00000000
00011000
00000000
00011000
00000000
00011000
00000000
00001000
00010000
00000010
00000100
00000001
00000010
00000100
00002000
,
00000000
00000000
00000000
00000000
,
00003002
00000013
00000100
00001000
00000020
00000130
00000001
00001000
,
00000010
00000100
00000010
00000000
00000010
00001000
00000010
00000000
00000100
00001000
00000100
00000000
00001000
00010000
00001000
00000000
,
00200000
01300000
10000000
00010000
02000000
03001000
00010000
00000010
,
00000100
00001000
00010000
00000000
00001000
00010000
01000000
00000000
10000000
00000000
10000000
00000000
10000000
00000000
00100000
00000000
,
01000000
00010000
01000000
00000000
00100000
00000000
00010000
00000000
00001000
00000000
00000100
00000000
00000001
00000000
00000010
00000000
,
00000100
00001000
00000100
00000000
00000010
00000000
00001000
00000000
00010000
00000000
01000000
00000000
10000000
00000000
00100000
00000000
,
01000000
00100000
10000000
00000000
01000000
00000000
00100000
00000000
00010000
01000000
00100000
00000000
01000000
00000000
00100000
00000000
,
01100000
00000000
10100000
00000000
10010000
10010000
01001000
00000000
,
00010100
00000100
00001000
00000001
00000110
00000010
00001000
00000100
,
00001100
00000100
00010100
00010000
00011000
00001000
00101000
00100000
,
00010000
00100000
10000000
00010000
01000000
00100000
00010000
00001000
,
00001100
00001000
00001001
00000001
00000100
00000100
00000100
00000010
,
00001010
00001000
00000100
00010000
00011000
00001000
00100000
00010000
,
10010000
10000000
00100000
00010000
00011000
00001000
00010000
00000010
,
00001010
00001000
00001100
00000100
00010100
00010000
00011000
00001000
,
00100000
00010000
00100000
00000000
00100000
01000000
00100000
00000000
00100000
01000000
00100000
00010000
00100000
00001000
00010000
00000100
,
00001000
00000000
00000110
00000000
00001001
00001001
00001001
00001000
,
00001100
00000000
00010100
00000000
00011000
00000000
00101000
00000000
00100000
00000000
00010000
10000000
00100000
00000000
01000000
00000000
,
01100000
00000000
10100000
00000000
10010000
10010000
10010000
00010000
,
00110000
00000000
00101000
00000000
00011000
00000000
00010100
00000000
00000100
00000000
00001000
00000001
00000010
00000000
00000100
00000000
,
00001000
00001000
00001000
00001000
00002000
00000000
00000000
00000000
,
00003002
00000000
00000203
00000000
,
00000320
00000030
00000020
00000030
00002000
00003000
00002000
00003000
,
00000200
00010300
00020000
00031000
,
00100000
00001000
00100000
00000000
00100000
00010000
00100000
00000000
01000000
00000000
01000000
00000000
01000000
00000000
10000000
00000000
,
00100000
01000000
00100000
00010000
00002000
00000000
00023000
00000000
,
00030200
00000000
00001300
00000010
00000001
00000010
00002000
00000000
,
00003100
00000011
00000010
00001100
,
00000100
00000000
00000100
00000000
00010000
00010000
00010000
00010000
,
00020000
00001000
00031000
00100000
02000000
10000000
13000000
00100000
,
01100000
01000000
01001000
00001000
00101000
00001000
00011000
00010000
,
00010100
00000100
00001000
00000001
00001010
00001000
00000001
00000010
,
00000101
00000100
00000010
00001000
00000100
00000100
00000100
00010000
,
00011000
00001000
00101000
00100000
00110000
00010000
10010000
10000000
,
10000000
00100000
00010000
00100000
10000000
01000000
00100000
00001000
,
00011000
00010000
00010100
00000100
00001100
00001000
00001001
00000001
,
00000011
00000011
00001001
00001001
00001010
00010010
00011000
00101000
,
00100000
00010000
00100000
00000000
01000000
00000000
10000000
00000000
00010000
00100000
00010000
00000000
00100000
00000000
00001000
00000000
,
00010000
00001000
00010000
00000000
00001000
00000000
00010000
00000000
00000100
00001000
00000100
00000000
00000010
00000100
00000010
00000000
,
00000001
00000100
00000001
00000000
00000010
00000000
00000100
00000000
00010000
00001000
00010000
00000000
00000100
00000000
00001000
00000000
,
00000100
00010000
00000100
00000000
00010000
00000000
00001000
00000000
00100000
00010000
00100000
00000000
00010000
01000000
00010000
00000000
,
10000000
01000000
00100000
01000000
00100000
00000000
00001000
00000000
00100000
00001000
00010000
00001000
00010000
00000000
00000010
00000000
,
00001000
00000010
00000100
00000010
00000100
00000000
00000001
00000000
00000200
00000000
00002300
00000000
00023000
00000000
00230000
00000000
,
10300000
00010000
01000000
00100000
10000000
00000000
01000000
00000000
00100000
00010000
10000000
00100000
01000000
00000000
00001000
00000000
,
00010000
00001000
00010000
00000010
00000100
00000000
00000001
00000000
00000100
00000000
00000100
00000000
00000010
00000000
00000010
00000000
,
00001000
00000001
00001000
00000000
00000100
00010000
00000100
00000000
00100000
00001000
00100000
00000000
00010000
01000000
00010000
00000000
,
10000000
00010000
10000000
00000000
00100000
01000000
00100000
00000000
10000000
00000000
00100000
00000000
01000000
00000000
01010000
00000000
,
00010000
10000000
00010000
00000000
01000000
00001000
01000000
00000000
00001000
00010000
00001000
00000000
00000010
00000100
00000010
00000000
,
00000001
00000010
00000100
00000000
00010000
00001000
01000000
00000000
00010000
10000000
01000000
00000000
00100000
00001000
00010000
00000000
,
00000100
00001000
00000100
00000010
00000001
00000000
00000100
00000000
00000010
00001000
00000001
00000010
00000100
00000000
00010000
00000000
,
00001000
00010000
00001000
00100000
00010000
00000000
10000000
00000000
02000000
00000000
03200000
00000000
00320000
00000000
00032000
00000000
,
00003100
00000100
00000010
00000010
00000001
00000001
00001001
00001001
,
00001000
00000010
00000100
00000010
00010000
00000010
00001000
00000100
00010000
00001000
00100000
01000000
00100000
00010000
10000000
00100000
,
10000000
00000000
01010000
00000000
00110000
00110000
00110000
00100000
,
00101000
00000000
00011000
00000000
00010010
00000000
00001010
00000000
00001000
00000000
00000001
00000010
00000100
00000000
00000010
00000000
,
00000011
00000000
00001100
00000000
00001010
00001010
00001010
00000010
,
00010010
00000000
00011000
00000000
00101000
00000000
00110000
00000000
00010000
00000000
10000000
00100000
01000000
00000000
00001000
00000000
,
00011000
00000000
00010010
00000010
00000110
00000101
00001100
00000000
,
00010100
00000000
00011000
00000000
00101000
00000000
00110000
00000000
00100000
00000000
00010000
01000000
00100000
00000000
01000000
00000000
,
01010000
00000000
00110000
00100000
00101000
00011000
00010010
00000001
,
00001100
00000000
00000101
00000000
00000110
00000000
00001010
00000000
00000000
00000000
00001000
00000010
00000002
00000000
00000000
00000000
,
00000000
00000000
00000000
00000000
,
00000003
00000000
00000000
00000000
,
00000000
00000000
00000000
00000000
;
