
//----- song ID: towh -----//
#TITLE:Towards The Horizon;
#ARTIST:かめりあ;
#ARTISTTRANSLIT:Camellia;
#BANNER:Towards The Horizon.png;
#BACKGROUND:Towards The Horizon-bg.png;
#CDTITLE:./CDTitles/RB Reflesia.png;
#MUSIC:Towards The Horizon.ogg;
#SAMPLESTART:81.218;
#SAMPLELENGTH:15;
#DISPLAYBPM:154;
#BPMS:0=154.4;
#STAGE:3;
#NOTES:
     dance-single:
     :
     Beginner:
     3:
     :
0000
0000
0000
0000
,
0000
0000
0000
0000
,
0000
0000
0000
0000
,
0000
0000
0000
0000
,
0000
0000
0000
0000
,
0000
0000
0000
0000
,
0000
0000
0000
0000
,
1000
0000
0100
0000
,
0010
0000
0000
0000
,
0100
0000
0100
0000
,
0010
0000
0000
0000
,
0002
0000
0000
0000
,
0003
0000
0000
0000
,
0001
0000
0000
0000
,
0100
0000
0000
0000
,
0020
0000
0000
0000
,
0030
0000
0000
0000
,
0010
0000
1000
0000
,
1000
0000
0000
0000
,
1000
0000
1000
0000
,
0010
0000
0000
0000
,
0100
0000
0100
0000
,
0010
0000
0000
0000
,
1000
0000
0100
0000
,
0010
0000
0000
0000
,
0002
0000
0000
0000
,
0003
0000
0000
0000
,
0001
0000
0001
0000
,
0100
0000
0000
0000
,
0001
0000
0001
0000
,
0010
0000
0000
0000
,
0001
0000
0100
0000
,
0010
0000
0000
0000
,
1000
0000
0000
0000
,
0000
0000
0000
0000
,
2000
0000
0000
0000
,
3000
0000
0000
0000
,
0200
0000
0000
0000
,
0300
0000
0000
0000
,
2000
0000
0000
0000
,
3000
0000
0000
0000
,
0020
0000
0000
0000
,
0030
0000
0000
0000
,
1001
0000
0000
0000
,
0000
0000
0000
0000
,
1001
0000
0000
0000
,
0000
0000
0000
0000
,
0001
0000
0000
0000
,
0010
0000
0000
0000
,
0001
0000
0000
0000
,
0100
0000
0000
0000
,
0020
0000
0000
0000
,
0030
0000
0000
0000
,
0001
0000
0001
0000
,
0100
0000
0000
0000
,
1000
0000
0000
0000
,
0000
0000
0000
0000
,
1000
0000
1000
0000
,
0100
0000
0000
0000
,
0001
0000
0000
0000
,
0000
0000
0000
0000
,
0001
0000
0001
0000
,
0010
0000
0000
0000
,
1000
0000
0000
0000
,
0000
0000
0000
0000
,
1000
0000
1000
0000
,
0010
0000
0000
0000
,
0001
0000
0000
0000
,
0000
0000
0000
0000
,
1001
0000
0000
0000
,
1001
0000
0000
0000
,
0001
0000
0100
0000
,
0010
0000
0000
0000
,
1001
0000
0000
0000
,
1001
0000
0000
0000
,
1000
0000
0100
0000
,
0001
0000
1001
0000
,
0000
0000
0000
0000
;
#NOTES:
     dance-single:
     :
     Easy:
     7:
     :
0000
0000
0000
0000
,
0000
0000
0000
0000
,
0000
0000
0000
0000
,
0000
0000
0000
0000
,
0000
0000
0000
0000
,
0000
0000
0000
0000
,
0000
0000
0000
0000
,
1000
0000
0010
0000
0100
0001
0010
0000
,
0001
0000
0100
0000
0010
1000
0100
0000
,
1000
1000
0010
0010
,
0100
0000
0100
0000
0001
1000
0001
0000
,
0200
0000
0320
0000
,
1030
0000
0010
0000
0100
0001
0100
0000
,
0002
0000
2003
0000
,
3010
0100
0001
0001
,
2000
0000
3200
0000
,
0310
0000
0001
0000
0100
0010
0100
0000
,
0002
0000
2000
0000
,
3003
0000
0000
0000
,
1000
0000
0100
0000
0010
0010
0010
0000
,
0001
0000
0100
0000
0010
0010
0010
0000
,
1000
0001
0100
0010
,
0100
0001
1000
0000
,
0001
0000
1000
0000
0100
0100
0100
0000
,
1000
0000
0010
0000
0100
0100
0100
0000
,
0001
0010
0001
0100
,
0010
1000
0010
0000
,
1000
0000
0100
0000
0010
0001
0010
0000
,
0001
0000
0100
0000
0010
1000
0010
0000
,
1010
0000
0011
0000
,
1010
1000
1001
0000
,
0001
0000
0010
0000
0100
1000
0100
0000
,
1000
0000
0010
0000
0100
0001
0100
0000
,
0101
0000
1100
0000
,
0101
0001
1001
0000
,
2000
0000
3000
0000
,
0200
0000
0300
0000
,
0020
0000
0030
0000
,
0002
0000
0003
0000
,
0001
0100
0110
0000
,
1000
0100
0110
0000
,
0001
0010
0001
0100
,
0001
1000
0100
0000
,
0220
0000
0000
0000
,
0330
0000
0000
0000
,
2002
0000
0000
0000
,
3003
0000
0000
0000
,
1000
0010
1000
0010
,
0100
0000
0001
0000
0100
0001
1000
0000
,
0001
0010
0001
0010
,
0100
0000
1000
0000
0100
1000
0001
0000
,
2002
0000
0000
0000
,
3003
0000
0000
0000
,
1000
0100
0010
0000
0001
0100
0010
0000
,
1010
0001
1001
0000
,
1000
0000
0001
0000
0100
0010
0100
0000
,
0001
1000
0002
0000
0000
0000
0003
0000
,
0001
0100
0010
0000
1000
0100
0010
0000
,
0011
1000
1001
0000
,
0001
0000
1000
0000
0100
0010
0100
0000
,
1000
0001
1000
0000
1010
0000
1001
0000
,
0001
0010
0100
0000
1000
0010
0100
0000
,
0101
0010
0110
0000
,
1000
0010
0100
0001
,
1000
0001
2000
0000
0000
0000
3000
0000
,
2000
0000
3010
0100
0001
0000
1000
0000
,
0200
0000
0310
0001
0100
0000
0010
0000
,
2000
0000
0000
0000
,
3001
0000
0000
0000
,
1001
0000
0110
0000
,
1010
0001
0101
0000
,
1001
0000
0110
0000
,
0011
1000
1100
0000
,
0001
0010
1001
0000
,
1000
0010
1001
0000
,
1000
0000
0000
1000
0000
0000
0000
0000
0001
0000
0000
0001
0000
0000
0000
0000
,
0100
0000
0010
0200
0000
0000
0000
0000
,
0000
0000
0000
0000
,
0000
0000
0300
0000
,
0000
0000
0000
0000
;
#NOTES:
     dance-single:
     :
     Medium:
     11:
     :
0000
0000
0000
0000
,
0000
0000
0000
0000
,
0000
0000
0000
0000
,
0000
0000
0000
0000
,
0000
0000
0000
0000
,
0000
0000
0000
0000
,
0000
0000
0000
0000
,
0001
0100
0001
0010
0001
0000
0110
0000
,
1000
0100
1000
0010
1000
0000
0110
0000
,
0001
0000
0000
0001
0200
0000
0000
0000
1000
0000
0000
0000
0301
0000
0000
0000
,
1000
0000
0001
0010
0100
0000
1000
0010
,
0100
0000
0001
0100
0001
0000
1000
0010
,
1000
0100
0010
0100
0010
0000
0011
0000
,
1001
0000
1000
0010
1000
0000
0001
0010
,
0002
0010
0100
1003
,
1000
0100
1000
0100
0001
0100
1000
0000
,
0001
0100
0001
0100
1000
0100
0001
0000
,
2002
0000
0000
0000
,
3003
0000
0000
0000
,
1000
0000
0000
0000
0010
0000
0000
0000
0100
0001
0000
0100
0001
0000
0000
0000
,
0010
0000
0000
0000
0001
0000
0000
0000
1000
0100
0000
1000
0100
0000
0000
0000
,
0010
0000
0001
0000
0100
0001
0010
0000
,
0100
1000
0001
0000
0100
0000
1001
0000
,
0001
0000
0000
0000
0010
0000
0000
0000
0100
1000
0000
0100
1000
0000
0000
0000
,
0010
0000
0000
0000
1000
0000
0000
0000
0001
0100
0000
0001
0100
0000
0000
0000
,
0010
0000
1000
0000
0100
1000
0010
0000
,
0100
0001
1000
0000
0100
0000
1001
0000
,
1000
0100
0010
0001
0100
0001
0010
0000
,
0001
0100
0010
1000
0100
1000
0010
0000
,
1000
0000
0000
0100
0020
0000
0000
0000
0001
0000
0000
0000
1000
0000
0000
0000
,
0031
0000
0000
0000
1000
0001
1000
0000
,
0001
0010
0100
1000
0010
1000
0100
0000
,
1000
0010
0100
0001
0010
0001
0100
0000
,
0001
0000
0000
0010
0200
0000
0000
0000
1000
0000
0000
0000
0001
0000
0000
0000
,
1300
0000
0000
0000
0001
1000
0001
0000
,
2000
0000
3200
0000
,
0300
0010
0000
0001
0000
0010
0000
0000
0001
0000
0000
0000
0000
0000
0000
0000
,
0002
0000
0203
0000
,
0310
0000
0000
0010
0000
0000
1000
0000
0010
0000
0000
0000
0000
0000
0000
0000
,
0000
0110
1001
0000
,
0000
1000
0000
0010
0000
0100
0000
0000
0010
0000
0000
0000
0000
0000
0000
0000
,
2000
0000
3002
0000
,
0013
0000
0000
0100
0000
0000
0010
0000
0001
0000
0000
0000
0000
0000
0000
0000
,
2002
0000
0000
3003
,
0000
1000
0010
0000
1000
0100
0010
0001
,
1000
0000
0000
0001
0200
0000
0000
0000
,
0300
0000
0000
0000
,
0001
0000
0000
1000
0002
0000
0000
0000
,
0003
1000
0100
0000
1000
0001
0100
0010
,
1000
0000
0000
1000
0100
0000
0000
0100
,
0020
0030
0002
0003
,
2002
0000
0000
0000
,
3003
0000
0000
0000
,
1000
0010
0100
0001
1000
0100
0010
0001
,
1000
0100
1000
0100
0010
0001
0100
0001
,
0020
0000
0030
0000
0001
1000
0001
0000
,
0110
2002
0000
3003
,
0001
0100
0010
1000
0001
0010
0100
1000
,
0001
0010
0001
0010
0100
1000
0010
1000
,
0200
0000
0300
0000
1000
0001
1000
0000
,
0110
0000
1001
0000
0001
0010
0100
0000
,
1000
0010
1000
0100
0001
0100
1000
0001
,
0100
0010
1000
0100
0010
0100
1000
0000
,
0002
0100
2003
0100
,
3001
0010
0100
0000
1000
0010
0100
0000
,
0002
0000
0103
0010
1000
0000
1100
0000
,
2000
0000
3010
0100
0001
0000
0011
0000
,
1000
0100
0010
0001
1000
0100
0010
0001
,
0000
0000
0000
0000
,
1001
0000
0000
0000
1000
0100
0000
0010
0001
0000
1000
0000
0001
0000
0000
0000
,
1001
0000
0000
0000
0001
0100
0000
0010
1000
0000
0001
0000
1000
0000
0001
0000
,
0000
0001
0100
0000
1000
0100
0001
0000
,
0010
0001
0100
0010
1000
0000
1001
0000
,
0100
0100
1001
0000
1000
0100
0010
0100
,
1000
0000
0001
0010
1000
0010
0001
0000
,
1000
0000
0000
0110
0000
0000
0000
0000
0001
0000
0000
0110
0000
0000
0000
0000
,
1000
0000
0000
0010
0100
0000
0220
0000
0000
0000
0000
0000
0000
0000
0000
0000
,
0000
0000
0000
0000
,
0000
0000
0330
0000
,
0000
0000
0000
0000
;
#NOTES:
     dance-single:
     :
     Hard:
     15:
     :
0000
0000
0000
0000
,
0000
0000
0000
0000
,
0000
0000
0000
0000
,
0000
0000
0000
0000
,
0000
0000
0000
0000
,
0000
0000
0000
0000
,
0000
0000
0000
0000
,
1000
0000
0001
0100
0001
0100
0001
0100
0001
0000
1000
0000
0010
0000
1000
0000
,
0001
0000
1000
0100
1000
0100
1000
0100
1000
0001
1000
0000
0000
0000
1000
0100
,
0010
0000
0000
0010
0001
0000
0000
0000
0100
0000
0000
0001
0020
0000
0000
0000
,
0000
0000
0000
0000
0030
0000
0001
0100
0002
0000
0000
0000
0000
0000
1003
0000
,
0010
0000
1000
0000
0100
0000
1000
0001
0000
0000
0100
0000
0110
0000
0000
0000
,
0100
0000
0001
0000
0010
0000
0001
1000
0000
0000
0100
0000
0110
0000
0000
0000
,
0001
0000
0010
0000
0100
0000
1000
0010
0000
0000
1000
0000
1100
0000
0000
0000
,
1000
0000
0100
0000
0010
0000
0001
0100
0000
0000
0001
0000
0011
0000
0000
0000
,
1000
0100
0010
0000
0100
0000
1000
0000
0001
0100
0010
0000
0100
0000
0001
0000
,
1000
0001
0100
0000
0001
1000
0100
0000
0010
0001
1000
0000
0010
1000
0001
0000
,
1000
0100
1000
0001
0010
0001
0010
0000
0001
0100
0001
1000
0010
1000
0010
0000
,
0110
0000
0000
0000
,
1001
0000
0000
0000
1000
0000
0010
0000
0001
0010
0000
1000
0010
0100
0010
1000
,
0010
0000
0000
0000
1000
0000
0100
0000
0001
0100
0000
0010
0001
0010
0100
0010
,
0001
0000
0000
0000
1000
0000
0001
0000
0100
0010
0000
1000
0001
0100
0010
1000
,
0001
0000
0000
0000
1000
0000
0010
0100
0010
0000
0010
1000
0010
0000
0100
0000
,
0110
0000
0000
0000
0001
0000
0100
0000
1000
0100
0000
0001
0100
0010
0100
0001
,
0100
0000
0000
0000
0001
0000
0010
0000
1000
0010
0000
0100
1000
0100
0010
0100
,
1000
0000
0000
0000
0001
0000
0100
0010
1000
0000
0000
0000
0100
0000
0010
0001
,
0100
0000
1000
0000
0100
0000
0001
0010
0100
1000
0100
0010
0001
1000
0100
0010
,
0001
0000
0100
0010
1000
0010
0100
0001
0100
0000
0010
0000
0010
0000
0001
0000
,
1000
0000
0100
0010
0100
1000
0001
0010
0001
0000
0100
0000
0100
0000
1000
0000
,
0001
0000
0000
0001
0200
0000
0000
0000
1000
0000
0000
0000
0001
0000
0000
0000
,
0320
0000
0000
0000
0001
0000
0130
0001
1000
0000
0100
0000
1000
0000
0001
0000
,
1000
0000
0010
0100
0001
0100
0010
1000
0010
0000
0100
0000
0100
0000
1000
0000
,
0001
0000
0010
0100
0010
0001
1000
0100
1000
0010
1000
0000
0000
0000
0001
0000
,
1000
0000
0000
1000
0020
0000
0000
0000
0001
0000
0000
0000
1000
0000
0000
0000
,
0230
0000
0000
0000
1000
0000
0310
1000
0001
0000
0010
0000
0001
1000
0001
0000
,
0200
0000
0320
0000
,
1030
0001
1000
0001
0000
0001
0000
0001
0100
0000
0010
0000
0100
0000
0001
0000
,
2000
0000
0000
0000
3000
0000
0001
1000
0002
0000
0000
0000
0000
0000
0000
0000
,
0013
0000
0000
0010
0000
0000
0010
0000
0100
0010
0100
0000
0100
0000
0000
0000
,
0000
0000
0000
0000
1100
0000
1000
0001
0010
0001
0010
0000
0001
0000
0100
0000
,
0010
1000
0010
1000
0000
1000
0000
1000
0002
0000
0203
0000
2300
0000
3200
0000
,
0302
0000
0000
0000
0003
0000
0001
0010
0200
0000
0000
0000
0300
0000
0100
1000
,
0010
0000
0000
0010
0000
0100
0010
0100
0010
0000
1000
0001
0000
0100
0001
0000
,
2000
0000
0000
0000
3000
0000
0100
0010
0002
0000
0000
0000
0000
0000
0000
0000
,
0003
0000
0001
0000
0100
0010
0100
0000
0001
0000
0010
0000
0100
0000
1000
0000
,
0020
0000
0000
0000
0030
0000
0100
0010
2000
0000
0000
0000
3000
0000
0000
0000
,
1000
0001
0100
0110
0000
0000
1001
0000
,
0002
0000
0000
0000
0003
0000
0100
0010
2000
0000
0000
0000
0000
0000
0000
0000
,
3000
0000
1000
0000
0100
0010
0100
0000
1000
0000
0010
0000
0100
0000
0001
0000
,
0020
0000
0000
0000
0030
0000
0100
0010
0002
0000
0000
0000
0003
0000
0000
0000
,
0001
0010
0001
1000
0001
0010
0001
0000
1000
0100
1000
0001
1000
0100
1000
0000
,
2002
0000
0000
0000
,
3003
0000
0000
0000
2000
0000
0000
0000
3020
0000
0000
0000
0130
0001
0100
0001
,
0010
0001
0000
0001
0010
0100
1000
0000
0010
1000
0000
1000
0100
0010
0001
0000
,
1000
0010
0000
0010
0100
0001
0010
0000
0001
1000
0100
0000
1000
0010
0100
0000
,
0002
0000
0000
0000
0013
0000
1000
0010
0001
0000
1000
0000
0100
0010
0100
0010
,
0001
0000
1000
0010
1000
0000
0001
0010
0001
0000
0010
0000
0100
0000
1000
0000
,
0010
1000
0000
1000
0010
0100
0001
0000
0010
0001
0000
0001
0100
0010
1000
0000
,
0001
0010
0000
0010
0100
1000
0010
0000
1000
0001
0100
0000
0001
0010
0100
0000
,
2000
0000
0000
0000
3010
0000
0001
0010
1000
0000
0001
0000
0100
0010
0100
0010
,
1000
0000
0001
0010
0001
0000
1000
0010
1000
0000
0010
0100
0010
0100
0010
0000
,
1000
0010
0000
1000
0100
0010
0100
0010
0001
1000
0000
0001
0010
0100
0010
0100
,
1000
0001
0000
0100
0010
1000
0001
0100
0010
0000
0010
0000
1000
0000
1000
0000
,
0002
0000
0000
0000
0003
0000
0001
1000
0001
0000
0010
0000
0001
0100
0010
1000
,
0010
0000
1000
0100
1000
0000
0001
0010
0001
0000
1000
0000
0100
0010
0100
0010
,
0002
0000
0000
0000
0003
0000
0001
0100
0001
0000
1000
0000
0010
0000
1000
0000
,
0200
0000
0000
0000
0300
0000
0100
1000
0100
0000
1000
0000
0010
0000
1000
0000
,
0001
0100
0001
0100
0010
1000
0010
0000
1000
0100
1000
0100
0010
0001
0010
0000
,
1001
0000
0000
0000
,
1001
0000
0000
0000
0001
0100
0010
1000
0100
0000
1000
0010
0100
0001
0010
0100
,
1000
0000
0000
0000
0001
0010
0100
1000
0010
0000
0100
0000
0010
0000
1001
0000
,
0000
0000
1001
0000
0100
0010
0000
0010
0100
0000
0000
0000
0010
0100
0010
0000
,
1001
0000
0001
0010
0000
0100
1000
0000
0001
0100
0010
1000
0010
0100
0001
0000
,
1000
0000
0000
0000
0110
0000
0000
0001
0100
0000
0001
0010
0001
1000
0010
1000
,
0001
0000
0000
0000
1000
0100
0000
0100
1000
0000
1000
0000
0002
0000
0000
0000
,
1003
0000
0000
1010
0000
0000
0010
1000
0100
0010
0001
0100
0010
1000
0100
0000
,
0001
0000
0000
0100
1000
0000
2002
0000
0000
0000
0000
0000
0000
0000
0000
0000
,
0000
0000
0000
0000
,
0000
0000
3003
0000
,
0000
0000
0000
0000
;
#NOTES:
     dance-double:
     :
     Easy:
     7:
     :
00000000
00000000
00000000
00000000
,
00000000
00000000
00000000
00000000
,
00000000
00000000
00000000
00000000
,
00000000
00000000
00000000
00000000
,
00000000
00000000
00000000
00000000
,
00000000
00000000
00000000
00000000
,
00000000
00000000
00000000
00000000
,
00000001
00000000
00000100
00000000
00000010
00001000
00000010
00000000
,
00001000
00000000
00000100
00000000
00010000
00001000
00010000
00000000
,
00001000
00001000
00010000
00010000
,
00001000
00100000
00010000
00000000
,
20000000
00000000
30020000
00000000
,
10030000
00000000
01000000
00000000
00100000
01000000
00100000
00000000
,
00002000
00000000
00023000
00000000
,
00031000
00010000
00000100
00000100
,
00002000
00000000
00003002
00000000
,
00000013
00000000
00000001
00000000
00000100
00000010
00000100
00000000
,
00000002
00000000
00002000
00000000
,
00003003
00000000
00000000
00000000
,
00000001
00000000
00000100
00000000
00000001
00000010
00000001
00000000
,
00000100
00001000
00010000
00100000
,
10000000
00010000
00100000
10000000
,
00100000
00010000
10010000
00000000
,
10000000
00000000
00100000
00000000
10000000
01000000
10000000
00000000
,
00100000
00010000
00001000
00000100
,
00000001
00001000
00000100
00000001
,
00000100
00001000
00001001
00000000
,
00000001
00000000
00001000
00000000
00000010
00001000
00000100
00000000
,
00000010
00000000
00000100
00000000
00010000
00001000
00010000
00000000
,
00001000
00001000
01000000
01000000
,
00010000
00100000
01100000
00000000
,
10000000
00000000
00010000
00000000
01000000
00010000
00100000
00000000
,
01000000
00000000
00100000
00000000
00001000
00010000
00001000
00000000
,
00010000
00010000
00000010
00000010
,
00001000
00000100
00000110
00000000
,
00000002
00000000
00000003
00000000
,
00000020
00000000
00000030
00000000
,
00002000
00000000
00003000
00000000
,
00020000
00000000
00030000
00000000
,
01000000
00000000
01100000
00000000
,
10000000
01000000
10010000
00000000
,
10000000
01000000
00100000
00001000
,
00010000
00001000
00010000
00000000
,
00022000
00000000
00000000
00000000
,
00033000
00000000
00000000
00000000
,
00000220
00000000
00000000
00000000
,
00000330
00000000
00000000
00000000
,
00000001
00000010
00000100
00000000
,
00001000
00000010
00000100
00000000
,
00000001
00000100
00001000
00010000
,
00001000
00001000
00010000
00000000
,
00022000
00000000
00000000
00000000
,
00033000
00000000
00000000
00000000
,
00001000
01000000
00010000
00000000
00100000
00000000
00010000
00000000
,
10000000
01000000
00100000
00000000
00010000
00000000
10000000
00000000
,
00200000
00000000
00300000
00000000
00100000
01000000
00100000
00000000
,
10000000
20020000
00000000
30030000
,
10000000
00010000
00100000
00000000
01000000
00000000
10000000
00000000
,
01000000
00100000
00010000
00000000
00100000
00000000
00001000
00000000
,
00011000
00000000
00010010
00000000
,
00011000
00000000
00011000
00000000
00001000
00010000
00001000
00000000
,
00010000
00000010
00001000
00000000
00000100
00000000
00001000
00000000
,
00000001
00000010
00000100
00000000
00001000
00000000
00000001
00000000
,
00000200
00000000
00000300
00000000
00000100
00000010
00000100
00000000
,
00000001
00002002
00000000
00003003
,
00000001
00000000
00001000
00000100
00000010
00000000
00000001
00000000
,
00000010
00000000
00000100
00001000
00000100
00000000
00010000
00000000
,
00002000
00000000
00020000
00033000
,
00011000
00000000
00000000
00000000
,
00001000
00010000
00100000
10000000
,
00100000
01000000
00100000
00000000
01100000
00000000
00000000
00000000
,
10000000
01000000
00100000
00001000
,
00010000
00001000
00010000
00000000
00011000
00000000
00000000
00000000
,
00010000
00001000
00000100
00000000
,
00000001
00000010
00000110
00000000
,
00000001
00000100
00001000
00010000
,
00011000
00000000
00010000
00002000
00000000
00000000
00000000
00000000
,
00000000
00000000
00000000
00000000
,
00000000
00000000
00003000
00000000
,
00000000
00000000
00000000
00000000
;
#NOTES:
     dance-double:
     :
     Medium:
     11:
     :
00000000
00000000
00000000
00000000
,
00000000
00000000
00000000
00000000
,
00000000
00000000
00000000
00000000
,
00000000
00000000
00000000
00000000
,
00000000
00000000
00000000
00000000
,
00000000
00000000
00000000
00000000
,
00000000
00000000
00000000
00000000
,
00000001
00000010
00000001
00000010
00000100
00000000
00010000
00000000
,
00001000
00010000
00001000
00100000
00010000
00000000
01000000
00000000
,
00100000
00000000
00000000
00100000
20000000
00000000
00000000
00000000
30010000
00000000
00000000
00010000
02000000
00000000
00000000
00000000
,
03000000
00000000
00000000
01000000
00100000
00000000
10000000
00000000
,
01000000
00100000
01000000
00000000
00100000
00010000
00100000
00000000
,
00001000
00010000
00001000
00010000
00000100
00001000
00000010
00000000
,
00001000
00000100
00001000
00000000
00000001
00000100
00000001
00000000
,
00000010
00000001
00000100
00000010
00001000
00000000
00001001
00000000
,
00000001
00000100
00000001
00000100
00001000
00000100
00001000
00000000
,
00010000
00001000
00010000
00100000
00010000
00100000
10000000
00000000
,
20020000
00000000
00000000
00000000
,
30030000
00000000
00000000
00000000
,
10010000
00000000
00000000
00000000
00010000
00000000
00000000
00000000
00100000
00001000
00000000
00100000
00001000
00000000
00000000
00000000
,
00010000
00000000
00000000
00000000
00011000
00000000
00000000
00000000
00000100
00010000
00000000
00000100
00010000
00000000
00000000
00000000
,
00000100
00000000
00001000
00000000
00000010
00000001
00000010
00000000
,
00001000
00000000
00000100
00000000
00000010
00000001
00001000
00000000
,
00001001
00000000
00000000
00000000
00001000
00000000
00000000
00000000
00000010
00010000
00000000
00000010
00010000
00000000
00000000
00000000
,
00001000
00000000
00000000
00000000
00011000
00000000
00000000
00000000
01000000
00001000
00000000
01000000
00001000
00000000
00000000
00000000
,
01000000
00000000
00010000
00000000
00100000
10000000
00100000
00000000
,
00010000
00000000
01000000
00000000
00100000
10000000
00010000
00000000
,
10000000
01000000
00100000
00010000
01000000
00100000
10000000
00000000
,
01000000
00100000
00010000
00100000
00001000
00010000
00001000
00000000
,
00010000
00000000
00000000
00010000
00000100
00000000
00000000
00000000
00001000
00000000
00000000
00001000
00000020
00000000
00000000
00000000
,
00001000
00000000
00000001
00000000
00001030
00000001
00001000
00000000
,
00000001
00000010
00000100
00001000
00000010
00000100
00000001
00000000
,
00000010
00000100
00001000
00000100
00010000
00001000
00010000
00000000
,
00001000
00000000
00000000
00001000
00100000
00000000
00000000
00000000
00010000
00000000
00000000
00010000
02000000
00000000
00000000
00000000
,
00010000
00000000
10000000
00000000
03010000
10000000
00010000
00000000
,
20000000
00000000
32000000
00000000
,
03000000
00100000
00000000
00001000
00000000
00010000
00000000
00000000
00011000
00000000
00000000
00000000
00000000
00000000
00000000
00000000
,
00020000
00000000
00030020
00000000
,
00001030
00000000
00000000
00001000
00000000
00000000
00000001
00000000
00001000
00000000
00000000
00000000
00000000
00000000
00000000
00000000
,
00000000
00000110
00001001
00000000
,
00000000
00000001
00000000
00001000
00000000
00000100
00000000
00000000
00001100
00000000
00000000
00000000
00000000
00000000
00000000
00000000
,
00002000
00000000
00003200
00000000
,
00010300
00000000
00000000
00010000
00000000
00000000
00001000
00000000
00010000
00000000
00000000
00000000
00000000
00000000
00000000
00000000
,
00022000
00000000
00000000
00033000
,
00000000
00001000
00100000
00000000
00010000
01000000
10000000
00000000
,
02000000
00000000
00000000
00100000
00200000
00000000
00000000
00000000
,
03300000
00000000
00000000
00000000
,
20000000
00000000
00020000
00000000
,
30030000
00010000
01000000
00000000
00010000
00100000
00001000
00010000
,
00001000
00000000
00000000
00001000
00000010
00000000
00000000
00000010
,
00000002
00000000
00002000
00003003
,
00002002
00000000
00000000
00000000
,
00003003
00000000
00000000
00000000
,
00000001
00000100
00000010
00001000
00000100
00000010
00001000
00010000
,
01000000
00100000
00010000
10000000
00100000
01000000
00010000
00000000
,
20000000
00000000
31000000
00000000
00010000
00001000
00010000
00000000
,
00100000
20000000
00010000
30010000
,
10000000
00100000
01000000
00010000
00100000
01000000
00010000
00001000
,
00000010
00000100
00001000
00000001
00000100
00000010
00001000
00000000
,
00000002
00000000
00000013
00000000
00001000
00010000
00001000
00000000
,
00000100
00000110
00000001
00001001
,
00001000
00000010
00000100
00001000
00010000
00000100
00001000
00000010
,
00001000
00000100
00010000
00001000
00100000
00010000
01000000
00000000
,
00200000
00000000
00310000
00000000
00100000
10000000
01000000
00000000
,
00010000
01000000
00100000
00000000
00010000
00000000
10010000
00000000
,
20000000
00000000
30100000
01000000
00010000
01000000
00100000
00000000
,
20000000
00000000
31000000
00100000
00001000
00010000
00001000
00000000
,
00010000
00000100
00001000
00000010
00000100
00000001
00000010
00000001
,
00000000
00000000
00000000
00000000
,
00001001
00000000
00000000
00000000
00000001
00000100
00000000
00000001
00000100
00000000
00000010
00000000
00001000
00000000
00000100
00000000
,
00001000
00000000
00000000
00000000
00000100
00010000
00000000
00001000
00010000
00000000
00010000
00000000
00001000
00000000
00011000
00000000
,
00000000
00001000
00010000
00000000
00100000
10000000
00100000
00000000
,
00010000
00001000
00010000
01000000
10000000
00000000
10010000
00000000
,
00100000
00000000
00000000
00000000
10010000
00000000
00000000
00000000
10000000
00000000
01000000
00000000
00010000
00000000
00000000
00010000
,
00001000
00000000
00011000
00000000
00010000
00001000
00000010
00000000
,
00000001
00000000
00000000
00000001
00000000
00000000
00000001
00000000
00001000
00000000
00000000
00001000
00000000
00000000
00001000
00000000
,
00000100
00000000
00000000
00010000
00001000
00000000
00022000
00000000
00000000
00000000
00000000
00000000
00000000
00000000
00000000
00000000
,
00000000
00000000
00000000
00000000
,
00000000
00000000
00033000
00000000
,
00000000
00000000
00000000
00000000
;
#NOTES:
     dance-double:
     :
     Hard:
     16:
     :
00000000
00000000
00000000
00000000
,
00000000
00000000
00000000
00000000
,
00000000
00000000
00000000
00000000
,
00000000
00000000
00000000
00000000
,
00000000
00000000
00000000
00000000
,
00000000
00000000
00000000
00000000
,
00000000
00000000
00000000
00000000
,
10000000
00000000
00010000
00100000
00010000
00000000
10000000
00100000
10000000
00000000
01000000
00000000
00010000
00000000
00001000
00000000
,
00000010
00000000
00000001
00000100
00000001
00000000
00001000
00000100
00001000
00000010
00001000
00000000
00000000
00000000
00000010
00000000
,
00001000
00000000
00000000
00001000
00000001
00000000
00000000
00000000
00000010
00000000
00000000
00000010
00002000
00000000
00000000
00000000
,
00020000
00000000
00000000
00033000
,
00001000
00000000
00010000
00000000
00100000
00000000
10000000
00100000
00000000
00000000
01000000
00000000
00010000
00000000
01000000
00000000
,
10000000
00000000
01000000
00000000
00100000
00000000
00010000
00001000
00000000
00000000
00010000
00000000
00011000
00000000
00000000
00000000
,
00010000
00000000
00001000
00000000
00000010
00000000
00000001
00000010
00000000
00000000
00000100
00000000
00001000
00000000
00000100
00000000
,
00000001
00000000
00000100
00000000
00000010
00000000
00001000
00010000
00000000
00000000
00001000
00000000
00011000
00000000
00000000
00000000
,
00001000
00000000
00010000
00000000
01000000
00000000
10000000
00100000
10000000
00000000
01000000
00000000
00010000
00000000
01000000
00100000
,
01000000
00000000
00100000
00001000
00010000
00000000
00000010
00001000
00000100
00000000
00000001
00000000
00000100
00000000
00000000
00000000
,
00000010
00000001
00001000
00000010
00010000
00001000
01000000
00010000
10000000
01000000
00100000
00010000
10000000
00000000
00000000
00000000
,
10010000
00000000
00000000
00000000
,
10010000
00000000
00000000
00000000
10000000
00000000
01000000
00000000
00100000
00001000
00000000
00001000
00010000
00001000
00010000
00001000
,
00010000
00000000
00000000
00000000
00000010
00000000
00001000
00000000
00000100
00000010
00000000
00000010
00000001
00000010
00000001
00000010
,
00000001
00000000
00000000
00000000
00001000
00000000
00000001
00000000
00000100
00001000
00000000
00010000
00100000
00000000
10000000
00010000
,
10000000
00000000
00000000
00000000
10010000
00000000
10000000
01000000
00010000
00000000
00001000
00000010
00000001
00000000
00001000
00000000
,
00001001
00000000
00000000
00000000
00000001
00000000
00000100
00000000
00000010
00010000
00000000
00010000
00001000
00010000
00001000
00010000
,
00001000
00000000
00000000
00000000
00100000
00000000
00010000
00000000
01000000
00100000
00000000
00100000
10000000
00100000
10000000
00100000
,
10000000
00000000
00000000
00000000
00010000
00000000
10000000
00000000
01000000
00010000
00000000
00001000
00000010
00000000
00000001
00001000
,
00000001
00000000
00000000
00000000
00001001
00000000
00000001
00000100
00001000
00000000
00010000
00100000
10000000
00000000
00010000
00000000
,
10000000
00000000
00100000
01000000
00010000
01000000
00010000
01000000
00100000
00000000
00010000
00000000
00001000
00000000
00010000
00000000
,
00000100
00000000
00001000
00000100
00000010
00000100
00000010
00000100
00001000
00000000
00000001
00000000
00000100
00000000
00001000
00000000
,
00000100
00000000
00000000
00000100
00000002
00000000
00000000
00000000
00000013
00000000
00000000
00000010
00002000
00000000
00000000
00000000
,
00023000
00000000
00000000
00000000
01030000
00000000
10000000
00010000
10000000
00000000
00100000
00000000
01100000
00000000
00000000
00000000
,
10000000
00000000
00010000
01000000
00010000
00100000
00010000
00100000
00001000
00000000
00010000
00000000
00001000
00000000
00000100
00000000
,
00000010
00000000
00001000
00000100
00000010
00000100
00000010
00000001
00001000
00000010
00001000
00000000
00000000
00000000
00000010
00000000
,
00001000
00000000
00000000
00001000
00000200
00000000
00000000
00000000
00010300
00000000
00000000
00010000
00002000
00000000
00000000
00000000
,
00203000
00000000
00000000
00000000
01300000
00000000
10000000
00010000
10000000
00000000
00100000
00000000
00010000
00000000
00001000
00000000
,
00020000
00000000
00032000
00000000
,
00013000
00100000
00010000
00100000
00000000
00010000
00000000
00001000
00000100
00000000
00001000
00000000
00000000
00000000
00000000
00000000
,
00020000
00000000
00000000
00000000
00030000
00000000
00001000
00010000
00002000
00000000
00000000
00000000
00000000
00000000
00000000
00000000
,
00013000
00000000
00000000
00010000
00000000
00000000
00010000
00000000
00001000
00000010
00001000
00000000
00010000
00000000
00000000
00000000
,
00000000
00011000
00020000
00000000
,
00031000
00000010
00001000
00000010
00000000
00001000
00000000
00010000
01000000
00000000
00010000
00000000
00000000
00000000
00000000
00000000
,
00002000
00000000
00000000
00000000
00003000
00000000
00010000
00001000
00020000
00000000
00000000
00000000
00000000
00000000
00000000
00000000
,
00031000
00000000
00000000
00001000
00000000
00010000
00100000
00010000
00100000
00000000
00010000
00001000
00000000
00010000
00001000
00000000
,
00020000
00000000
00000000
00000000
00000000
00000000
00030100
00001000
00000020
00000000
00000000
00000000
00000000
00000000
00000000
00000000
,
00000030
00000000
00000010
00000000
00001000
00000100
00001000
00000000
00000010
00000000
00010000
00000000
00001000
00000000
01000000
00000000
,
00020000
00000000
00000000
00000000
00000000
00000000
00130000
01000000
00200000
00000000
00000000
00000000
00000000
00000000
00000000
00000000
,
00301000
00010000
00000100
00010000
00000000
00000000
00011000
00000000
,
00002000
00000000
00000000
00000000
00000000
00000000
00103000
00010000
02000000
00000000
00000000
00000000
00000000
00000000
00000000
00000000
,
03000000
00000000
01000000
00000000
00010000
00100000
00010000
00000000
01000000
00000000
00001000
00000000
00010000
00000000
00000010
00000000
,
00002000
00000000
00000000
00000000
00000000
00000000
00003100
00000010
00000200
00000000
00000000
00000000
00000000
00000000
00010300
00001000
,
00020000
00000000
00002000
00033000
,
00022000
00000000
00000000
00000000
,
00033000
00000000
00000000
00000000
,
00001000
00010000
00000000
00010000
00100000
10000000
01000000
00100000
00010000
10000000
00000000
10000000
01000000
00010000
00001000
00000000
,
00000010
00000001
00000000
00000001
00000100
00001000
00000100
00000000
00000001
00000000
00000010
00000000
00001000
00000000
00010000
00000000
,
00011000
00000000
00000000
00000000
00001000
00000000
01000000
00100000
00010000
00000000
00001000
00000100
00000010
00000000
00001000
00000100
,
00000010
00000000
00001000
00010000
01000000
00000000
00100000
00001000
00010000
00000000
00001000
00000000
00011000
00000000
00000000
00000000
,
00010000
00001000
00000000
00001000
00000010
00000001
00000100
00000010
00001000
00000001
00000000
00000001
00000100
00001000
00010000
00000000
,
00100000
10000000
00000000
10000000
01000000
00010000
01000000
00000000
10000000
00000000
00100000
00000000
00010000
00000000
00001000
00000000
,
00011000
00000000
00000000
00000000
00010000
00000000
00000100
00000010
00001000
00000000
00010000
01000000
00100000
00000000
00010000
01000000
,
00200000
00000000
00000000
00000000
00320000
00000000
00000000
00000000
00031000
00000000
00010000
00001000
00010000
00001000
00010000
00000000
,
00001000
00000010
00000000
00000001
00001000
00000100
00000010
00000001
00000100
00001000
00000000
00010000
00100000
10000000
00010000
01000000
,
00100000
10000000
00000000
01000000
00010000
00001000
00000010
00000001
00001000
00000000
00000100
00000000
00000010
00000000
00000000
00000000
,
00000002
00000000
00000000
00000000
00001003
00000000
00000010
00000100
00000010
00000000
00001000
00000001
00001000
00000000
00000000
00000000
,
00000001
00000010
00002000
00000000
00013000
01000000
20000000
00000000
,
30020000
00000000
00000000
00000000
00030000
00000000
00010000
00100000
00010000
00000000
10000000
00000000
01000000
00000000
00100000
00000000
,
00002000
00000000
00000000
00000000
00003000
00000000
00001000
00010000
00001000
00000000
00000010
00000000
00000001
00000000
00000000
00000000
,
00000001
00000100
00000001
00001000
00000010
00001000
00000100
00010000
00001000
00100000
00010000
00100000
01000000
10000000
00010000
00000000
,
10010000
00000000
00000000
00000000
,
10010000
00000000
00000000
00000000
10000000
00100000
00000000
00010000
00001000
00000000
00010000
01000000
00010000
00001000
00000010
00000000
,
00001001
00000000
00000000
00000000
00000001
00000010
00000000
00001000
00010000
00000000
00001000
00000100
00001000
00000000
00011000
00000000
,
00000000
00000000
00011000
00000000
01000000
00100000
00000000
00100000
01000000
00000000
00000000
00000000
00011000
00000000
00000000
00000010
,
00000100
00000000
00000100
00000010
00000000
00000000
00000110
00000000
00000001
00001000
00000001
00000000
00001000
00000001
00000000
00000000
,
00000010
00000001
00000010
00000000
00001001
00000000
00000000
00000001
00000100
00000000
00001000
00010000
00100000
00000000
00000000
10000000
,
00010000
00000000
00000000
00000000
10000000
01000000
00000000
00010000
00001000
00000000
00000010
00000000
00000002
00000000
00000000
00000000
,
00001003
00000000
00000000
00001001
00000000
00000000
00000001
00000100
00000010
00001000
00010000
01000000
00100000
10000000
00010000
00000000
,
10000000
00000000
00000000
00100000
00010000
00000000
00002000
00000000
00000000
00000000
00000000
00000000
00000000
00000000
00000000
00000000
,
00000000
00000000
00000000
00000000
,
00000000
00000000
00003000
00000000
,
00000000
00000000
00000000
00000000
;
