
//----- song ID: tknt -----//
#TITLE:とこにゃつ☆トロピカル;
#ARTIST:Dormir;
#TITLETRANSLIT:Tokonyatsu☆tropical;
#BANNER:Tokonyatsu tropical.png;
#BACKGROUND:Tokonyatsu tropical-bg.png;
#CDTITLE:./CDTitles/NOSTALGIA FORTE.png;
#MUSIC:Tokonyatsu tropical.ogg;
#SAMPLESTART:53.182;
#SAMPLELENGTH:15;
#BPMS:0=132;
#STAGE:16;
#NOTES:
     dance-single:
     :
     Beginner:
     3:
     :
0000
0000
0000
0000
,
0000
0000
0000
0000
,
0000
0000
0000
0000
,
0001
0000
1000
0000
,
0001
0000
0000
0000
,
0100
0000
0010
0000
,
0100
0000
0000
0000
,
0001
0000
0100
0000
,
0020
0000
0000
0030
,
1000
0000
0100
0000
,
0020
0000
0000
0030
,
0001
0000
0010
0000
,
0001
0000
0010
0000
,
0100
0000
1000
0000
,
0100
0000
1000
0000
,
0001
0000
0010
0000
,
0200
0000
0300
0000
,
1000
0000
0001
0000
,
0200
0000
0300
0000
,
0010
0000
0100
0000
,
0110
0000
0000
0000
,
1000
0000
0100
0000
,
1000
0000
0000
0000
,
0001
0000
0010
0000
,
0001
0000
0000
0000
,
1000
0000
0100
0000
,
0010
0000
0000
0000
,
0001
0000
1000
0000
,
1001
0000
0000
0000
,
0001
0000
1000
0000
,
0010
0010
0010
0000
,
0100
0100
0100
0000
,
0001
0001
0001
0000
,
1000
0000
0100
0000
,
1000
1000
1000
0000
,
0001
0001
0001
0000
,
0100
0100
0100
0000
,
0010
0000
1000
0000
,
0010
0010
0010
0000
,
0100
0100
0100
0000
,
0001
0001
0001
0000
,
1000
0000
0010
0000
,
1000
1000
1000
0000
,
0100
0100
0100
0000
,
0010
0010
0010
0000
,
0001
0000
1000
0000
,
0002
0000
0003
0000
,
0200
0000
0300
0000
,
0020
0000
0000
0000
,
0030
0000
0100
0000
,
0001
0000
0100
0000
,
0001
0000
0100
0000
,
0010
0000
1000
0000
,
0001
0000
1000
0000
,
0200
0000
0300
0000
,
0020
0000
0030
0000
,
0002
0000
0000
0000
,
0003
0000
1000
0000
,
0001
0001
0001
0000
,
1000
1000
1000
0000
,
0100
0000
0010
0000
,
0110
0000
0000
0000
,
0000
0000
0000
0000
;
#NOTES:
     dance-single:
     :
     Easy:
     7:
     :
0000
0000
0000
0000
,
0000
0000
0000
0000
,
0000
0000
0000
0000
,
1000
0100
0010
0001
,
1000
0000
1000
0000
,
0001
0010
0100
1000
,
0001
0000
0001
0000
,
0200
0000
0310
1000
,
0200
0000
0300
0010
,
0002
0000
0103
0010
,
2000
0000
3000
0000
,
0001
0100
0010
1000
,
0001
0001
0010
0100
,
1000
0010
0100
0001
,
1000
1000
0100
0010
,
0002
0000
1003
0010
,
0200
0000
0300
0001
,
0020
0000
0130
1000
,
0020
0000
1030
0001
,
0100
0000
0010
0000
,
0110
0000
1001
0000
,
1000
0010
0100
0010
,
1000
0100
0010
0000
,
0001
0100
0001
0010
,
0001
0010
0100
0000
,
1000
0010
1000
0100
,
0010
0001
0100
0000
,
0001
0100
0010
1000
,
1001
0000
0110
0000
,
0000
0002
2003
3020
,
0130
0000
0100
0000
0010
0100
0010
0000
,
1000
0000
1000
0000
0001
1000
0001
0000
,
1000
0000
0100
0000
0010
0001
0010
0000
,
0000
0200
2300
3002
,
0103
0000
0100
0000
0001
0100
0001
0000
,
1000
0000
1000
0000
0010
1000
0010
0000
,
0100
0000
0100
0000
0001
1000
0001
0000
,
0000
0002
0023
0230
,
1300
0000
0001
0000
1000
0001
1000
0000
,
0010
0000
0100
0000
0010
0100
0010
0000
,
1000
0000
0001
0000
0010
0100
0010
0000
,
0000
0002
0203
0320
,
1030
0000
0010
0000
0100
0001
0100
0000
,
0001
0000
0010
0000
0100
1000
0100
0000
,
1000
0000
0001
0000
0010
0100
0010
0000
,
0002
2003
3200
0320
,
0032
0000
0000
0103
,
0020
0000
2030
3002
,
0203
0000
0000
0000
,
0300
0000
0000
0010
0100
0000
0001
0000
,
1000
0100
0110
0000
,
0001
0010
0110
0000
,
1000
0100
0010
0100
,
1000
0001
0100
0001
,
0020
0000
0000
0130
,
2000
0000
0000
3001
,
0200
0000
0000
0000
,
0300
0000
0001
1000
,
0001
0010
0001
0000
0100
0000
0000
0000
,
0010
1000
0010
0000
0100
0000
0000
0000
,
0001
0010
0100
1000
,
1001
0000
0000
0000
0000
0000
0000
0110
0000
0000
0000
0000
0000
0000
0000
0000
,
0000
0000
0000
0000
;
#NOTES:
     dance-single:
     :
     Medium:
     12:
     :
0000
0000
0000
0000
,
0000
0000
0000
0000
,
0000
0000
0000
0000
,
0000
0001
0001
0100
0100
0010
0010
1000
,
0001
0000
0100
0000
0001
0000
0000
0010
0000
0010
0000
0000
0100
0000
0000
0000
,
0000
1000
1000
0100
0100
0010
0010
0001
,
1000
0000
0100
0000
1000
0000
0000
0010
0000
0010
0000
0000
0100
0000
0000
0000
,
0002
0000
0000
0000
0010
0000
0000
0000
1003
0000
0010
0100
0000
0001
0000
0010
,
0200
0000
0000
0000
0001
0000
0000
0000
1000
0000
0000
0000
0310
0001
0000
0000
,
2000
0000
0000
0000
0010
0000
0000
0000
3001
0000
0010
0100
0000
1000
0000
0001
,
0020
1000
0100
0031
,
0000
1000
0100
0010
0001
0100
0010
1000
,
0001
0000
0100
0000
0001
0100
0000
0010
0000
1000
0000
0000
0100
0000
0000
0000
,
0000
0010
0001
0100
0010
1000
0100
0010
,
0001
0000
0100
0000
0010
1000
0000
0010
0000
0100
0000
0000
0001
0000
0000
0000
,
1000
0000
0000
0000
0010
0000
0000
0000
1000
0000
0001
0100
0000
0001
0000
1000
,
0100
0000
0000
0000
0010
0000
0000
0000
0001
0000
0000
0000
0100
0010
0000
0000
,
0100
0000
0000
0000
0001
0000
0000
0000
0010
0000
0001
1000
0000
0010
0000
0100
,
0010
1000
0100
0010
,
0001
1000
0100
0000
0010
0001
0100
0000
,
0010
0100
0010
0000
0000
1000
0000
0001
0100
0000
0000
0000
0000
0000
0000
0000
,
0000
0000
0001
0000
0010
0000
0001
0000
1000
0000
0000
0100
0000
0000
0001
0000
,
0200
0000
0000
2300
0000
0000
3010
0000
,
1000
0000
0001
0000
0000
0000
0100
0000
0001
0000
0000
0100
0000
0000
1000
0000
,
0200
0000
0000
0302
0000
0000
1003
0000
,
0100
0000
2000
0000
0000
0000
3001
0000
0100
0000
0000
1000
0000
0000
0100
0000
,
0020
0000
0000
1030
0002
0000
1003
0000
,
0100
0000
0010
0000
0001
0010
0000
0001
0000
0100
0010
0000
0100
0000
0001
0000
,
1000
0000
0001
1000
0000
0010
0000
0100
0010
0000
0000
0000
0000
0000
0000
0000
,
0000
2000
3200
0320
,
0031
0000
1000
0000
0001
0000
0100
0010
0000
0100
0000
0010
1000
0000
0000
0000
,
0100
0000
0010
0001
0000
0010
0000
0001
0000
0100
0000
0010
0100
0000
0000
0000
,
0000
0000
0001
0000
0010
0100
0000
0010
0000
0001
0000
1000
0001
0000
0000
0000
,
0000
0101
0110
1010
,
1000
0000
0100
0000
1000
0000
0001
0010
0000
0001
0000
0100
0010
0000
0000
0000
,
0000
0000
0100
0000
0010
0100
0000
0001
0000
0010
0000
0100
1000
0000
0000
0000
,
0000
0000
0010
0000
0100
0010
0000
1000
0000
0100
0000
0010
0001
0000
0000
0000
,
0000
1001
0101
1010
,
1000
0000
0001
0000
1000
0000
0010
0100
0000
0010
0000
0100
0001
0000
0000
0000
,
0010
0000
0100
1000
0000
0100
0000
1000
0000
0010
0000
0100
0010
0000
0000
0000
,
0000
0000
1000
0000
0100
0010
0000
0100
0000
1000
0000
0001
1000
0000
0000
0000
,
0000
1100
0110
0011
,
0001
0000
0100
0000
0001
0000
1000
0010
0000
1000
0000
0100
0010
0000
0000
0000
,
0000
0000
0100
0000
1000
0100
0000
0010
0000
0001
0000
1000
0001
0000
0000
0000
,
0000
0000
0100
0000
0010
0100
0000
0001
0000
0100
0000
0010
1000
0000
0000
0000
,
1100
0110
0011
1001
,
2000
0010
0100
3002
,
0023
0100
0032
0203
,
0320
1000
0001
0100
,
1030
0000
0001
0100
0010
0000
1001
0000
,
1000
0000
0100
0000
0010
0001
0000
0010
0000
0001
0000
1000
0010
0000
0100
0000
,
0001
0000
0010
0000
0100
1000
0000
0100
0000
1000
0000
0001
0010
0000
0100
0000
,
1000
0000
0000
0000
0001
0000
0000
0100
0000
0100
0000
0100
0010
0000
0000
0000
,
1000
0000
0001
0100
0010
1000
0100
0010
,
0002
0000
0000
0103
,
2000
0000
0000
3100
,
0020
0000
0000
0000
,
0030
0000
0000
0100
0001
0000
0010
0000
,
0001
0000
1000
0000
0010
0100
0000
0010
0000
1000
0000
0010
0100
0000
0000
0000
,
0010
0000
1000
0000
0001
0100
0000
0001
0000
1000
0000
0100
0010
0000
0000
0000
,
0001
0000
0100
0000
0010
1000
0000
0100
0000
0010
0000
0001
0100
0000
0010
0000
,
1000
0100
0000
0000
0000
0000
0000
1001
0000
0000
0000
0000
0000
0000
0000
0000
,
0000
0000
0000
0000
;
#NOTES:
     dance-single:
     :
     Hard:
     15:
     :
0000
0000
0000
0000
,
0000
0000
0000
0000
,
0000
0000
0000
0000
,
0001
0000
1000
0100
1000
0000
0100
0010
0100
0000
0010
0001
0010
0000
0001
0000
,
1000
0000
0010
0100
0010
0100
0000
0001
0000
1000
0000
0100
1000
0000
0001
0010
,
0100
0000
0010
0001
0010
0000
0001
1000
0001
0000
1000
0010
1000
0000
0010
0000
,
0100
0000
0001
0010
0001
0010
0000
0100
0000
0010
0000
0001
0100
0000
0010
1000
,
0001
0000
1000
0100
0010
0100
0000
1000
0100
0000
0010
0100
0000
1000
0000
0001
,
0100
0000
0010
0100
0001
0100
0000
0010
0000
0100
0001
0100
0010
0100
0000
0000
,
0010
0000
1000
0100
0010
0001
0000
0100
0010
0000
1000
0100
0010
0001
0000
0100
,
0010
0000
1000
0100
0010
0001
0000
0100
0000
0010
1000
0001
0100
0010
0000
1000
,
0010
0000
0100
0010
1000
0000
0001
0010
0100
0000
1000
0001
0100
0000
0010
0000
,
1000
0000
0001
0100
0001
0100
0000
0010
0000
1000
0000
0010
0100
0000
0001
0010
,
0100
0000
1000
0001
0100
0000
0010
1000
0001
0000
0010
0100
1000
0000
0001
0000
,
0010
0000
0100
1000
0100
1000
0000
0010
0000
0100
0000
0001
0100
0000
0010
1000
,
0001
0000
0100
0010
1000
0100
0000
0010
0001
0000
0100
0010
0000
1000
0000
0100
,
0010
0000
0001
0100
0010
1000
0000
0010
0000
1000
0100
0010
0100
1000
0100
0010
,
0001
0000
0100
0010
1000
0100
0000
0010
0001
0000
0100
0010
0000
1000
0000
0001
,
1000
0000
0001
0010
0100
0010
0000
0001
0000
1000
0001
0010
0100
1000
0100
0010
,
0001
0000
1000
0100
0010
0001
0000
0100
0000
0010
1000
0100
0010
0001
0100
0010
,
1000
0010
0100
0000
0000
0010
0000
1000
1000
0000
0000
0000
0000
0000
0000
0000
,
0001
0000
1001
0000
1001
0000
1000
0010
0000
0010
0000
0100
0010
0000
1000
0010
,
1000
0000
1010
0000
1010
0000
0010
0100
0000
0100
0000
0001
0010
0000
0001
0010
,
0001
0000
0011
0000
0011
0000
0001
1000
0000
1000
0000
0010
1000
0000
0100
1000
,
0100
0000
1100
0000
1100
0000
1000
0001
0000
1000
0001
0100
0001
0010
0100
1000
,
0001
0000
1001
0000
1001
0000
1000
0100
0000
0100
0000
0010
0100
0000
1000
0100
,
1000
0000
1100
0000
1100
0000
0100
0010
0000
0010
0000
0001
1000
0000
0001
0100
,
0001
0000
1000
0000
1000
0001
0000
0100
0000
0001
0010
0000
0001
0000
1000
0010
,
0100
0000
0001
0001
0000
1000
0000
0100
0100
0000
0000
0000
0000
0000
0000
0000
,
0000
2000
3002
0203
,
0310
0000
1000
0000
0100
0000
1000
0010
1000
0100
1000
0010
1000
0000
0001
0000
,
0100
0000
0001
0010
0000
0100
0000
0010
0000
0001
1000
0100
1000
0000
0010
0000
,
0100
0000
0010
1000
0100
0010
0000
0100
0000
1000
0001
0100
0001
0000
1000
0000
,
0001
0000
1000
0000
0100
0000
0010
0000
0001
0100
0010
1000
0100
0010
0001
0000
,
1000
0000
0001
0000
0100
0000
0001
0010
0001
0100
0001
0010
0001
0000
1000
0000
,
0100
0000
1000
0000
0010
0100
0000
0010
0000
1000
0001
0100
0001
0000
0010
0000
,
0100
0000
0010
0001
1000
0100
0000
1000
0000
0001
0100
0010
0100
0000
0001
0000
,
1000
0000
0001
0000
0010
0100
1000
0010
0100
0001
0010
0100
1000
0010
0100
0000
,
0001
0000
1000
0000
1010
0000
0010
1000
0100
1000
0010
1000
0100
0000
1100
0000
,
1000
0000
0001
0000
0100
0010
0000
0100
0000
0001
0010
0100
1000
0000
0001
0000
,
1000
0000
0100
0010
0001
0010
0000
0001
0000
1000
0010
0100
0010
0000
1000
0000
,
0001
0000
0100
0000
0010
1000
0100
0010
0001
0100
0010
1000
0100
0010
0001
0000
,
1000
0000
0001
0000
0011
0000
0010
0001
0100
0001
0010
0001
0100
0000
0101
0000
,
0001
0000
1000
0000
0100
0010
0000
0001
0000
0100
0010
1000
0100
0000
1000
0000
,
0001
0000
0010
0100
1000
0010
0000
0100
0000
0001
1000
0100
0010
0000
0001
0000
,
1000
0100
0010
0001
1000
0100
1000
0001
0010
0100
1000
0001
0010
0001
0100
0010
,
1000
0000
0001
0000
0100
0010
0000
0100
0000
0001
0010
0100
1000
0000
0001
0100
,
0001
0000
1000
0000
0010
0100
0000
0010
0000
1000
0100
0010
0001
0000
1000
0010
,
1000
0000
0001
0100
0000
0010
0000
1000
0000
0001
0010
0100
0010
0001
1000
0010
,
0100
0000
0001
1000
0000
0100
0000
0110
0000
0000
1000
0000
0001
0010
0000
0010
,
0100
0000
1000
0000
0001
0100
0000
0001
0000
1000
0100
0010
0001
0000
1000
0010
,
0100
0000
0001
0000
1000
0100
0000
1000
0000
0001
0010
0100
1000
0000
0001
0000
,
0100
0010
0000
0010
1000
1000
0000
0001
0000
0001
0000
0001
0010
0010
0000
0000
,
0010
0001
0000
0001
0100
0010
1000
0001
0010
0100
1000
0001
0000
1000
0000
0100
,
0002
0000
0000
0103
,
2000
0000
0000
3010
,
0020
0000
0000
0000
,
0030
0000
0000
1000
0001
0000
0010
0000
,
0001
0000
0010
0000
0100
1000
0000
1010
0000
0010
1000
0010
0100
0000
0001
0010
,
0100
0000
0010
0000
0001
0100
0000
0101
0000
0001
0010
0001
1000
0000
0010
1000
,
0001
0010
0100
1000
0001
0100
0000
0100
0000
0010
0000
1000
0001
0000
0001
0000
,
1000
1000
0000
0001
0000
0100
0010
0100
0000
0000
0000
0000
0000
0000
0000
0000
,
0000
0000
0000
0000
;
#NOTES:
     dance-double:
     :
     Easy:
     6:
     :
00000000
00000000
00000000
00000000
,
00000000
00000000
00000000
00000000
,
00000000
00000000
00000000
00000000
,
00000001
00001000
00000100
00010000
,
00001000
00000000
00001000
00000000
,
00100000
00010000
10000000
00010000
,
01000000
00000000
01000000
00000000
,
00002000
00000000
00013000
00000010
,
00002000
00000000
00003000
00000001
,
00000020
00000000
00000031
00001000
,
00000200
00000000
00000300
00000000
,
00010000
00001000
01000000
00010000
,
10000000
10000000
00100000
01000000
,
00010000
01000000
00001000
00010000
,
00000100
00000100
00001000
00000100
,
00000020
00000000
00000031
00001000
,
00000200
00000000
00000300
00010000
,
00002000
00000000
00103000
00010000
,
20000000
00000000
30010000
01000000
,
00010000
00000000
00100000
00000000
,
00001000
00000000
00011000
00000000
,
00010000
00001000
00000100
00000001
,
00000100
00001000
00010000
00000000
,
00001000
00010000
00100000
10000000
,
00100000
00010000
00001000
00000000
,
00010000
00001000
00000010
00000001
,
00000010
00001000
00010000
00000000
,
00001000
00010000
01000000
10000000
,
00010000
00000000
10010000
00000000
,
00000000
20000000
32000000
03200000
,
00310000
00010000
00100000
00001000
,
00010000
00010000
00000010
00001000
,
00000001
00001000
00000100
00000100
,
00000000
00020000
00032000
02003000
,
03010000
00010000
10000000
00010000
,
01000000
01000000
00001000
00010000
,
00000100
00001000
00000001
00000001
,
00000000
00002000
00003020
00020030
,
00031000
00010000
01000000
01000000
,
10000000
00100000
10000000
10000000
,
01000000
00010000
00001000
00001000
,
00000000
00020000
00032000
00003020
,
00000031
00000100
00001000
00001000
,
00010000
00001000
00010000
00010000
,
00100000
10000000
00010000
00010000
,
20000000
32000000
03020000
00032000
,
00003020
00000000
00000000
00000031
,
00002000
00000000
00003002
00000203
,
00002300
00000000
00000000
00000000
,
00003000
00000000
00010000
00001000
,
00100000
00010000
00110000
00000000
,
10000000
00100000
10100000
00000000
,
10000000
01000000
00010000
00001000
,
00010000
00001000
00000100
00000001
,
00002000
00000000
00000000
00003100
,
00020000
00000000
00000000
00031000
,
02000000
00000000
00000000
00000000
,
03000000
00000000
00010000
10000000
,
00100000
01000000
00100000
00000000
01000000
00000000
00000000
00000000
,
00001000
00010000
00001000
00000000
00010000
00000000
00000000
00000000
,
00000010
00001000
00000001
00001000
,
00001001
00000000
00000000
00000000
00000000
00000000
00000000
00011000
00000000
00000000
00000000
00000000
00000000
00000000
00000000
00000000
,
00000000
00000000
00000000
00000000
;
#NOTES:
     dance-double:
     :
     Medium:
     12:
     :
00000000
00000000
00000000
00000000
,
00000000
00000000
00000000
00000000
,
00000000
00000000
00000000
00000000
,
00000000
10000000
10000000
00010000
00010000
00100000
00100000
00001000
,
00010000
00000000
00000100
00000000
00010000
00000000
00000000
00000010
00000000
00000010
00000000
00000000
00001000
00000000
00000000
00000000
,
00000000
00000001
00000001
00001000
00001000
00000100
00000100
00010000
,
00001000
00000000
00100000
00000000
00001000
00000000
00000000
01000000
00000000
01000000
00000000
00000000
00010000
00000000
00000000
00000000
,
20000000
00000000
00000000
00000000
00100000
00000000
00000000
00000000
30010000
00000000
10000000
01000000
00000000
00010000
00000000
00001000
,
00020000
00000000
00000000
00000000
00000010
00000000
00000000
00000000
00001000
00000000
00000000
00000000
00030100
00001000
00000000
00000000
,
00000002
00000000
00000000
00000000
00000010
00000000
00000000
00000000
00001003
00000000
00000001
00000100
00000000
00001000
00000000
00010000
,
00002000
00100000
00010000
01003000
,
00000000
00001000
00100000
00010000
01000000
00100000
10000000
01000000
,
00100000
00000000
00010000
00000000
00100000
00001000
00000000
00010000
00000000
00001000
00000000
00000000
00010000
00000000
00000000
00000000
,
00000000
00000010
00001000
00000100
00000010
00000001
00000100
00000010
,
00001000
00000000
00000100
00000000
00010000
00001000
00000000
00010000
00000000
01000000
00000000
00000000
10000000
00000000
00000000
00000000
,
00010000
00000000
00000000
00000000
01000000
00000000
00000000
00000000
00010000
00000000
00100000
00001000
00000000
00010000
00000000
00000100
,
00001000
00000000
00000000
00000000
00000001
00000000
00000000
00000000
00000010
00000000
00000000
00000000
00001000
00010000
00000000
00000000
,
00001000
00000000
00000000
00000000
00010000
00000000
00000000
00000000
01000000
00000000
10000000
01000000
00000000
00100000
00000000
00010000
,
00100000
00001000
00010000
00000010
,
00001000
00000001
00000100
00000000
00000010
00001000
00000100
00000000
,
00010000
00001000
00010000
00000000
00000000
00001000
00000000
01000000
00010000
00000000
00000000
00000000
00000000
00000000
00000000
00000000
,
00000000
00000000
10000000
00000000
00100000
00000000
10000000
00000000
00010000
00000000
00000000
01000000
00000000
00000000
00001000
00000000
,
00020000
00000000
00000000
00032000
00000000
00000000
00003100
00000000
,
00000001
00000000
00001000
00000000
00000000
00000000
00000001
00000000
00000100
00000000
00000000
00001000
00000000
00000000
00010000
00000000
,
00002000
00000000
00000000
00023000
00000000
00000000
01030000
00000000
,
10000000
00000000
00200000
00000000
00000000
00000000
01300000
00000000
00010000
00000000
00000000
00100000
00000000
00000000
00001000
00000000
,
00020000
00000000
00000000
00030010
00002000
00000000
00003100
00000000
,
00000010
00000000
00000001
00000000
00001000
00000100
00000000
00001000
00000000
00000100
00010000
00000000
00001000
00000000
01000000
00000000
,
00010000
00000000
01000000
00010000
00000000
10000000
00000000
00100000
10000000
00000000
00000000
00000000
00000000
00000000
00000000
00000000
,
00000000
02000000
03020000
00032000
,
00003010
00000000
00000001
00000000
00000100
00000000
00000010
00001000
00000000
00000010
00000000
00010000
00001000
00000000
00000000
00000000
,
01000000
00000000
00010000
00100000
00000000
00010000
00000000
10000000
00000000
00100000
00000000
10000000
00100000
00000000
00000000
00000000
,
00000000
00000000
01000000
00000000
00010000
00100000
00000000
00001000
00000000
00010000
00000000
00001000
00010000
00000000
00000000
00000000
,
00000000
00011000
00010100
00001100
,
00001000
00000000
00000001
00000000
00000010
00000000
00001000
00010000
00000000
00001000
00000000
00010000
01000000
00000000
00000000
00000000
,
00000000
00000000
10000000
00000000
00100000
01000000
00000000
00100000
00000000
00010000
00000000
00001000
00000100
00000000
00000000
00000000
,
00000000
00000000
00000001
00000000
00000100
00000010
00000000
00000100
00000000
00001000
00000000
00010000
00100000
00000000
00000000
00000000
,
00000000
10010000
01010000
10100000
,
00100000
00000000
10000000
00000000
01000000
00000000
00100000
00010000
00000000
00100000
00000000
00001000
00010000
00000000
00000000
00000000
,
00000100
00000000
00001000
00000010
00000000
00001000
00000000
00000001
00000000
00000010
00000000
00000001
00000010
00000000
00000000
00000000
,
00000000
00000000
00000100
00000000
00001000
00000010
00000000
00010000
00000000
00001000
00000000
00010000
00001000
00000000
00000000
00000000
,
00000000
00011000
00101000
00110000
,
00010000
00000000
10000000
00000000
00100000
00000000
00010000
00001000
00000000
00010000
00000000
00001000
00000100
00000000
00000000
00000000
,
00000000
00000000
00000001
00000000
00000010
00000100
00000000
00000010
00000000
00001000
00000000
00010000
01000000
00000000
00000000
00000000
,
00000000
00000000
10000000
00000000
01000000
00100000
00000000
01000000
00000000
00010000
00000000
00001000
00000010
00000000
00000000
00000000
,
00000001
00001000
00010000
10000000
,
00020000
00100000
01000000
00032000
,
00003200
00001000
00000320
00000032
,
00002003
00000010
00000001
00000100
,
00013000
01000000
00010000
10010000
,
10000000
00000000
01000000
00000000
00100000
00010000
00000000
00100000
00000000
00001000
00000000
00010000
00001000
00000000
00000100
00000000
,
00000001
00000000
00000010
00000000
00000100
00001000
00000000
00000100
00000000
00010000
00000000
00001000
00010000
00000000
00100000
00000000
,
10000000
00000000
00000000
00000000
00010000
00000000
00000000
00100000
00000000
00100000
00000000
00100000
00001000
00000000
00000000
00000000
,
00010000
00000000
00000010
00001000
00000100
00000010
00000001
00000100
,
00000020
00000000
00000000
00010030
,
00002000
00000000
00000000
00103000
,
00020000
00000000
00000000
00000000
,
00030000
00000000
00000000
10000000
00010000
00000000
01000000
00000000
,
00001000
00000000
00010000
00000000
00000100
00001000
00000000
00000100
00000000
00000010
00000000
00000001
00001000
00000000
00000000
00000000
,
00000100
00000000
00010000
00000000
00001000
00100000
00000000
00010000
00000000
00100000
00000000
01000000
10000000
00000000
00000000
00000000
,
01000000
00000000
00010000
00000000
00001000
00010000
00000000
00001000
00000000
00000100
00000000
00000001
00000100
00000000
00000010
00000000
,
00001000
00000001
00000000
00000000
00000000
00000000
00000000
00011000
00000000
00000000
00000000
00000000
00000000
00000000
00000000
00000000
,
00000000
00000000
00000000
00000000
;
#NOTES:
     dance-double:
     :
     Hard:
     15:
     :
00000000
00000000
00000000
00000000
,
00000000
00000000
00000000
00000000
,
00000000
00000000
00000000
00000000
,
00000001
00000000
00001000
00000100
00001000
00000000
00000100
00010000
00000100
00000000
00010000
00001000
00010000
00000000
00001000
00000000
,
00100000
00000000
00010000
01000000
00010000
01000000
00000000
00100000
00000000
10000000
00000000
01000000
00100000
00000000
00010000
00000000
,
10000000
00000000
00010000
01000000
00010000
00000000
01000000
00001000
01000000
00000000
00001000
00010000
00001000
00000000
00010000
00000000
,
00000010
00000000
00001000
00000100
00001000
00000100
00000000
00000010
00000000
00000001
00000000
00000100
00000010
00000000
00001000
00000000
,
00000001
00000000
00000100
00000010
00000100
00000001
00000000
00001000
00000100
00000000
00010000
00001000
00000000
01000000
00000000
00010000
,
10000000
00000000
01000000
00100000
01000000
10000000
00000000
00010000
00000000
00100000
00001000
00100000
00001000
00010000
00000000
00000000
,
00000100
00000000
00001000
00000100
00000010
00000001
00000000
00000100
00000010
00000000
00001000
00000100
00010000
00001000
00000000
00100000
,
00010000
00000000
01000000
00100000
10000000
01000000
00000000
00100000
00000000
00010000
01000000
00001000
00010000
00001000
00000000
00010000
,
00000100
00000000
00001000
00000010
00000100
00000000
00000001
00000010
00000100
00000000
00001000
00000100
00010000
00000000
00001000
00000000
,
01000000
00000000
00010000
00100000
00010000
00100000
00000000
00010000
00000000
10000000
00000000
00100000
01000000
00000000
00010000
00100000
,
01000000
00000000
10000000
00100000
01000000
00000000
00010000
00100000
00001000
00000000
00010000
00000010
00001000
00000000
00000100
00000000
,
00000010
00000000
00000001
00001000
00000001
00001000
00000000
00000100
00000000
00000010
00000000
00000001
00001000
00000000
00000100
00000000
,
00010000
00000000
00001000
01000000
00010000
00100000
00000000
01000000
10000000
00000000
00100000
01000000
00000000
00010000
00000000
00100000
,
00001000
00000000
00010000
00000100
00001000
00000010
00000000
00000100
00000000
00000001
00001000
00000100
00001000
00000001
00001000
00000100
,
00010000
00000000
00001000
00100000
00010000
01000000
00000000
00100000
10000000
00000000
01000000
00100000
00000000
00010000
00000000
01000000
,
00100000
00000000
10000000
01000000
00100000
00010000
00000000
01000000
00000000
00001000
00100000
00001000
00010000
00001000
01000000
00001000
,
00010000
00000000
00000010
00001000
00000100
00000010
00000000
00000001
00000000
00001000
00000010
00010000
00001000
00010000
00001000
00100000
,
00010000
10000000
00010000
00000000
00000000
10000000
00000000
00100000
00100000
00000000
00000000
00000000
00000000
00000000
00000000
00000000
,
10000000
00000000
00010000
00000000
00010000
00000000
00100000
00001000
00000000
00001000
00000000
00010000
00001000
00000000
00010000
00000010
,
00001000
00000000
00000001
00000000
00000001
00000000
00000010
00000100
00000000
00000100
00000000
00001000
00000100
00000000
00010000
00001000
,
01000000
00000000
00010000
00000000
00010000
00000000
10000000
00100000
00000000
00100000
00000000
01000000
00100000
00000000
10000000
01000000
,
00100000
00000000
00010000
00000000
00010000
00000000
00100000
00001000
00000000
00010000
00000100
00001000
00000100
00000010
00000001
00001000
,
00000001
00000000
00001000
00000000
00001000
00000000
00000010
00010000
00000000
00010000
00000000
00001000
00010000
00000000
00001000
00100000
,
00010000
00000000
10000000
00000000
10000000
00000000
00100000
01000000
00000000
01000000
00000000
00010000
01000000
00000000
00001000
00010000
,
00000100
00000000
00001000
00000000
00001000
00000010
00000000
00000100
00000000
00000001
00000010
00000000
00000001
00000000
00001000
00000000
,
00000001
00000000
00000100
00001000
00000000
00010000
00000000
01000000
10000000
00000000
00000000
00000000
00000000
00000000
00000000
00000000
,
00000000
20000000
32000000
03020000
,
00031000
00000000
00010000
00000000
00000100
00000000
00001000
00000010
00001000
00000100
00001000
00000010
00001000
00000000
00000000
00000000
,
00000001
00000000
00000010
00001000
00000000
00010000
00000000
00001000
00000000
00010000
01000000
10000000
01000000
00000000
00000000
00000000
,
00000000
00000000
10000000
01000000
00100000
00010000
00000000
01000000
00000000
00100000
10000000
01000000
00100000
00000000
00010000
00000000
,
10000000
00000000
00100000
00000000
00010000
00000000
00001000
00000000
00010000
00000100
00001000
00000000
00000100
00010000
00001000
00000000
,
00010000
00000000
00001000
00000000
01000000
00000000
00010000
00100000
00010000
01000000
00010000
00100000
00010000
00000000
00000000
00000000
,
10000000
00000000
00100000
00010000
00000000
00001000
00000000
00010000
00000000
00001000
00000100
00000001
00000100
00000000
00000000
00000000
,
00000000
00000000
00000001
00000100
00000010
00001000
00000000
00000100
00000000
00000010
00000001
00000100
00000010
00000000
00001000
00000000
,
00000001
00000000
00000010
00000000
00001000
00000000
00010000
00000000
00001000
01000000
00010000
00000000
01000000
00001000
00010000
00000000
,
00001000
00000000
00010000
00000000
00010010
00000000
00000010
00001000
00000100
00001000
00000010
00001000
00000100
00000000
00001100
00000000
,
00001000
00000000
00000001
00000000
00000100
00000010
00000000
00001000
00000000
00000100
00010000
00001000
00100000
00000000
00010000
00000000
,
10000000
00000000
00100000
01000000
00010000
01000000
00000000
00001000
00000000
00010000
00000010
00001000
00000010
00000000
00000100
00000000
,
00000001
00000000
00001000
00000000
00000100
00000000
00010000
00000000
00001000
00100000
00010000
00000000
00100000
00001000
00010000
00000000
,
00001000
00000000
01000000
00000000
01001000
00000000
01000000
00010000
00100000
00010000
01000000
00010000
00100000
00000000
00110000
00000000
,
00010000
00000000
10000000
00000000
01000000
00100000
00000000
00010000
00000000
01000000
00001000
00010000
00000010
00000000
00001000
00000000
,
00000001
00000000
00000010
00000100
00001000
00000100
00000000
00010000
00000000
00001000
00100000
00010000
00100000
00000000
01000000
00000000
,
10000000
00100000
01000000
00010000
00100000
00001000
00010000
00000000
00000100
00001000
00000010
00000100
00000001
00000010
00000100
00000000
,
00000010
00000000
00001000
00000000
00010000
00100000
00000000
10000000
00000000
01000000
10000000
00100000
01000000
00000000
00100000
00000000
,
10000000
00000000
01000000
00000000
10000000
00100000
00000000
00010000
00000000
00100000
10000000
01000000
00010000
00000000
01000000
00000000
,
00010000
00000000
00001000
00000010
00000000
00001000
00000000
00010000
00000000
00100000
00010000
00001000
00010000
00001000
00000100
00000000
,
00000001
00000000
00000010
00001000
00000000
00010000
00001000
00000000
00020000
00000000
00000000
00000000
00032000
00000000
00000000
00000000
,
00013000
00000000
00100000
00000000
10000000
01000000
00000000
00010000
00000000
00001000
00000100
00001000
00010000
00000000
00001000
00000000
,
00000100
00000000
00000001
00000000
00000010
00001000
00000000
00010000
00000000
00001000
00010000
00100000
00010000
00000000
00001000
00000000
,
00010000
01000000
00000000
01000000
10000000
00010000
00000000
10000000
00000000
01000000
00000000
00010000
00001000
00010000
00000000
00000000
,
00001000
00000010
00000000
00000010
00000001
00000100
00001000
00010000
01000000
00010000
00001000
00000100
00000000
00000001
00000000
00000010
,
00002000
00000000
00000000
00013000
,
00200000
00000000
00000000
10300000
,
02000000
00000000
00000000
00000000
,
03000000
00000000
00000000
00010000
00001000
00000000
00010000
00000000
,
00001000
00000000
00000100
00000000
00001000
00010000
00000000
01000000
00000000
00010000
00001000
00000010
00001000
00000000
00010000
00000000
,
00001000
00000000
00010000
00000000
00100000
00010000
00000000
00001000
00000000
00000100
00001000
00010000
00001000
00000000
00010000
00000000
,
01000000
10000000
00100000
00010000
00001000
00010000
00000000
00001000
00000000
00000100
00000000
00000001
00000010
00000000
00000010
00000000
,
00000001
00001000
00000000
00010000
00000000
10000000
00010000
10000000
00000000
00000000
00000000
00000000
00000000
00000000
00000000
00000000
,
00000000
00000000
00000000
00000000
;
