
//----- song ID: toka -----//
#TITLE:都会征服Girls☆;
#ARTIST:日向美ビタースイーツ♪;
#TITLETRANSLIT:Tokai seifuku Girls☆;
#ARTISTTRANSLIT:Hinatabi Bitter Sweets♪;
#BANNER:Tokai seifuku Girls.png;
#BACKGROUND:Tokai seifuku Girls-bg.png;
#CDTITLE:./CDTitles/jubeat saucer fulfill.png;
#MUSIC:Tokai seifuku Girls.ogg;
#SAMPLESTART:63.001;
#SAMPLELENGTH:15;
#BPMS:0=140;
#BGSTAGE:1;
#NOTES:
     dance-single:
     :
     Beginner:
     2:
     :
0000
0000
0000
0000
,
0000
0000
0000
0000
,
0000
0000
0000
0000
,
0001
0000
0000
0000
,
0001
0000
0000
0000
,
0001
0000
0000
0000
,
0001
0000
0000
0000
,
1000
0000
0000
0000
,
1000
0000
0000
0000
,
1000
0000
0000
0000
,
1000
0000
0000
0000
,
0010
0000
0000
0000
,
0000
0000
0000
0000
,
0010
0000
0000
0000
,
0000
0000
0000
0000
,
0100
0000
0000
0000
,
0000
0000
0000
0000
,
0100
0000
0000
0000
,
0000
0000
0000
0000
,
0010
0000
0000
0000
,
0010
0000
0000
0000
,
0100
0000
0000
0000
,
0100
0000
0000
0000
,
0010
0000
0000
0000
,
0010
0000
0000
0000
,
0100
0000
0000
0000
,
0100
0000
0000
0000
,
0001
0000
0001
0000
,
0100
0000
0000
0000
,
0010
0000
0010
0000
,
1000
0000
0000
0000
,
0001
0000
0001
0000
,
1000
0000
1000
0000
,
0010
0000
0010
0000
,
0010
0000
0010
0000
,
1000
0000
0001
0000
,
1000
0000
0001
0000
,
0010
0000
0010
0000
,
0010
0000
0000
0000
,
0100
0000
0100
0000
,
0100
0000
0000
0000
,
1000
0000
0000
0000
,
1000
0000
0000
0000
,
0001
0000
0000
0000
,
0001
0000
0000
0000
,
0100
0000
0100
0000
,
0100
0000
0000
0000
,
0010
0000
0010
0000
,
0010
0000
0000
0000
,
1000
0000
0000
0000
,
1000
0000
0000
0000
,
0001
0000
0000
0000
,
0001
0000
0000
0000
,
0010
0000
0000
0000
,
0100
0000
0000
0000
,
1000
0000
0000
0000
,
1000
0000
1000
0000
,
0001
0000
0000
0000
,
0001
0000
0001
0000
,
0010
0000
0000
0000
,
0010
0000
0010
0000
,
0100
0000
0000
0000
,
1000
0000
0000
0000
,
0001
0000
0000
1001
,
0000
0000
0000
0000
;
#NOTES:
     dance-single:
     :
     Easy:
     4:
     :
0000
0000
0000
0000
,
0000
0000
0000
0000
,
0000
0000
0000
0000
,
0001
0100
0002
0003
,
0020
0030
0200
0300
,
1000
0010
2000
3000
,
0200
0300
0010
0010
,
0001
1000
0002
0003
,
2000
3000
0002
0003
,
0110
0000
1001
0000
,
1000
0001
1000
0000
,
0010
1000
0100
0000
,
0010
0001
0100
0000
,
0001
0000
1000
0000
,
0010
0010
0100
0100
,
0020
0000
0000
0030
,
0200
0000
0000
0300
,
0010
0000
0100
0000
,
0001
0001
1000
1000
,
0010
0000
0010
0000
,
0100
0000
0100
0000
,
0001
0000
1000
0000
,
1100
0000
0011
0000
,
0001
0000
0001
0000
,
1000
0000
1000
0000
,
0200
0000
0000
0300
,
0020
0000
0000
0030
,
0001
0000
0001
0000
,
0001
1000
0001
0000
,
0100
0000
0100
0000
,
0100
0010
0100
0000
,
0001
0000
1001
0000
,
1000
0000
1001
0000
,
2000
3000
0200
0300
,
0010
0010
0020
0030
,
0011
0000
1001
0000
,
0100
0100
1001
0000
,
2000
3000
0020
0030
,
0200
0300
0010
0010
,
0200
0300
0002
0003
,
2000
0000
0000
3000
,
0010
0000
0100
0000
,
0001
1000
0001
0000
,
1000
0100
0010
0000
,
0001
0100
0010
0000
,
0200
0300
0020
0030
,
2000
3000
0001
0001
,
2000
3000
0200
0300
,
0020
0000
0000
0030
,
0001
0000
0001
0000
,
1000
0100
1000
0000
,
0001
0000
0001
0000
,
0100
0001
0100
0000
,
0010
0000
0010
0000
,
0100
0000
0000
1001
,
1000
0001
2000
3000
,
0002
0003
2000
3000
,
0010
0100
0020
0030
,
0200
0300
0110
0110
,
0001
1000
0002
0003
,
2000
3000
0002
0003
,
1001
0000
0110
0000
,
0010
0100
1001
0000
,
0000
0000
0000
1001
,
0000
0000
0000
0000
;
#NOTES:
     dance-single:
     :
     Medium:
     10:
     :
0000
0000
0000
0000
,
0000
0000
0000
0000
,
0000
0000
0000
0000
,
1000
0000
0100
0000
1000
0000
0000
0010
0000
0000
0100
0000
0100
0000
0000
0001
,
0000
0000
0010
0000
0010
0000
0000
0100
0000
0000
1000
0000
0100
0000
0000
0000
,
0010
0000
0001
0000
0010
0000
0000
0100
0000
0000
1000
0000
1000
0000
0000
0010
,
0000
0100
0010
0100
0010
0000
0110
0000
,
0001
0000
0010
0000
0001
0000
0000
0100
0000
0000
0010
0000
0010
0000
0000
1000
,
0000
0000
0100
0000
0100
0000
0000
0010
0000
0000
0001
0000
1000
0000
0001
0000
,
1000
0000
0000
0100
0010
0000
0000
0001
,
1000
0000
0100
0000
0010
0000
0000
0110
0000
0000
0000
0000
0000
0000
0000
0000
,
0001
0000
0010
0000
0100
0000
0000
0100
0000
0000
0100
0000
0010
0000
0000
0000
,
0010
0000
0100
0000
1000
0000
0000
1000
0000
0000
1000
0000
0100
0000
0000
0000
,
0001
0100
1000
0000
1000
0100
0001
0000
,
0100
0010
0100
0010
0100
0000
0100
0000
,
1000
0000
0100
0000
0010
0000
0000
0010
0000
0000
0010
0000
0100
0000
0000
0000
,
0100
0000
0010
0000
0001
0000
0000
0001
0000
0000
0001
0000
0010
0000
0000
0000
,
1000
0010
0001
0000
0001
0010
1000
0000
,
0010
0100
0010
0100
0010
0000
0010
0000
,
0000
0001
0100
0000
0000
0010
1000
0000
,
0000
0000
0001
0000
1000
0000
0010
0000
0100
0000
0000
0100
0000
0000
0100
0000
,
0000
0001
0010
0000
0000
0100
1000
0000
,
0001
0000
0000
0100
0000
0100
0000
0000
0010
0000
0000
1000
0000
1000
0000
0000
,
0000
0001
1000
0000
0000
1000
0001
0000
,
0000
0000
0010
0000
0100
0000
0010
0000
0001
0000
0000
1000
0000
0000
0001
0000
,
0200
0000
0000
0000
,
0020
0000
0000
0000
0000
0000
0000
0330
,
0001
0000
0000
1000
0000
1000
0010
0000
0010
1000
0000
0000
,
0001
0000
0000
0000
0100
0000
0001
0000
0000
0000
0001
0000
0200
0000
0000
0000
0000
0000
0000
0000
0000
0300
0000
0000
,
0001
0000
0000
1000
0000
1000
0100
0000
0100
1000
0000
0000
,
0001
0000
0000
0000
0010
0000
0001
0000
0000
0000
0001
0000
0020
0000
0000
0000
0000
0000
0000
0000
0000
0030
0000
0000
,
0001
0000
1000
0001
0000
0000
1000
0000
0001
1000
0000
0000
,
0100
0000
0010
0100
0000
0000
0010
0000
0100
0010
0000
0000
,
0001
0000
0001
0010
0000
0010
0001
0000
0001
0100
0000
0100
,
1000
0000
0000
0000
1000
0000
0100
0000
0000
0000
0100
0000
0002
0000
0000
0000
0000
0000
0000
0000
0000
0003
0000
0000
,
1000
0000
0001
0000
,
0110
0110
0110
0000
,
0002
0000
0000
0013
0020
0000
0000
0130
,
0200
0000
0000
1300
0100
0001
0100
1000
,
0020
0000
0000
0130
0200
0000
0000
0301
,
0002
0000
0000
0000
0000
0003
0100
0010
,
1000
0000
0000
1000
0000
0000
1000
0000
0100
0000
0000
0000
0010
0000
0000
0000
,
0001
0000
0000
0001
0000
0000
0001
0000
0100
0000
0000
0000
0000
0000
0001
0000
,
1000
0000
0001
0000
1000
0000
0010
0000
0100
0000
0000
0100
0000
0000
0100
0000
,
0000
0010
0100
0010
1000
0001
1000
0000
,
2000
0000
0000
3010
0020
0000
0000
0130
,
0200
0000
0000
0301
0010
1000
0010
0001
,
0200
0000
0000
0310
0020
0000
0000
1030
,
2000
0000
0000
0000
0000
3000
0100
0010
,
0001
0000
0000
0001
0000
0000
0001
0000
0100
0000
0000
0000
0010
0000
0000
0000
,
1000
0000
0000
1000
0000
0000
1000
0000
0100
0000
0000
0000
0000
0000
1000
0000
,
0001
0101
1010
1001
,
0001
0000
0000
0001
0000
0000
0001
0000
1000
0000
0000
0000
0000
0000
0000
0000
,
0010
0000
1000
0000
0010
0000
0000
0100
0000
0000
0001
0000
0100
0000
0000
0010
,
0000
1000
0001
1000
0001
0000
1001
0000
,
0001
0000
1000
0000
0010
0000
0000
0010
0000
0000
1000
0000
1000
0000
0000
0001
,
0000
0000
0100
0000
0100
0000
0000
0001
0000
0000
1000
0000
0100
0000
0010
0000
,
0001
0000
0010
0000
0100
0000
0000
0100
0000
0000
1000
0000
1000
0000
0000
0100
,
0000
0010
0001
0010
0001
0000
0011
0000
,
0001
0000
1000
0000
0100
0000
0000
0010
0000
0000
0001
0000
0001
0000
0000
1000
,
0000
0000
0100
0000
0100
0000
0000
1000
0000
0000
0001
0000
0100
0000
0010
0000
,
1000
0000
0000
0001
1000
0000
0000
0010
,
0100
0000
0010
0000
0100
0000
0000
0110
0000
0000
0000
0000
0000
0000
0000
0000
,
0000
0000
0000
1001
,
0000
0000
0000
0000
;
#NOTES:
     dance-single:
     :
     Hard:
     13:
     :
0000
0000
0000
0000
,
0000
0000
0000
0000
,
0000
0000
0000
0000
,
1000
0000
0100
0000
2000
0000
3010
0200
0000
0000
0301
0000
0001
0010
0000
0020
,
0000
0000
0130
0000
0100
0001
0000
0002
0000
0000
0103
0000
1000
0000
0010
0000
,
0001
0000
0010
0000
2000
0000
3000
0100
0000
0000
0010
0000
0010
0001
0000
0002
,
0000
0000
1003
0000
1000
0100
0000
0200
0000
0000
0300
0000
1001
0000
0000
0000
,
0001
0000
0010
0000
0002
0000
0103
0020
0000
0000
1030
0000
1000
0100
0000
0200
,
0000
0000
0310
0000
0010
1000
0000
2000
0000
0000
3010
0000
0001
0000
0100
0000
,
1001
0000
0000
0100
1001
0000
0000
0100
,
1001
0000
1000
0000
0001
1000
0000
1001
0000
0000
1000
0000
1000
0000
1000
0000
,
0001
0000
0001
0000
0010
0000
0010
0100
0000
0000
0100
0000
0010
0000
0000
0000
,
0001
0000
0001
0000
1000
0000
1000
0100
0000
0000
0100
0000
0110
0000
0000
0000
,
0010
0100
1001
0000
0100
0010
1001
0000
,
1000
0001
1000
0001
0110
0000
1001
0000
,
1000
0100
1000
0100
1000
0000
1000
0001
0000
1000
0010
1000
0001
0000
0000
0000
,
0001
0010
0001
0010
0001
0000
0001
1000
0000
0001
0100
0001
1000
0000
0000
0000
,
1000
0001
0110
0000
0001
1000
0110
0000
,
0010
0100
0010
0100
0110
0000
1001
0000
,
1000
0000
0100
0000
1000
0001
0000
0000
0001
0000
0010
0000
0001
1000
0000
0000
,
0000
0000
0010
0000
1000
0000
0100
0000
0010
0000
0001
0100
0000
0100
0001
0000
,
0001
0000
0100
0000
0001
1000
0000
0000
1000
0000
0010
0000
1000
0001
0000
0000
,
0002
0010
0000
1000
0000
1000
0003
0000
2000
0010
0000
0001
0000
0001
3000
0000
,
0001
0000
0100
0000
0001
0100
0000
0000
0010
0000
1000
0000
0010
1000
0000
0000
,
0000
0000
1000
0000
0100
0000
0010
0000
0001
0000
0001
0010
0000
0100
1000
0000
,
0010
1000
0000
0010
0100
0000
0010
0001
0000
0000
0010
0000
1001
0000
0000
0000
,
0100
0001
0000
0100
0010
0000
0100
1000
0000
0000
0000
0000
0000
0000
0000
0000
,
1001
0000
0000
1000
0000
0100
1000
0000
0010
1000
0000
0000
,
0001
0100
1000
0001
0000
0010
1000
0000
0000
1001
0000
0000
,
0001
0000
0000
0001
0000
0010
0001
0000
0100
0001
0000
0001
,
1000
0010
0001
1000
0000
0100
0001
0000
0000
1001
0000
0000
,
1000
0100
0100
1000
0000
0001
0010
0100
0100
0010
0000
0010
,
0001
0000
0000
0100
0000
0000
0001
0000
0000
0000
1000
0000
0010
0000
0100
0000
0100
0000
0010
0000
0000
0000
1000
0000
,
0001
0001
0100
1000
1000
0100
0001
0001
0010
1000
1000
0010
,
0001
0000
0000
0000
0001
0000
0100
0000
0000
0000
0100
0000
2000
0000
0000
0000
0000
0000
0000
0000
0000
3000
0000
0000
,
0110
0000
1001
0000
,
1100
0101
1001
0000
,
2020
0000
0030
0001
0002
0000
0003
0100
,
0200
0000
3300
1000
0100
0010
0001
0010
,
0022
0000
0030
1000
2000
0000
3000
0100
,
0200
0000
0000
0000
0000
0303
0001
0100
,
0010
0000
0000
0010
0000
0000
0010
0000
1000
0000
0000
0000
0001
0000
0000
0000
,
0100
0000
0000
0100
0000
0000
0100
0001
0100
0000
0000
0000
0000
0000
0001
0000
,
0100
0000
0001
0000
0100
0000
0010
0000
0100
0000
0010
1000
0000
0000
2000
0000
,
0000
3010
0010
1000
1000
0001
0001
0000
,
0220
0000
0000
0000
0030
0000
1000
0000
2000
0000
0000
0000
0000
3000
0001
0000
,
0002
0000
0303
0001
0100
1000
0100
0001
,
0220
0000
0300
1000
2000
0000
3000
0001
,
0002
0000
0000
0000
0000
0033
0010
0100
,
1001
0000
0000
1000
0000
0000
0001
0000
1001
0000
0000
0000
0110
0000
0000
0000
,
1001
0000
0000
0001
0000
0000
1000
0000
1001
0000
0000
0000
0000
0000
0100
0000
,
1100
0011
0101
1010
,
1001
0000
0000
0100
0000
0000
0010
0000
1001
0000
0000
0000
0000
0000
0000
0000
,
1000
0000
0100
0000
1000
0100
0000
0010
0000
0000
0001
0000
0010
0001
0000
0100
,
0000
0001
1000
0001
1000
0000
1001
0000
,
0001
0000
0100
0000
2000
0000
3100
0002
0000
0000
0013
0000
0010
1000
0000
2000
,
0000
0000
3010
0000
0010
0001
0000
0002
0000
0000
0103
0000
1000
0000
0100
0000
,
0010
0000
1000
0000
0100
0000
0000
0002
0000
0000
0103
0000
1000
0010
0000
0002
,
0000
0000
0013
0000
1000
0100
0000
0200
0000
0000
0300
0000
1001
0000
0000
0000
,
1000
0000
0100
0000
0002
0000
0103
2000
0000
0000
3010
0000
0010
0001
0000
0002
,
0000
0000
0013
0000
0010
1000
0000
2000
0000
0000
3100
0000
0010
0000
0001
0000
,
1001
0000
0010
0100
1001
0000
0010
0100
,
1001
0000
1000
0000
0001
1000
0000
1001
0000
0000
0000
0000
0000
0000
0000
0000
,
1000
0001
1000
0010
0000
0010
0000
0010
0000
0000
0000
0000
1001
0000
0000
0000
,
0000
0000
0000
0000
;
#NOTES:
     dance-double:
     :
     Easy:
     4:
     :
00000000
00000000
00000000
00000000
,
00000000
00000000
00000000
00000000
,
00000000
00000000
00000000
00000000
,
00010000
01000000
00020000
00030000
,
00200000
00300000
00002000
00003000
,
00010000
00001000
00020000
00030000
,
00000020
00000030
00001000
00001000
,
00000001
00001000
00000002
00000003
,
00000200
00000300
00000020
00000030
,
00000110
00000000
00001001
00000000
,
00001000
00000001
00001000
00000000
,
00000010
00010000
00001000
00000000
,
00100000
00001000
00010000
00000000
,
00001000
00000000
00010000
00000000
,
00001000
00001000
00010000
00010000
,
00000020
00000000
00000000
00000030
,
00000200
00000000
00000000
00000300
,
00000001
00000000
00001000
00000000
,
00000100
00000100
00010000
00010000
,
00001000
00000000
00001000
00000000
,
00100000
00000000
00100000
00000000
,
00010000
00000000
10000000
00000000
,
10010000
00000000
01100000
00000000
,
10000000
00000000
10000000
00000000
,
00010000
00000000
00010000
00000000
,
00200000
00000000
00000000
00300000
,
00020000
00000000
00000000
00030000
,
01000000
00000000
01000000
00000000
,
01000000
00010000
01000000
00000000
,
00001000
00000000
00001000
00000000
,
00001000
00010000
00001000
00000000
,
00010000
00000000
00011000
00000000
,
00001000
00000000
00011000
00000000
,
00020000
00030000
00000200
00000300
,
00000010
00000010
00000020
00000030
,
00000110
00000000
00001001
00000000
,
00000100
00000100
00001001
00000000
,
00000002
00000003
00000200
00000300
,
00000020
00000030
00010000
00010000
,
00002000
00003000
02000000
03000000
,
00200000
00000000
00000000
00300000
,
10000000
00000000
00010000
00000000
,
00100000
01000000
00100000
00000000
,
00001000
00010000
00000100
00000000
,
00010000
00001000
00100000
00000000
,
00020000
00030000
00200000
00300000
,
02000000
03000000
00010000
00010000
,
00002000
00003000
00020000
00030000
,
00000200
00000000
00000000
00000300
,
00000010
00000000
00000010
00000000
,
00000001
00000100
00000001
00000000
,
00000010
00000000
00000010
00000000
,
00000100
00001000
00000100
00000000
,
00010000
00000000
00010000
00000000
,
00001000
00000000
00000000
00011000
,
00010000
00001000
00020000
00030000
,
00002000
00003000
02000000
03000000
,
00100000
10000000
00200000
00300000
,
02000000
03000000
01100000
01100000
,
10000000
00010000
20000000
30000000
,
00200000
00300000
02000000
03000000
,
01100000
00000000
10010000
00000000
,
00100000
01000000
10010000
00000000
,
00000000
00000000
00000000
10010000
,
00000000
00000000
00000000
00000000
;
#NOTES:
     dance-double:
     :
     Medium:
     10:
     :
00000000
00000000
00000000
00000000
,
00000000
00000000
00000000
00000000
,
00000000
00000000
00000000
00000000
,
00001000
00000000
00010000
00000000
00100000
00000000
00000000
01000000
00000000
00000000
00010000
00000000
00010000
00000000
00000000
00100000
,
00000000
00000000
00001000
00000000
00001000
00000000
00000000
00010000
00000000
00000000
00000100
00000000
00000010
00000000
00000000
00000000
,
00000001
00000000
00000010
00000000
00000001
00000000
00000000
00000100
00000000
00000000
00001000
00000000
00001000
00000000
00000000
00010000
,
00000000
00100000
01000000
00100000
01000000
00000000
10010000
00000000
,
10000000
00000000
01000000
00000000
10000000
00000000
00000000
00010000
00000000
00000000
00100000
00000000
00100000
00000000
00000000
00001000
,
00000000
00000000
00010000
00000000
00010000
00000000
00000000
00000100
00000000
00000000
00001000
00000000
00000001
00000000
00001000
00000000
,
00000001
00000000
00000000
00000100
00000010
00000000
00000000
00000100
,
00001000
00000000
00010000
00000000
00001000
00000000
00000000
00011000
00000000
00000000
00000000
00000000
00000000
00000000
00000000
00000000
,
00001000
00000000
00010000
00000000
00100000
00000000
00000000
00100000
00000000
00000000
00100000
00000000
01000000
00000000
00000000
00000000
,
00010000
00000000
10000000
00000000
00100000
00000000
00000000
00100000
00000000
00000000
00100000
00000000
00010000
00000000
00000000
00000000
,
00001000
00010000
00001000
00000000
00000100
00001000
00000100
00000000
,
00000001
00001000
00000001
00001000
00000001
00000000
00001001
00000000
,
00000001
00000000
00000010
00000000
00000100
00000000
00000000
00000100
00000000
00000000
00000100
00000000
00001000
00000000
00000000
00000000
,
00000100
00000000
00010000
00000000
00001000
00000000
00000000
00001000
00000000
00000000
00001000
00000000
00100000
00000000
00000000
00000000
,
00010000
00100000
10000000
00000000
10000000
00100000
00010000
00000000
,
01000000
00100000
01000000
00100000
01000000
00000000
01000000
00000000
,
00000000
00100000
01000000
00000000
00000000
00001000
00010000
00000000
,
00000000
00000000
00000010
00000000
00000100
00000000
00000001
00000000
00001000
00000000
00000000
00001000
00000000
00000000
00001000
00000000
,
00000000
00000100
00001000
00000000
00000000
00000010
00010000
00000000
,
00001000
00000000
00000000
01000000
00000000
01000000
00000000
00000000
00010000
00000000
00000000
10000000
00000000
10000000
00000000
00000000
,
00000000
00010000
10000000
00000000
00000000
10000000
00010000
00000000
,
00000000
00000000
01000000
00000000
00100000
00000000
00010000
00000000
00001000
00000000
00000000
00010000
00000000
00000000
00001000
00000000
,
00020000
00000000
00000000
00000000
,
00002000
00000000
00000000
00000000
00000000
00000000
00000000
00033000
,
00001000
00000000
00000000
00010000
00000000
00010000
00001000
00000000
00001000
00010000
00000000
00000000
,
00100000
00000000
00000000
00000000
00100000
00000000
10000000
00000000
00000000
00000000
10000000
00000000
02000000
00000000
00000000
00000000
00000000
00000000
00000000
00000000
00000000
03000000
00000000
00000000
,
00010000
00000000
00000000
00001000
00000000
00001000
00010000
00000000
00010000
00001000
00000000
00000000
,
00000010
00000000
00000000
00000000
00000010
00000000
00000001
00000000
00000000
00000000
00000001
00000000
00000200
00000000
00000000
00000000
00000000
00000000
00000000
00000000
00000000
00000300
00000000
00000000
,
00001000
00000000
00001000
00010000
00000000
00000000
00100000
00000000
00100000
10000000
00000000
00000000
,
01000000
00000000
01000000
00010000
00000000
00000000
00001000
00000000
00001000
00000010
00000000
00000000
,
00000001
00000000
00000001
00000100
00000000
00000100
00001000
00000000
00001000
00010000
00000000
00010000
,
00100000
00000000
00000000
00000000
00100000
00000000
10000000
00000000
00000000
00000000
10000000
00000000
02000000
00000000
00000000
00000000
00000000
00000000
00000000
00000000
00000000
03000000
00000000
00000000
,
00010000
00000000
00001000
00000000
,
00011000
00011000
00011000
00000000
,
00002000
00000000
00000000
00003010
00000020
00000000
00000000
00000031
,
00000002
00000000
00000000
00000103
00001000
00010000
00100000
10000000
,
02000000
00000000
00000000
03100000
00200000
00000000
00000000
00310000
,
00020000
00000000
00000000
00000000
00000000
00030000
01000000
00100000
,
10000000
00000000
00000000
10000000
00000000
00000000
10000000
00000000
01000000
00000000
00000000
00000000
00100000
00000000
00000000
00000000
,
00001000
00000000
00000000
00001000
00000000
00000000
00001000
00000000
00010000
00000000
00000000
00000000
00000000
00000000
00001000
00000000
,
00010000
00000000
00001000
00000000
00010000
00000000
00000100
00000000
00000010
00000000
00000000
00000010
00000000
00000000
00000010
00000000
,
00000000
00000100
00000010
00000100
00001000
00000001
00001000
00000000
,
00000002
00000000
00000000
00000103
00000200
00000000
00000000
00000310
,
00000020
00000000
00000000
00000130
00001000
00010000
01000000
00100000
,
00020000
00000000
00000000
10030000
20000000
00000000
00000000
31000000
,
02000000
00000000
00000000
00000000
00000000
03000000
00100000
00001000
,
00010000
00000000
00000000
00010000
00000000
00000000
00010000
00000000
00001000
00000000
00000000
00000000
00010000
00000000
00000000
00000000
,
00000100
00000000
00000000
00000100
00000000
00000000
00000100
00000000
00000010
00000000
00000000
00000000
00000000
00000000
00000001
00000000
,
00001000
00001001
00001100
00001010
,
00001000
00000000
00000000
00001000
00000000
00000000
00001000
00000000
00000001
00000000
00000000
00000000
00000000
00000000
00000000
00000000
,
00001000
00000000
00000100
00000000
00001000
00000000
00000000
00000010
00000000
00000000
00010000
00000000
00001000
00000000
00000000
00100000
,
00000000
00010000
10000000
00010000
10000000
00000000
10010000
00000000
,
00010000
00000000
10000000
00000000
00100000
00000000
00000000
00100000
00000000
00000000
10000000
00000000
10000000
00000000
00000000
00010000
,
00000000
00000000
01000000
00000000
01000000
00000000
00000000
00001000
00000000
00000000
00010000
00000000
00001000
00000000
00000010
00000000
,
00000001
00000000
00000010
00000000
00001000
00000000
00000000
00010000
00000000
00000000
00001000
00000000
00001000
00000000
00000000
00100000
,
00000000
00010000
01000000
00010000
01000000
00000000
01010000
00000000
,
01000000
00000000
00001000
00000000
00010000
00000000
00000000
00000010
00000000
00000000
00001000
00000000
00001000
00000000
00000000
00000001
,
00000000
00000000
00000100
00000000
00000100
00000000
00000000
00000010
00000000
00000000
00010000
00000000
00001000
00000000
00010000
00000000
,
00100000
00000000
00000000
10000000
00010000
00000000
00000000
00100000
,
00001000
00000000
00010000
00000000
00001000
00000000
00000000
00011000
00000000
00000000
00000000
00000000
00000000
00000000
00000000
00000000
,
00000000
00000000
00000000
00011000
,
00000000
00000000
00000000
00000000
;
#NOTES:
     dance-double:
     :
     Hard:
     13:
     :
00000000
00000000
00000000
00000000
,
00000000
00000000
00000000
00000000
,
00000000
00000000
00000000
00000000
,
10000000
00000000
01000000
00000000
00200000
00000000
00310000
02000000
00000000
00000000
03001000
00000000
00001000
00010000
00000000
00020000
,
00000000
00000000
00030010
00000000
00000010
00000100
00000000
00000200
00000000
00000000
00000301
00000000
00000010
00000000
00000001
00000000
,
00000100
00000000
00001000
00000000
00020000
00000000
00030000
00001000
00000000
00000000
00100000
00000000
00100000
00010000
00000000
00020000
,
00000000
00000000
10030000
00000000
10000000
01000000
00000000
02000000
00000000
00000000
03000000
00000000
10010000
00000000
00000000
00000000
,
00010000
00000000
01000000
00000000
00020000
00000000
00130000
00002000
00000000
00000000
00013000
00000000
00010000
00000100
00000000
00000200
,
00000000
00000000
00000310
00000000
00000010
00000001
00000000
00000002
00000000
00000000
00000013
00000000
00000100
00000000
00010000
00000000
,
00011000
00000000
00000000
00001000
00011000
00000000
00000000
00001000
,
00010000
00000000
00100000
00000000
01000000
00100000
00000000
10010000
00000000
00000000
10000000
00000000
10000000
00000000
10000000
00000000
,
00100000
00000000
00010000
00000000
00001000
00000000
00010000
00001000
00000000
00000000
00000010
00000000
00000001
00000000
00000000
00000000
,
00000001
00000000
00000001
00000000
00000100
00000000
00000100
00001000
00000000
00000000
00001000
00000000
00010000
00000000
00000000
00000000
,
00001000
00010000
00100000
00000000
00100000
10000000
01000000
00000000
,
01000000
00010000
00001000
00100000
01000000
00000000
10010000
00000000
,
10000000
01000000
00000000
00100000
00010000
00000000
00001000
00000100
00000000
00000010
00000001
00000010
00000001
00000000
00000000
00000000
,
00000001
00000100
00000000
00000010
00001000
00000000
00010000
01000000
00000000
00100000
10000000
00100000
10000000
00000000
00000000
00000000
,
01000000
00010000
00001000
00000000
00010000
00001000
00000010
00000000
,
00000001
00001000
00000100
00010000
00011000
00000000
00011000
00000000
,
00000000
00000000
00001000
00000000
00100000
01000000
00000000
00000000
00000000
00000000
00010000
00000000
00000100
00000010
00000000
00000000
,
00000000
00000000
00000001
00000000
00000100
00000000
00001000
00000000
00010000
00000000
00001000
00010000
00000000
00010000
00001000
00000000
,
00000000
00000000
00010000
00000000
00000010
00000100
00000000
00000000
00000000
00000000
00001000
00000000
01000000
00100000
00000000
00000000
,
20000000
00010000
00000000
01000000
00000000
01000000
30000000
00000000
00020000
10000000
00000000
01000000
00000000
01000000
00030000
00000000
,
00000000
00000000
00010000
00000000
01000000
00001000
00000000
00000000
00000000
00000000
00010000
00000000
00000100
00001000
00000000
00000000
,
00000000
00000000
00000100
00000000
00000010
00000000
00000001
00000000
00000010
00000000
00000100
00010000
00000000
00010000
00001000
00000000
,
00010000
00000100
00000000
00010000
00000010
00000000
00010000
00001000
00000000
00000000
00000000
00000000
00011000
00000000
00000000
00000000
,
00001000
01000000
00000000
00001000
00100000
00000000
00001000
00010000
00000000
00000000
00000000
00000000
00000000
00000000
00000000
00000000
,
00011000
00000000
00000000
00010000
00000000
00010000
00000100
00000000
00000010
00000001
00000000
00000000
,
00000001
00000100
00001000
00010000
00000000
00100000
10000000
00000000
00000000
10010000
00000000
00000000
,
10000000
00000000
00000000
10000000
00000000
00100000
10000000
00000000
01000000
10000000
00000000
10000000
,
01000000
00010000
00001000
00100000
00000000
00001000
00010000
00000000
00000000
00011000
00000000
00000000
,
00001000
00000100
00000100
00001000
00000000
00000001
00000010
00000100
00000100
00000010
00000000
00000010
,
00000001
00000000
00000000
00000100
00000000
00000000
00001000
00000000
00000000
00000000
00100000
00000000
00010000
00000000
01000000
00000000
01000000
00000000
00010000
00000000
00000000
00000000
01000000
00000000
,
10000000
10000000
01000000
00010000
00010000
00100000
00001000
00001000
00010000
00000100
00000100
00000010
,
00000001
00000000
00000000
00000000
00000001
00000000
00000100
00000000
00000000
00000000
00001000
00000000
00020000
00000000
00000000
00000000
00000000
00000000
00000000
00000000
00000000
00030000
00000000
00000000
,
00011000
00000000
00001100
00000000
,
00000011
00001100
00001001
00000000
,
00000022
00000000
00000030
00001000
00002000
00000000
00003000
00000100
,
00000200
00000000
00000303
00000001
00000100
00001000
00010000
00001000
,
00022000
00000000
00003000
00000100
00000200
00000000
00000300
00000010
,
00000020
00000000
00000000
00000000
00000000
00030030
00010000
00000100
,
00001000
00000000
00000000
00001000
00000000
00000000
00001000
00000000
00000001
00000000
00000000
00000000
00000100
00000000
00000000
00000000
,
00001000
00000000
00000000
00001000
00000000
00000000
00001000
00010000
00001000
00000000
00000000
00000000
00000000
00000000
00010000
00000000
,
00001000
00000000
00010000
00000000
00001000
00000000
01000000
00000000
00010000
00000000
01000000
00010000
00000000
00000000
00200000
00000000
,
00000000
01300000
01000000
10000000
10000000
00010000
00010000
00000000
,
00220000
00000000
00000000
00000000
00030000
00000000
00001000
00000000
00002000
00000000
00000000
00003000
00000000
00000000
01000000
00000000
,
02000000
00000000
03300000
01000000
00010000
00001000
00010000
00100000
,
02200000
00000000
03000000
00010000
00020000
00000000
00030000
10000000
,
20000000
00000000
00000000
00000000
00000000
30300000
00100000
01000000
,
10010000
00000000
00000000
00010000
00000000
00000000
10000000
00000000
01100000
00000000
00000000
00000000
10010000
00000000
00000000
00000000
,
00010000
00000000
00000000
00100000
00000000
00000000
00001000
00000000
00011000
00000000
00000000
00000000
00000000
00000000
00010000
00000000
,
00001000
00000110
00001001
00000011
,
00001010
00000000
00000000
00000100
00000000
00000000
00000010
00000000
00001001
00000000
00000000
00000000
00000000
00000000
00000000
00000000
,
00000001
00000000
00000010
00000000
00000001
00000010
00000000
00000100
00000000
00000000
00001000
00000000
00000100
00001000
00000000
00000100
,
00000000
00010000
00001000
00010000
00001000
00000000
00011000
00000000
,
00010000
00000000
01000000
00000000
00020000
00000000
00031000
00000020
00000000
00000000
00000031
00000000
00000001
00000100
00000000
00000200
,
00000000
00000000
00000301
00000000
00000001
00000010
00000000
00000020
00000000
00000000
00001030
00000000
00010000
00000000
00100000
00000000
,
00010000
00000000
00001000
00000000
00000010
00000000
00000000
00002000
00000000
00000000
00013000
00000000
00100000
10000000
00000000
00200000
,
00000000
00000000
00310000
00000000
00001000
00000100
00000000
00000200
00000000
00000000
00000300
00000000
00001001
00000000
00000000
00000000
,
00000001
00000000
00000100
00000000
00001000
00000000
00010000
00200000
00000000
00000000
10300000
00000000
10000000
01000000
00000000
02000000
,
00000000
00000000
13000000
00000000
10000000
00100000
00000000
00200000
00000000
00000000
00310000
00000000
00001000
00000000
00010000
00000000
,
00011000
00000000
00000000
00001000
00011000
00000000
00000000
00010000
,
00100000
00000000
00100000
00000000
01000000
00100000
00000000
01100000
00000000
00000000
00000000
00000000
00000000
00000000
00000000
00000000
,
10000000
00010000
10000000
00100000
00000000
00100000
00000000
00100000
00000000
00000000
00000000
00000000
10010000
00000000
00000000
00000000
,
00000000
00000000
00000000
00000000
;
