
//----- song ID: thou -----//
#TITLE:Throw Out;
#ARTIST:BEMANI Sound Team "ZAQUVA" feat. Uzumaki;
#BANNER:Throw Out.png;
#BACKGROUND:Throw Out-bg.png;
#CDTITLE:./CDTitles/DDR A3.png;
#MUSIC:Throw Out.ogg;
#SAMPLESTART:42.468;
#SAMPLELENGTH:15;
#BPMS:0=192,40=96,72=192;
#STOPS:210=0.157,213.5=0.156,217=0.156,220.5=0.156,224=0.157,227.5=0.156;
#BGSTAGE:3;
#NOTES:
     dance-single:
     :
     Beginner:
     2:
     :
0000
0000
0000
0000
,
0000
0000
0000
0000
,
0000
0000
0000
0000
,
0000
0000
0000
0000
,
0000
0000
0000
0000
,
0000
0000
0000
0000
,
0010
0000
0000
0000
,
0000
0000
0000
0000
,
0001
0000
0000
0000
,
0000
0000
0000
0000
,
0001
0000
0000
0000
,
0010
0000
0010
0000
,
0010
0000
0000
0000
,
0100
0000
0100
0000
,
0100
0000
0000
0000
,
1000
0000
1000
0000
,
1000
0000
0000
0000
,
0100
0000
0100
0000
,
0100
0000
0000
0000
,
0000
0000
0000
0000
,
0010
0000
0010
0000
,
0001
0000
0000
0000
,
0001
0000
0000
0000
,
0000
0000
0000
0000
,
0010
0000
0000
0000
,
0000
0000
0000
0000
,
0100
0000
0000
0000
,
0100
0000
0100
0000
,
1000
0000
0000
0000
,
1000
0000
0000
0000
,
1000
0000
0000
0000
,
0000
0000
0000
0000
,
0010
0000
0000
0000
,
0000
0000
0000
0000
,
1000
0000
0000
0000
,
0100
0000
0000
0000
,
0100
0000
0000
0000
,
0000
0000
0000
0000
,
0010
0000
0000
0000
,
0010
0000
0000
0000
,
0001
0000
0000
0000
,
0000
0000
0000
0000
,
1001
0000
0000
0000
,
0000
0000
0000
0000
,
0001
0000
0000
0000
,
0010
0000
0000
0000
,
1000
0000
0000
0000
,
0000
0000
0000
0000
,
1000
0000
0000
0000
,
0100
0000
0000
0000
,
0001
0000
0000
0000
,
0000
0000
0000
0000
,
1000
0000
0000
0000
,
0000
0000
0000
1000
,
0000
0000
0000
0000
,
0000
0000
0010
0000
,
0000
0000
0000
0000
,
0000
0010
0000
0000
,
0000
0000
0000
0000
,
0000
0001
0000
0000
,
0000
0001
0000
0001
,
0000
0020
0000
0000
,
0000
0030
0000
0000
,
0000
0010
0000
0000
,
0000
0001
0000
0000
,
0000
0100
0000
0000
,
0000
0000
0000
0000
,
0000
0001
0000
0000
,
0000
0001
0000
0000
,
0000
0010
0000
0000
,
0000
0010
0000
0000
,
0000
1000
0000
0000
,
0000
0000
0000
0000
,
0000
1000
0000
0000
,
0000
0000
0000
0000
,
0000
0100
0000
0000
,
0000
0100
0000
0000
,
0000
1000
0000
1000
,
0000
0100
0000
0000
,
0000
0100
0000
0000
,
0000
0010
0000
0000
,
0000
0100
0000
0000
,
0000
0000
0000
0000
,
0000
1001
0000
0000
,
0000
0000
0000
0000
;
#NOTES:
     dance-single:
     :
     Easy:
     6:
     :
0000
0000
0000
0000
,
0000
0000
0000
0000
,
0000
0000
0000
0000
,
0000
0000
0000
0000
,
0000
0000
0000
0000
,
0000
0000
0000
0000
,
0000
0000
1000
1000
,
0001
0001
1000
0001
,
2002
0000
0000
0000
,
3003
0000
0000
0000
,
2000
3000
0200
0300
,
0010
0010
0020
0030
,
0002
0003
0200
0300
,
0010
0010
0020
0030
,
2000
3000
0002
0003
,
0100
0100
0200
0300
,
0002
0003
2000
3000
,
0100
0100
0200
0300
,
2000
0000
0000
3000
,
1000
0010
0100
0001
,
0020
0000
0000
0030
,
0001
1000
0100
0010
,
0200
0000
0000
0300
,
1000
0001
1000
0000
,
1001
0000
0110
0000
,
2002
0000
0000
3003
,
0002
0000
0000
0003
,
0001
0100
0010
1000
,
0200
0000
0000
0300
,
1000
0001
0010
0100
,
0020
0000
0000
0030
,
0001
1000
0001
0000
,
1001
0000
0110
0000
,
2002
0000
0000
3003
,
0001
0010
0001
0010
,
0001
0000
1001
0000
,
1000
0010
1000
0010
,
1000
0000
0110
0000
,
1001
0000
1000
0100
,
0010
0010
0010
0000
,
0001
0100
0010
1000
,
0001
0000
0000
0000
,
0020
0000
0000
0000
,
0030
0000
0000
0000
,
0200
0000
0000
0000
,
0300
0000
0000
0000
,
0220
0000
0000
0000
,
0330
0000
0000
0000
,
2002
0000
0000
0000
,
3003
0000
0000
0000
,
1001
0000
0000
0000
,
0000
0000
0000
0000
,
0002
0000
0000
0000
0003
0000
0000
0200
,
0000
0000
0000
0300
0000
0000
0020
0000
,
0000
0000
0030
0000
0000
2000
0000
0000
,
0000
3000
0000
0000
0200
0000
0000
0000
,
0300
0000
0000
0020
0000
0000
0000
0030
,
0000
0001
0000
1000
,
0000
0001
1000
1001
,
0000
0001
0100
0001
,
1000
0010
0010
0010
,
0000
1000
0000
0100
,
0000
0010
0001
0100
,
0000
0110
0000
1000
,
0001
1000
0000
0100
,
0000
1000
0001
0100
,
0000
0020
0000
0000
,
0030
0010
0000
1000
,
0000
0001
0000
0100
,
0000
1000
0100
0001
,
0000
0010
0000
0100
,
0000
0110
0000
1000
,
0001
1000
0010
0100
,
0000
0001
0001
0010
,
0000
0100
0100
1000
,
0000
0001
0100
0010
,
1000
0010
0000
1001
,
0000
1000
0100
0010
,
0000
0001
0100
0010
,
0000
0110
0000
1000
,
0001
0100
0010
1000
,
0000
0200
0000
0000
,
0000
0300
0000
0000
,
0000
1001
0000
0000
,
0000
0000
0000
0000
;
#NOTES:
     dance-single:
     :
     Medium:
     10:
     :
0000
0000
0000
0000
,
0000
0000
0000
0000
,
0000
0000
0000
0000
,
0000
0000
0000
0000
,
0000
0000
0000
0000
,
0000
0000
0000
0000
,
1000
0010
1000
0000
0010
0100
0010
0000
,
0100
0001
0100
0000
0001
1000
0001
0000
,
0020
0000
0000
0000
,
0030
0000
0000
0000
,
0002
0000
0103
0000
1000
0100
0001
0000
,
2000
0000
3100
0000
0001
0100
1000
0000
,
0002
0000
0013
0000
1000
0010
0001
0000
,
2000
0000
3010
0000
0001
0010
1000
0000
,
0001
0100
0010
0000
0100
0010
1000
0000
,
0001
0100
1000
0100
0002
0000
0003
0000
,
1000
0100
0010
0000
0100
0010
0001
0000
,
1000
0100
0001
0100
2000
0001
3001
0000
,
0001
0000
0100
0000
0010
1000
0010
0000
,
1000
0001
0100
0010
0100
0001
1000
0000
,
0001
0000
0010
0000
0100
1000
0100
0000
,
1000
0100
0010
0001
0100
0010
1000
0000
,
1001
0000
0000
0000
1000
0000
0100
0010
,
0000
0010
0001
1000
0001
0000
0000
0000
,
0002
0203
0320
2030
,
3001
1000
0001
1000
0001
1000
0001
0000
,
1000
0000
0010
0000
0100
0001
0100
0000
,
0001
1000
0010
0100
0010
1000
0001
0000
,
1000
0000
0100
0000
0010
0001
0010
0000
,
0001
0010
0100
1000
0010
0100
0001
0000
,
1001
0000
0000
0000
0001
0000
0010
0100
,
0000
0100
1000
0001
1000
0000
0000
0000
,
2000
3020
0230
0302
,
1003
0001
1000
0001
1000
0001
1000
0000
,
0001
0000
0000
0100
0000
0000
0001
0000
0000
1000
0000
0000
0010
0000
0000
0000
,
1000
0000
0000
0001
0000
0000
1000
0000
0000
0001
0000
0000
1000
0000
0001
0000
,
1000
0000
0000
0010
0000
0000
1000
0000
0000
0001
0000
0000
0100
0000
0000
0000
,
0001
0000
0000
1000
0000
0000
0010
0000
0100
0000
0001
0000
1000
0000
0000
0000
,
0002
0000
0003
0000
0001
0000
0100
0010
,
0100
0010
1000
0000
,
1000
0100
0010
0000
0100
0010
0001
0000
,
1000
0000
0000
0000
,
0001
0000
0010
0000
1000
0010
0001
0000
,
0100
0010
0100
0010
0000
0000
,
1000
0000
0010
0000
0001
0010
1000
0000
,
0100
0010
0100
0010
0000
0000
,
0001
1000
0010
0100
,
0001
0010
0001
1000
0100
1000
,
0020
0000
0130
0000
0001
1000
0001
0000
,
2002
0000
3003
0000
,
0220
0000
0000
0000
,
0000
0000
0000
0330
,
1000
0000
0010
0000
0101
0000
0000
0001
,
0000
0010
0000
1100
0000
0000
1000
0000
,
0001
0000
0110
0000
0000
0010
0000
0100
,
0000
1001
0000
0000
0001
0000
0001
0000
,
1100
0000
0000
1000
0000
1000
0000
0101
,
0000
1000
0010
0100
,
0001
1000
1000
1000
,
0000
0000
0001
0100
0001
0000
1000
0000
,
0010
0100
0000
0001
0000
1000
0000
0001
,
1001
0000
1000
0100
0010
0000
0001
0000
,
0100
0001
0000
0010
0000
0110
0000
0100
,
1000
0001
1000
0000
0000
0000
1000
0000
,
0001
0100
0000
1000
0100
0000
0001
0000
,
1000
0010
0100
0000
0001
0000
0010
0000
,
0100
1000
0002
0000
1000
0000
1000
0000
,
1003
0000
1000
0010
1000
0000
0100
1000
,
0100
0010
0000
0001
0100
0010
0000
1000
,
0010
0100
0001
0000
1001
0000
1000
0000
,
0100
0001
0000
0100
0000
1000
0000
0001
,
0000
0010
0100
0000
0000
0000
1000
0000
,
0001
0010
0000
0001
0100
0000
0010
0000
,
1000
0010
1000
0000
0001
0000
0010
0000
,
0100
0010
0002
0000
0003
0000
1000
0000
,
0001
0100
0000
0010
1000
0000
0001
0100
,
0001
0000
1000
0000
0100
0010
0000
0011
,
0000
1001
0000
1000
0100
0000
0010
0100
,
1000
0000
0001
0000
0100
1000
0000
0100
,
0001
1000
0000
1000
,
0100
0010
0000
0001
1000
0001
0000
0100
,
0010
2002
0000
0000
,
0000
3003
0000
0000
,
0000
0110
0000
0000
,
0000
0000
0000
0000
;
#NOTES:
     dance-single:
     :
     Hard:
     15:
     :
0000
0000
0000
0000
,
0000
0000
0000
0000
,
0000
0000
0000
0000
,
0000
0000
0000
0000
,
0000
0000
0000
0000
,
0000
0000
0000
0000
,
1000
0010
1000
0010
0100
0001
0100
0001
,
1000
0100
0010
0001
0100
0010
1000
0100
,
0020
0000
0000
0000
,
0030
0000
0000
0000
0000
0000
0001
0010
,
0001
0010
0001
0000
0011
0000
0001
1000
0100
1000
0100
0000
0110
0000
0001
0010
,
1000
0000
0010
0000
0001
0000
1000
0000
0200
0000
0300
1000
0001
0000
0001
0100
,
0001
1000
0010
0000
1010
0000
1000
0001
0100
0001
0100
0000
0110
0000
1000
0010
,
0001
0000
1000
0000
0100
0000
0001
0000
2000
0000
3000
0001
0010
0000
0001
0000
,
1000
0001
1000
0001
0010
0100
0010
0000
0001
0100
0001
0010
0001
1000
0001
0000
,
1000
0010
0100
0000
0001
0010
0100
0000
1000
0100
1000
0010
0100
0001
0010
0000
,
0001
0100
0001
0000
1000
0010
1000
0010
0100
0001
0010
0000
0001
0010
0100
1000
,
0001
0000
0000
0000
0100
0000
0000
0000
1000
0000
0000
0000
0100
0000
0000
0000
0001
0000
0000
0001
1000
0000
1000
0000
0010
0100
0010
0100
0010
0000
0000
0000
,
1010
0000
1100
0000
0110
0000
0010
0001
,
0100
0000
0010
0000
1000
0000
0100
0000
0001
0000
0000
0100
0000
0000
1000
0000
,
0011
0001
0101
0000
1010
1000
1100
0100
,
0001
0000
1000
0000
0010
0000
0100
0000
1000
0000
0000
0010
0000
0000
0100
0000
,
1000
0100
0001
0000
0011
0010
0001
0100
,
0010
1000
0100
0001
0100
0000
1000
1000
,
0002
0010
1000
0103
,
0001
0000
0000
1000
0010
0000
0000
0100
0001
1000
0001
1000
0001
0000
0000
0000
,
0101
0000
0011
0000
0110
0000
0100
1000
,
0010
0000
0100
0000
0001
0000
0010
0000
1000
0000
0000
0010
0000
0000
0001
0000
,
1100
1000
1010
0000
0101
0001
0011
0010
,
1000
0000
0001
0000
0100
0000
0010
0000
0001
0000
0000
0100
0000
0000
0010
0000
,
0001
0010
1000
0000
1100
0100
1000
0010
,
0100
0001
0010
1000
0010
0000
0001
0001
,
2000
0100
0001
3010
,
1000
0000
0000
0001
0100
0000
0000
0010
1000
0001
1000
0001
1000
0000
0000
0000
,
0001
0000
1000
0100
1000
0000
0001
0100
0001
0000
0010
0000
0110
0000
0100
0000
,
1000
0010
0100
0110
0000
1000
0001
1000
,
0000
0000
0001
0010
0001
0000
1000
0010
1000
0000
0001
0010
0100
0000
1000
0000
,
1010
0000
0000
0010
0000
0000
0100
0000
0101
0000
0001
1000
0001
0000
0000
0000
,
2000
0000
3100
0001
1000
0010
0001
0200
,
0000
1300
0001
0010
1000
0100
0001
1000
,
0020
0031
0011
0010
0002
0103
0101
0001
,
1000
0000
0000
0000
,
0002
0000
0000
0000
1003
0000
0100
0010
0000
0100
0010
0000
0001
0000
0000
0000
,
0010
0100
0110
1000
0001
1001
,
2000
0000
0000
0000
3001
0000
0100
0010
0000
0100
0010
0000
1000
0000
0000
0000
,
0001
0100
0110
1001
0000
0000
,
2000
0000
0000
0000
3001
0000
1000
0100
0000
0010
0001
0000
1000
0000
0000
0000
,
0001
0010
0110
1000
0010
0110
,
0002
0000
0000
0000
1003
0000
0001
0010
0000
0100
1000
0000
0001
0000
0000
0000
,
1000
0010
0100
0001
0010
0100
1000
0000
0000
0000
0000
0000
,
2002
0000
0000
0000
,
0000
0000
0000
3003
,
1000
0001
0010
0000
0110
0110
0000
1000
,
0001
0100
0000
1010
1010
1000
0001
0010
,
0100
0000
0110
0110
0010
0001
0100
0010
,
0000
1010
1010
1000
0001
0100
0001
0000
,
0011
0011
0001
1000
0100
0001
0000
0110
,
0110
2000
3200
0320
,
0032
1003
0110
1001
,
0000
0000
1000
0010
1000
0010
0100
0001
,
0100
0000
0001
0000
0010
0000
0100
0000
1000
0000
0001
0000
1000
0001
1000
0000
,
0001
0000
1000
1000
1010
0000
0010
0100
,
1000
0100
0001
0010
0100
1000
0010
0100
,
0001
0010
0100
0000
1001
0000
1000
0000
,
0100
0010
0000
0001
0100
0001
0010
0000
,
0011
0000
0001
0100
1000
0000
0001
0010
,
1000
0000
1010
0010
0110
0000
0101
0001
,
1001
2000
3020
0032
,
0013
0000
1000
0000
0001
0000
1000
0100
1000
0000
0100
0010
0100
0000
0010
0001
,
0010
0002
0023
2030
,
3010
0000
0001
0000
1000
0000
0001
0100
0001
0000
0100
0010
0100
0000
0010
1000
,
0010
0000
1000
1000
0110
0000
0001
0000
,
0100
0000
0010
0000
0000
0000
0010
0000
1000
0100
1000
0000
0010
0000
0000
0000
,
0110
0100
0002
0000
0023
0000
2030
0000
,
3001
0000
0100
0000
1000
0000
0001
0010
0001
0000
1000
0100
1000
0000
0001
1000
,
0001
0000
0000
0000
1000
0000
0010
0100
0001
0000
0010
0100
1000
0000
0001
0000
,
0100
0010
1000
0100
0010
0011
0000
0001
,
1000
0000
0001
0000
0000
0000
1000
0010
0100
0000
0001
0010
0100
0000
1000
0010
,
0100
0000
0001
0100
0010
0000
0000
0000
1000
0000
0010
0000
0000
0000
1000
0100
,
0010
0000
0110
0000
0000
0001
0100
1000
,
0100
0001
0000
0001
1000
0010
0000
0010
,
0100
0000
0000
0000
0210
0000
0000
0000
1000
0000
0000
0000
0301
0000
1000
0001
,
1000
0000
0001
1000
0001
0000
0000
0000
0000
0000
0000
0000
0000
0000
0000
0000
,
0000
1001
0000
0000
,
0000
0000
0000
0000
;
#NOTES:
     dance-single:
     :
     Challenge:
     17:
     :
0000
0000
0000
0000
,
0000
0000
0000
0000
,
0000
0000
0000
0000
,
0000
0000
0000
0000
,
0000
0000
0000
0000
,
0000
0000
0000
0000
,
0001
0001
0101
0101
,
1000
1000
1010
1010
,
0001
0000
1000
0000
0001
0000
1000
0000
0001
1000
0001
1000
0001
1000
0001
1000
,
0001
0000
0100
0010
0110
0000
1000
0100
,
0020
0001
0031
0000
1001
0000
0001
0100
0020
1000
1030
0000
1001
0000
1000
0100
,
0001
0100
1000
0000
0001
0010
1000
0010
0002
0000
0000
1000
1003
0000
0001
0010
,
0200
1000
1300
0000
1001
0000
1000
0010
0200
0001
0301
0000
1001
0000
0001
0010
,
1000
0010
0001
0000
1000
0100
0001
0100
2000
0000
0000
0001
3001
0000
1000
0010
,
1000
0100
0010
0001
0100
0001
0010
0100
1000
0010
0100
0001
0010
0001
0100
0010
,
1000
0100
1000
0100
0001
0100
0001
0100
1000
0010
1000
0010
0001
0010
1000
0000
,
0001
0000
0100
0010
0100
0000
0010
0000
1000
0000
0100
0010
0100
0000
0010
0000
0001
0000
0010
0100
0010
0000
0100
0000
1000
0000
0010
0100
0010
0000
0100
0000
,
0001
0000
0100
0010
1000
0000
0001
0000
1000
0000
0100
0010
0001
0000
1000
0000
0001
0000
0000
0010
0001
0000
0100
0000
0010
1000
0001
0100
0010
0000
1000
0000
,
1010
0010
0110
0100
0101
0001
1001
1000
,
0100
0000
0010
0001
0010
0000
0001
1000
0001
0000
0100
0001
0100
0000
0001
0000
,
0011
0010
0110
0100
1100
1000
1001
0001
,
0100
0000
0010
1000
0010
0000
1000
0001
1000
0000
0100
1000
0100
0000
1000
0000
,
0010
0000
0100
0000
1001
0000
0000
0000
1000
0000
0100
0001
0100
0000
1000
0000
,
0001
0000
0010
0100
1000
0000
0010
0100
0001
0000
1000
0100
1000
0000
0001
0000
,
0200
0000
1000
0000
0010
0000
0301
1000
,
0100
0000
0010
0001
0100
0010
0100
0010
1000
0001
0100
0010
1000
0000
0000
0000
,
1000
0100
0010
0000
0110
0000
0010
0000
0011
0000
0001
0000
1001
0000
1000
0000
,
0010
0000
0100
0001
0100
0000
0001
1000
0001
0000
0010
0001
0010
0000
0001
0000
,
0101
0100
0110
0010
1010
1000
1001
0001
,
0010
0000
0100
1000
0100
0000
1000
0001
1000
0000
0010
1000
0010
0000
1000
0000
,
0100
0000
0010
0000
1001
0000
0000
0000
1000
0000
0010
0001
0010
0000
1000
0000
,
0001
0000
0100
0010
1000
0000
0100
0010
0001
0000
1000
0010
1000
0000
0001
0000
,
0020
0000
1000
0000
0100
0000
0031
1000
,
0010
0000
0100
0001
0010
0100
0010
0100
1000
0001
0010
0100
1000
0000
0001
0000
,
0100
0000
0010
1000
0000
0010
0100
0000
0001
0100
0000
0001
0010
0000
0001
1000
,
0001
0000
1000
0100
0000
0010
0100
0000
0010
0001
0000
1000
0001
0000
0100
0010
,
0100
0000
0001
0010
0000
0100
1000
0000
0010
1000
0000
0001
0100
0000
0010
0000
,
1000
0000
0100
0001
0000
0100
1000
0000
0001
0000
0010
0100
1000
0001
1000
0000
,
0001
0000
0100
0010
0000
1000
0010
0000
0100
0010
1000
0010
0100
0000
0010
1000
,
0100
0000
0010
0001
0000
0010
0100
0000
0010
0001
0010
0100
0010
0000
0001
0100
,
0020
0000
1030
0000
1010
0000
1000
0001
0100
0010
0100
0010
1000
0001
1000
0001
,
1000
0000
0000
0000
,
2002
0000
3003
0000
1001
0000
0001
0010
0000
1000
0010
0000
0001
0000
0000
0000
,
2000
0010
0010
3002
0010
1003
,
2002
0000
3003
0000
1001
0000
1000
0010
0000
0001
0010
0000
1000
0000
0000
0000
,
0002
0000
0010
0000
1000
0000
0203
0000
0000
0300
0000
0000
,
2002
0000
3003
0000
1001
0000
0001
0100
0000
1000
0100
0000
0001
0000
0000
0000
,
2000
0100
0100
3002
0100
1003
,
2002
0000
3003
0000
1001
0000
1000
0100
0000
0001
0100
0000
1000
0000
0000
0000
,
0001
0100
0010
1000
0100
0010
0002
0000
0000
0003
0000
0000
,
2002
0000
0000
0000
,
0000
0000
0000
3003
,
1000
0100
0010
0001
0021
0031
0100
1000
,
0100
0001
1000
1200
1300
0100
0010
0001
,
0100
0010
0120
0130
1000
0001
0010
0100
,
0001
1002
1003
0100
0010
0001
0100
0001
,
0021
0031
0010
0100
0001
1000
0010
0012
,
0013
0001
0100
0010
1000
0100
1000
0010
,
0100
0000
0001
0000
0010
0000
0000
0010
0100
0000
1000
0000
0001
1000
0001
1000
,
0001
2002
0000
0000
,
3003
0000
0000
0000
0010
0000
0100
0000
0110
0000
1000
0100
0010
0001
0100
0010
,
2000
0000
3000
0000
1010
0000
1001
0000
1100
0000
0000
0000
1000
0000
0100
0010
,
0001
0000
0100
0010
1000
0000
0001
0100
0001
0000
1000
0000
0100
0000
0010
0001
,
0100
0000
0010
0000
1000
0000
0001
0000
1001
0000
0000
0000
1000
0000
0001
0100
,
0001
0000
1000
0000
0100
0000
0001
0100
0001
0000
0100
0010
0100
0000
1000
0100
,
1000
0001
1000
0010
0110
0100
0001
0010
,
0110
0000
0100
0000
1000
0000
0100
0010
0001
0000
0100
0010
0100
0010
1000
0010
,
1000
0000
0000
0000
0001
0000
0001
0100
0001
0000
1000
0000
0100
0010
0001
0000
,
0100
0010
1000
0000
0002
0000
0100
0000
0203
0000
1000
0000
2300
0000
3001
0010
,
1000
0010
0100
0002
0010
0013
0001
2000
,
0010
0000
3010
0000
2000
0000
0100
0000
3200
0000
0001
0000
0302
0000
1003
0010
,
0001
0000
0010
0000
0001
0000
1000
0000
1001
0000
0000
0000
0001
0000
1000
0100
,
0010
0000
0100
0000
1000
0000
0010
0000
0110
0000
0100
0000
0001
0000
1000
0001
,
0100
0000
0001
0000
0010
0000
0100
0000
0110
0000
0010
0000
0001
0000
1000
0001
,
1000
0000
0001
0000
0100
0000
0010
1000
0100
0000
0010
0001
0100
0010
1000
0100
,
0010
0000
0001
0000
0100
0000
0010
1000
0000
0100
1000
0000
0010
1000
0000
0100
,
1000
0001
0100
0001
0010
0000
0100
1000
0000
0001
1000
0000
0100
1000
0000
0001
,
1000
0010
0100
0010
1000
0000
0001
0010
0000
0100
0010
0000
0001
0100
0000
0010
,
0100
0001
1000
0001
0100
0000
0010
1000
0000
0001
0100
0000
0010
1000
0010
0100
,
0002
0000
0000
0000
1003
0000
0100
0010
0000
0001
1000
0000
0001
0010
0000
0100
,
1000
0100
1000
0001
1000
0000
0001
0100
0000
0010
1000
0000
0001
1000
0000
0010
,
0100
0010
0100
0001
0100
0000
0100
0000
0010
0000
0010
0000
1000
0001
1000
0001
,
1000
0001
1000
0001
1000
0000
0000
0000
0000
0000
0000
0000
0000
0000
0000
0000
,
0000
1001
0000
0000
,
0000
0000
0000
0000
;
#NOTES:
     dance-double:
     :
     Easy:
     6:
     :
00000000
00000000
00000000
00000000
,
00000000
00000000
00000000
00000000
,
00000000
00000000
00000000
00000000
,
00000000
00000000
00000000
00000000
,
00000000
00000000
00000000
00000000
,
00000000
00000000
00000000
00000000
,
00000000
00000000
00010000
00001000
,
00010000
00001000
00010000
00000000
,
00022000
00000000
00000000
00000000
,
00033000
00000000
00000000
00000000
,
00020000
00030000
00000200
00000300
,
00001000
00001000
00002000
00003000
,
00000020
00000030
00000200
00000300
,
00000001
00001000
00000002
00000003
,
00000002
00000003
00000200
00000300
,
00000010
00000010
00000020
00000030
,
00000020
00000030
00020000
00030000
,
00001000
00010000
00022000
00033000
,
00020000
00000000
00000000
00030000
,
00001000
01000000
00010000
00100000
,
00020000
00000000
00000000
00030000
,
10000000
01000000
00100000
00010000
,
20000000
00000000
00000000
30000000
,
10000000
01000000
00010000
00000000
,
00001000
00000000
00010000
00000000
,
00022000
00000000
00000000
00033000
,
00002000
00000000
00000000
00003000
,
00010000
00000100
00001000
00000010
,
00002000
00000000
00000000
00003000
,
00000001
00000100
00000010
00001000
,
00000002
00000000
00000000
00000003
,
00000001
00000100
00001000
00000000
,
00010000
00000000
00001000
00000000
,
00022000
00000000
00000000
00033000
,
00010000
00000000
00001000
00000000
,
00010000
00001000
01000000
00010000
,
01000000
00000000
00100000
00000000
,
10000000
01000000
00100000
00010000
,
00100000
00000000
01100000
00000000
,
10000000
00100000
00010000
00000000
,
00002000
00000000
00000000
00000000
,
00003000
00000000
00000000
00000000
,
00011000
00000000
00000000
00000000
,
00001000
00000000
00000010
00000000
,
00000110
00000000
00000000
00000000
,
00000001
00000000
00001000
00000000
,
00001001
00000000
00000000
00000000
,
00001000
00000000
00000100
00000000
,
00011000
00000000
00000000
00000000
,
00001000
00010000
00100000
00000000
,
02200000
00000000
00000000
00000000
,
03300000
00000000
00000000
00000000
,
20000000
00000000
00000000
00000000
30000000
00000000
00000000
02000000
,
00000000
00000000
00000000
03000000
00000000
00000000
00200000
00000000
,
00000000
00000000
00300000
00000000
00000000
00002000
00000000
00000000
,
00000000
00003000
00000000
00000000
00020000
00000000
00000000
00000000
,
00030000
00000000
00000000
00000020
00000000
00000000
00000000
00000030
,
00000000
00001000
00000000
00001000
,
00000000
00000001
00001000
00000001
,
00000000
00001000
00000000
00000010
,
00000000
00010000
00001000
00010000
,
00000000
00011000
00000000
00011000
,
00000000
00001000
00010000
01000000
,
00000000
01100000
00000000
00000000
,
00000000
10010000
00000000
00000000
,
00000000
10000000
01000000
00100000
,
00001000
00020000
00000000
00000000
,
00030000
00010000
00000000
00001000
,
00000000
00010000
00000010
00001000
,
00000000
00000100
00000000
00001000
,
00000000
00000010
00001000
00000100
,
00000000
00000010
00000000
00001000
,
00000000
00010000
00001000
00010000
,
00000000
00001000
00000000
00010000
,
00000000
00100000
01000000
00100000
,
00000000
20000000
00000000
30010000
,
00000000
10000000
01000000
00010000
,
00000000
00002000
00000000
00013000
,
00000000
00010000
00001000
00000010
,
00000000
00000110
00000000
00000000
,
00000000
00000001
00000100
00000010
,
00010000
00002000
00000000
00000000
,
00000000
00003000
00000000
00000000
,
00000000
00011000
00000000
00000000
,
00000000
00000000
00000000
00000000
;
#NOTES:
     dance-double:
     :
     Medium:
     10:
     :
00000000
00000000
00000000
00000000
,
00000000
00000000
00000000
00000000
,
00000000
00000000
00000000
00000000
,
00000000
00000000
00000000
00000000
,
00000000
00000000
00000000
00000000
,
00000000
00000000
00000000
00000000
,
00000001
00001000
00000001
00000000
00001000
00000010
00001000
00000000
,
00000010
00010000
00000010
00000000
00010000
00001000
00010000
00000000
,
00002000
00000000
00000000
00000000
,
00003000
00000000
00000000
00000000
,
00002000
00000000
00013000
00000000
00001000
00100000
00010000
00000000
,
02000000
00000000
03100000
00000000
10000000
00010000
10000000
00000000
,
00200000
00000000
01300000
00000000
00010000
01000000
00010000
00000000
,
00200000
00000000
00301000
00000000
00010000
00001000
00010000
00000000
,
00001000
00010000
00000100
00000000
00000010
00000100
00001000
00000000
,
00000001
00000100
00001000
00000100
00000002
00000000
00000003
00000000
,
00000001
00000100
00000010
00000000
00000100
00000010
00001000
00000000
,
00000010
00001000
00000100
00001000
00000100
00010000
00011000
00000000
,
00001000
00000000
00010000
00000000
00001000
00000000
01000000
00010000
,
00000000
00100000
00010000
00100000
01000000
10000000
01000000
00000000
,
10000000
00000000
00010000
00000000
01000000
00000000
00100000
01000000
,
00000000
00100000
10000000
00010000
00100000
00001000
00010000
00000000
,
00011000
00000000
00000000
00000000
00001000
00000000
00010000
00000010
,
00000000
00000010
00001000
00000010
00000100
00000000
00000110
00000000
,
00000002
00000203
00000320
00002030
,
00003010
00010000
00000010
00010000
00001000
00010000
00001000
00000000
,
00010000
00000000
00001000
00000000
00010000
00000000
00000100
00001000
,
00000000
00000010
00001000
00000010
00000100
00000001
00000100
00000000
,
00000001
00000000
00001000
00000000
00000100
00000000
00000010
00000100
,
00000000
00000010
00000001
00001000
00000010
00010000
00001000
00000000
,
00011000
00000000
00000000
00000000
00010000
00000000
00001000
00100000
,
00000000
00100000
00010000
00100000
01000000
00000000
01100000
00000000
,
20000000
32000000
03200000
00320000
,
00130000
00001000
00100000
00001000
00010000
00001000
00010000
00000000
,
00001000
00000000
00000010
00000000
00000100
00000010
00000100
00000000
,
00001000
00000000
00000001
00000100
00000000
00000010
00001000
00000010
,
00000000
00010000
00000010
00000000
00010000
00001000
00010000
00000000
,
00001000
00000000
00010000
00100000
00000000
00100000
01000000
00000000
,
00020000
00000000
00030000
00000000
00010000
00000000
10000000
01000000
,
10000000
00100000
00010000
00001000
,
00010000
00000100
00001000
00000000
00000010
00010000
00001000
00000000
,
00010000
00000000
00000000
00000000
,
00010000
00000000
00001000
00000000
00000010
00000100
00000010
00000000
,
00000001
00000100
00000010
00001000
00000000
00000000
,
00000001
00000000
00000100
00000000
00001000
00010000
00001000
00000000
,
00010000
00100000
00010000
00001000
00000000
00000000
,
00001000
00000000
00010000
00000000
00100000
01000000
00100000
00000000
,
10000000
01000000
00100000
00010000
00000000
00000000
,
10000000
00000000
01000000
00000000
00010000
00001000
00010000
00000000
,
00001000
00000010
00000001
00000000
,
00000220
00000000
00000000
00000000
,
00000000
00000000
00000000
00000330
,
00000001
00000000
00000100
00000000
00000101
00000000
00000000
00000001
,
00000000
00000010
00000000
00001000
00000000
00000000
00010000
00000000
,
00001000
00000000
00011000
00000000
00000000
00010000
00000000
01000000
,
00000000
10000000
00000000
00000000
10000000
00000000
00100000
00000000
,
10010000
00000000
00000000
00010000
00000000
00100000
00000000
00001000
,
00000000
00010000
00000100
00001000
,
00000010
00000100
00000100
00000100
,
00000000
00000000
00000001
00000100
00000010
00000000
00001000
00000000
,
00000100
00000010
00000000
00001000
00000000
00010000
00000000
00001000
,
00011000
00000000
00001000
00010000
00100000
00000000
10000000
00000000
,
01000000
00100000
00000000
10000000
00000000
00100000
00000000
00010000
,
00000000
10000000
00010000
00000000
00000000
00000000
10000000
00000000
,
01000000
00010000
00000000
00010000
00001000
00000000
00011000
00000000
,
00000000
00000000
00010000
00000010
00001000
00000000
00000100
00001000
,
00000010
00002000
00000000
00000001
,
00003001
00000001
00000100
00001000
,
00010000
00001000
00000000
00000100
00001000
00010000
00000000
00100000
,
00000000
10000000
00010000
00000000
10010000
00000000
10000000
00000000
,
01000000
00100000
00000000
01000000
00010000
01000000
00000000
00010000
,
00001000
00010000
00001000
00000000
00000000
00000000
00010000
00000000
,
00000010
00001000
00000000
00000100
00001000
00000000
00001010
00000000
,
00000010
00000100
00000001
00000000
00001000
00000000
00000010
00000000
,
00010000
00001000
00020000
00000000
00030000
00000000
00001000
00000000
,
00010000
00001000
00000000
01000000
00010000
00000000
00100000
01000000
,
00100000
00000000
00010000
00000000
01000000
10000000
00000000
01000000
,
00000000
00010000
00000000
01000000
00001000
00000000
00010000
00001000
,
00010000
00000000
00001000
00000000
00000100
00000001
00000000
00001000
,
00000001
00000000
00001001
00000000
00000000
00000000
00000001
00000100
,
00000010
00001000
00000000
00000010
00010000
00000010
00000000
00010000
,
00001000
00022000
00000000
00000000
,
00000000
00033000
00000000
00000000
,
00000000
00011000
00000000
00000000
,
00000000
00000000
00000000
00000000
;
#NOTES:
     dance-double:
     :
     Hard:
     15:
     :
00000000
00000000
00000000
00000000
,
00000000
00000000
00000000
00000000
,
00000000
00000000
00000000
00000000
,
00000000
00000000
00000000
00000000
,
00000000
00000000
00000000
00000000
,
00000000
00000000
00000000
00000000
,
00000001
00000100
00000001
00000100
00000010
00001000
00000100
00001000
,
00000010
00010000
00001000
00010000
00000010
00010000
00001000
00100000
,
00002000
00000000
00000000
00000000
,
00003000
00000000
00000000
00000000
00000000
00000000
00001000
00010000
,
00001000
00010000
00001000
00000000
00011000
00000000
00001000
01000000
00010000
01000000
00010000
00000000
01010000
00000000
01000000
00100000
,
10000000
00000000
01000000
00000000
00010000
00000000
01000000
00000000
20000000
00000000
30000000
00010000
10000000
00000000
10000000
00100000
,
01000000
00010000
01000000
00000000
01010000
00000000
00010000
01000000
00010000
00100000
00001000
00000000
00101000
00000000
00100000
00001000
,
00010000
00000000
00001000
00000000
00000100
00000000
00000001
00000000
00002000
00000000
00003000
00000001
00000010
00000000
00000000
00000000
,
00000001
00000100
00000010
00001000
00000010
00000100
00000001
00000000
00000010
00000100
00001000
00000100
00000010
00000100
00001000
00000000
,
00000100
00010000
00001000
00000000
00010000
00001000
00100000
00000000
00020000
00000000
00100000
00000000
10030000
00000000
00000000
00000000
,
10000000
01000000
00100000
00010000
00100000
01000000
10000000
00000000
00100000
01000000
00010000
01000000
00100000
01000000
00010000
00000000
,
01000000
00000000
00001000
00000000
00010000
00000000
00000000
00000000
00001000
00000000
00010000
00000000
00000010
00000000
00000000
00000000
00001000
00000000
00000000
00000000
00001010
00000000
00000000
00000000
00000001
00001000
00000001
00001000
00000001
00000000
00000000
00000000
,
00000011
00000000
00000110
00000000
00001100
00000000
00000001
00000100
,
00001000
00000100
00001000
00010000
00001000
00010000
00100000
00000000
,
00100000
10000000
01000000
01000000
00100000
00010000
01000000
01000000
,
10000000
01000000
00010000
00100000
01000000
00010000
00001000
00000010
,
00000002
00000000
00000103
00000000
00000101
00000000
00000011
00000010
,
00000001
00001000
00000100
00010000
00001000
01000000
00010000
00000000
,
20000000
00100000
30020000
00100000
,
01030000
00000000
00000000
00100000
10000000
00000000
00000000
00010000
01000000
00010000
01000000
00000000
00010000
00000000
00000000
00000000
,
10100000
00000000
01100000
00000000
01010000
00000000
10000000
01000000
,
00010000
01000000
00010000
00001000
00010000
00001000
00000010
00000000
,
00000010
00000001
00000100
00000100
00000010
00001000
00000100
00000100
,
00000001
00000100
00001000
00000010
00000100
00001000
00010000
00100000
,
20000000
00000000
31000000
00000000
11000000
00000000
10100000
00100000
,
10000000
00010000
01000000
00001000
00010000
00000100
00001000
00000000
,
00000002
00000010
00002003
00000010
,
00003100
00000000
00000000
00000010
00000001
00000000
00000000
00001000
00000100
00001000
00000100
00000000
00001000
00000000
00000000
00000000
,
00000001
00000000
00001000
00000100
00001000
00000000
00000001
00000100
00000001
00000000
00000010
00000000
00000100
00000000
00001000
00000000
,
00000100
00010000
00001000
00010000
00000000
00010000
00100000
10000000
,
00000000
00000000
00010000
01000000
00010000
00000000
10000000
00100000
10000000
00000000
00010000
00100000
01000000
00000000
10000000
00000000
,
00100000
00000000
00010000
00000000
00001000
00000000
00010000
00000000
00000000
00000000
00001000
00010000
00001000
00000000
00000000
00000000
,
00011000
00000000
00000000
00000000
00010000
00000000
00000100
00001000
00000100
00000000
00000010
00000000
00000001
00000000
00002000
00000000
,
00000000
00000000
00000010
00000000
00003010
00000000
00000100
00000000
00000000
00000000
00000001
00001000
00000001
00000000
00000000
00000000
,
00000020
00000031
00000011
00000010
00000200
00001300
00001100
00000100
,
00010000
00000000
00000000
00000000
,
00002000
00000000
00000000
00000000
00013000
00000000
00100000
01000000
00000000
00100000
01000000
00000000
00010000
00000000
00000000
00000000
,
10000000
01000000
00010000
00011000
00001000
00000010
,
00000002
00000000
00000000
00000000
00000013
00000000
00000100
00001000
00000000
00000100
00010000
00000000
00001000
00000000
00000000
00000000
,
00010000
01000000
00010000
00011000
00000000
00000000
,
00020000
00000000
00000000
00000000
00031000
00000000
00000010
00000100
00000000
00000010
00000100
00000000
00001000
00000000
00000000
00000000
,
00000001
00000100
00001000
00011000
00010000
00100000
,
20000000
00000000
00000000
00000000
30100000
00000000
01000000
00010000
00000000
01000000
00001000
00000000
00010000
00000000
00000000
00000000
,
00001000
00010000
00000010
00000100
00001000
00010000
00001000
00000000
00000000
00000000
00000000
00000000
,
00022000
00000000
00000000
00000000
,
00000000
00000000
00000000
00033000
,
00001000
00010000
00001000
00000000
00011000
00011000
00000000
00001000
,
00010000
00100000
00000000
01100000
01100000
00100000
10000000
01000000
,
00100000
00000000
00101000
00101000
00001000
00010000
00000100
00010000
,
00000000
00011000
00011000
00001000
00000010
00000001
00000010
00000000
,
00000011
00000011
00000001
00001000
00000100
00001000
00000000
00001010
,
00001010
00000010
00000200
00000000
00002300
00000000
00023000
00000000
,
00230000
10300000
01100000
10010000
,
00000000
00000000
10000000
00100000
01000000
00010000
10000000
01000000
,
00100000
00000000
00010000
00000000
10000000
00000000
00100000
00000000
01000000
00000000
00100000
00000000
00010000
00000000
00001000
00010000
,
00001000
00000000
00010000
00000100
00001100
00000000
00001000
00000010
,
00000100
00000001
00000010
00000100
00000001
00000100
00000010
00000100
,
00001000
00000100
00010000
00000000
00011000
00000000
00001000
00010000
,
00100000
10000000
00000000
10000000
01000000
00100000
00010000
00000000
,
10000000
01000000
00100000
00000000
00101000
00000000
00001000
00010000
,
00000100
00001000
00000020
00001030
00001010
00000010
00000200
00000301
,
00000101
00000000
00000001
00000010
00000100
00001000
00000001
00000100
,
00000010
00000000
00001000
00000000
00000001
00000000
00000010
00000100
00000010
00000000
00000100
00010000
00000100
00000000
00010000
00001000
,
00010000
00000000
00001000
01000000
01010000
00000000
00010000
00100000
,
01000000
00000000
10000000
00000000
00100000
00000000
01000000
00010000
01000000
00000000
00100000
10000000
00100000
00000000
10000000
01000000
,
10000000
01000000
00010000
00000000
00011000
00000000
00010000
00001000
,
00000010
00000001
00000000
00000001
00000100
00000010
00001000
00000000
,
00000001
00000100
00000010
00000000
00010010
00000000
00010000
00001000
,
01000000
00010000
00200000
00310000
00110000
00100000
02000000
13000000
,
11000000
00000000
01000000
00000000
00000000
00000000
10000000
00100000
01000000
00000000
00100000
01000000
00010000
00000000
00100000
00000000
,
00010000
01000000
00001000
00010000
00001000
00011000
00000000
00010000
,
00001000
00000000
00000010
00000000
00000000
00000000
00000001
00000010
00000100
00000000
00000010
00000100
00001000
00000000
00000001
00001000
,
00000001
00000000
00000100
00000000
00000010
00000000
00001000
00000000
00000100
00000000
00010000
00000000
00000000
00000000
00010000
00001000
,
00010000
00000000
00011000
00000000
00000000
00001000
00010000
00100000
,
10000000
00010000
00000000
00010000
01000000
00100000
00000000
10000000
,
00010000
00000000
20000000
32000000
03200000
00320000
00032000
00003200
,
00000320
00000032
00000003
00000000
00000000
00000000
00000000
00000000
,
00000000
00001001
00000000
00000000
,
00000000
00000000
00000000
00000000
;
#NOTES:
     dance-double:
     :
     Challenge:
     17:
     :
00000000
00000000
00000000
00000000
,
00000000
00000000
00000000
00000000
,
00000000
00000000
00000000
00000000
,
00000000
00000000
00000000
00000000
,
00000000
00000000
00000000
00000000
,
00000000
00000000
00000000
00000000
,
00001000
00010000
00001000
00010000
00001000
00100000
00001000
00100000
,
00010000
00100000
00010000
00100000
01000000
10000000
01000000
10000000
,
00100000
00000000
01000000
00000000
00001000
00000000
00010000
00000000
00000100
00000000
00000010
00000000
00000001
00000000
00001000
00000001
,
00001000
00000000
00000001
00000100
00001000
00000000
00010000
00100000
,
20000000
00100000
30100000
00000000
10100000
00000000
10000000
00010000
02000000
00001000
03001000
00000000
00011000
00000000
00010000
00001000
,
00000010
00000000
00000010
00000001
00001000
00000000
00000100
00000001
00000200
00000000
00000000
00001000
00001300
00000000
00001000
00000001
,
00000200
00000010
00000310
00000000
00001010
00000000
00001000
00000010
00020000
00001000
00031000
00000000
00011000
00000000
00001000
00010000
,
01000000
00000000
01000000
10000000
00010000
00000000
01000000
00100000
02000000
00000000
00000000
00100000
03100000
00000000
10000000
00100000
,
10000000
01000000
10000000
01000000
00100000
00010000
00100000
00010000
00001000
00000100
00001000
00000100
00000010
00000001
00000010
00000001
,
00000100
00000001
00000100
00000001
00001000
00000010
00001000
00010000
01000000
00010000
01000000
00100000
10000000
00100000
10000000
00000000
,
00010000
00000000
00000000
00010000
01000000
00000000
00010000
00000000
00100000
00000000
00000000
00100000
00001000
00000000
00010000
00000000
00000010
00000000
00000000
00000010
00001000
00000000
00000100
00000000
00000010
00000000
00000000
00000010
00000001
00000000
00000100
00000000
,
00000010
00000000
00001000
00000010
00001000
00000000
00000010
00000000
00010000
00000000
00001000
00010000
00001000
00000000
01000000
00000000
00010000
00000000
00000000
00100000
00010000
00000000
10000000
00000000
01000000
00100000
00010000
00100000
00010000
00000000
00000000
00000000
,
10010000
10000000
01000000
00010000
00011000
00001000
00010000
00100000
,
01100000
00000000
01000000
00000000
00001000
00000000
00010000
00000000
00000100
00000000
00001000
00000100
00000010
00000000
00000001
00000000
,
00000100
00000000
00000100
00000000
00000110
00000000
00000100
00000000
00001100
00000000
00000100
00000000
00000101
00000000
00000001
00000010
,
00000100
00000000
00000010
00000100
00001000
00000000
00000100
00010000
00001000
00000000
00010000
00001000
00100000
00000000
00010000
01000000
,
00100000
00000000
00000000
00000000
01100000
00000000
00000000
00000000
10000000
00100000
10000000
00100000
01000000
00000000
10000000
00000000
,
00000000
00000000
10000000
00000000
01000000
00000000
00001000
00000000
00010000
00000000
00000000
00000000
00010000
00000100
00001000
00000100
,
00020000
00000000
00032000
00000000
00003200
00000000
00000301
00000010
,
00000100
00010000
00001000
00010000
00000010
00010000
00001000
00010000
00000100
00001000
00000100
00000000
00000010
00000000
00000000
00000000
,
00001001
00000001
00000100
00001000
00011000
00010000
00001000
00000010
,
00000110
00000000
00000100
00000000
00010000
00000000
00001000
00000000
01000000
00000000
00010000
01000000
00100000
00000000
10000000
00000000
,
01000000
00000000
01000000
00000000
01100000
00000000
01000000
00000000
01010000
00000000
01000000
00000000
11000000
00000000
10000000
00100000
,
01000000
00000000
00100000
01000000
00010000
00000000
01000000
00001000
00010000
00000000
00001000
00010000
00000010
00000000
00001000
00000100
,
00000010
00000000
00000000
00000000
00000110
00000000
00000000
00000000
00000001
00000010
00000001
00000010
00000100
00000000
00000001
00000000
,
00000000
00000000
00000001
00000000
00000100
00000000
00010000
00000000
00001000
00000000
00000000
00000000
00001000
01000000
00010000
01000000
,
00002000
00000000
00023000
00000000
02030000
00000000
13000000
00100000
,
01000000
00001000
00010000
00001000
00100000
00001000
00010000
00001000
01000000
00010000
01000000
00000000
00100000
00000000
10000000
00000000
,
00000000
00000000
10000000
01000000
00100000
00000000
01000000
00100000
00001000
00000000
00010000
00001000
00010000
00000000
00011000
00000000
,
00001000
00010000
00000010
00001000
00000010
00000000
00000100
00000000
00000000
00000000
00000100
00000001
00001000
00000000
00000001
00000000
,
00000000
00000000
00000001
00000010
00000100
00000000
00000010
00000100
00001000
00000000
00000100
00010000
00001000
00000000
00011000
00000000
,
00010000
00001000
00010000
00001000
00100000
00010000
00100000
00001000
00100000
00000000
00010000
00100000
01000000
00000000
10000000
00000000
,
00100000
00000000
10000000
01000000
00100000
00000000
00101000
00000000
00100000
00001000
00010000
00001000
00010000
00000000
00000100
00010000
,
00000100
00000000
00001000
00000100
00000010
00000000
00000001
00000000
00000100
00000010
00000100
00000010
00000100
00000000
00000001
00000000
,
00000020
00000000
00000000
00000000
00000031
00000100
00001000
00000000
00010000
00000000
00100000
00000000
10000000
01000000
00010000
00000000
,
00001000
00000000
00000000
00000000
,
00022000
00000000
00033000
00000000
00010000
00000000
00001000
00000010
00000000
00000010
00001000
00000000
00010000
00000000
00000000
00000000
,
00001000
00100000
01000000
01000000
00100000
00001000
,
00022000
00000000
00033000
00000000
00001000
00000000
00010000
00100000
00000000
00100000
00010000
00000000
00001000
00000000
00000000
00000000
,
00010000
00001000
00000010
00001000
00000000
00000000
,
00022000
00000000
00033000
00000000
00001000
00000000
00010000
01000000
00000000
01000000
00010000
00000000
00001000
00000000
00000000
00000000
,
00010000
00000100
00000010
00000010
00000100
00010000
,
00022000
00000000
00033000
00000000
00010000
00000000
00001000
00000100
00000000
00000100
00001000
00000000
00010000
00000000
00000000
00000000
,
00001000
00010000
00100000
10000000
00010000
01000000
00100000
00000000
00000000
00000000
00000000
00000000
,
20020000
00000000
00000000
00000000
,
00000000
00000000
00000000
30030000
,
10000000
00100000
01000000
00010000
00120000
00130000
00001000
00010000
,
00000100
00001000
00000100
00000210
00000310
00000001
00000100
00000010
,
00000100
00001000
00021000
00031000
00100000
00010000
01000000
00010000
,
00100000
01200000
01300000
10000000
00010000
01000000
00001000
00010000
,
00020100
00030100
00001000
00000010
00000100
00000001
00000010
00000210
,
00000310
00000001
00001000
00000010
00010000
00001000
01000000
00010000
,
10000000
00000000
00100000
00000000
10000000
00000000
00000000
10000000
01000000
00000000
00100000
00000000
00001000
00010000
00001000
00010000
,
00001000
00022000
00000000
00000000
,
00033000
00000000
00000000
00000000
00001000
00000000
00010000
00000100
00010000
00000000
00001000
00100000
00001000
01000000
00001000
00010000
,
00001000
00000000
00000000
00000000
00011000
00000000
00011000
00000000
00011000
00000000
00000000
00000000
00010000
00000000
00000010
00001000
,
00000010
00000000
00000100
00000001
00001000
00000000
00000100
00000010
00000001
00000000
00000010
00000100
00010000
00000000
00001000
00010000
,
00001000
00000000
00010000
00000000
01000000
00000000
10000000
00000000
00010000
00000000
00000000
00000000
10000000
00000000
00100000
01000000
,
00100000
00000000
10000000
00000000
01000000
00000000
00100000
00010000
00100000
00000000
00001000
00010000
00001000
00000000
00010000
00000010
,
00001000
00000010
00000001
00000010
00010000
00001000
00010000
01000000
,
10000000
00000000
00010000
00000000
10000000
01000000
10000000
01000000
00100000
00001000
00010000
00000000
00000100
00001000
00000100
00000010
,
00000001
00000000
00000000
00000000
00001000
00000000
00000010
00000100
00000001
00000000
00000010
00000100
00001000
00000000
00000010
00000100
,
00000010
00000000
00000100
00000000
00001000
00000000
00010000
00000000
00100000
00000000
01000000
00000000
00100000
00000000
00010000
00001000
,
00010000
00000000
00001000
00000000
00010000
00000000
01000000
10000000
01000000
00000000
00100000
00010000
00100000
00000000
00010000
10000000
,
01000000
00000000
00100000
00000000
00001000
00000000
00010000
00000000
00001000
00000000
00000010
00000000
00000100
00000000
00001000
00000010
,
00000100
00000000
00001000
00010000
00001000
00000000
00010000
00000000
00011000
00000000
00000000
00000000
00001000
00000000
01000000
00010000
,
01000000
00000000
00010000
00000000
00000000
00000000
00010000
10000000
01000000
10000000
01000000
00100000
00010000
00000000
10000000
00100000
,
01000000
00000000
00001000
00000000
00010000
00000000
00000010
00001000
00000010
00000000
00001000
00000100
00001000
00000000
00000100
00000010
,
00000001
00000000
00000100
00000000
00000010
00001000
00000010
00001000
00000010
00010000
00000010
00010000
00001000
00010000
00001000
00010000
,
00001000
00000000
00010000
00000000
00001000
00000000
01000000
00010000
00000000
00100000
00010000
00000000
01000000
00100000
00000000
10000000
,
00100000
00000000
10000000
01000000
00100000
00000000
00001000
00010000
00001000
00000000
00011000
00000000
00000000
00000000
00010000
00000010
,
00001000
00000000
00000010
00000000
00001000
00000000
00000100
00000010
00000000
00000001
00001000
00000000
00000001
00000100
00000000
00000010
,
00001000
00000000
00000100
00000010
00000100
00000000
00001000
00000100
00000000
00010000
00001000
00000000
00100000
00010000
00100000
00001000
,
00200000
00000000
00000000
00000000
00310000
00000000
10000000
00100000
00000000
01000000
00010000
00000000
00100000
00010000
00000000
00100000
,
00001000
00000000
00010000
00001000
00010000
00000000
00000100
00001000
00000000
00000010
00001000
00000000
00000100
00000010
00000000
00000001
,
00000100
00000000
00000001
00000010
00000001
00000000
00000010
00000100
00000010
00000000
00000100
00010000
00000100
00000000
00010000
00001000
,
00010000
00001000
00010000
00001000
00010000
00000000
00000000
00000000
00000000
00000000
00000000
00000000
00000000
00000000
00000000
00000000
,
00000000
00011000
00000000
00000000
,
00000000
00000000
00000000
00000000
;
