
//----- song ID: tloc -----//
#TITLE:TRUE♥LOVE (Clubstar's True Club Mix);
#ARTIST:jun feat. Schanita;
#TITLETRANSLIT:TRUE LOVE (Clubstar's True Club Mix);
#BANNER:TRUE LOVE (Clubstar's True Club Mix).png;
#BACKGROUND:TRUE LOVE (Clubstar's True Club Mix)-bg.png;
#CDTITLE:./CDTitles/DDR HOTTEST PARTY.png;
#MUSIC:TRUE LOVE (Clubstar's True Club Mix).ogg;
#SAMPLESTART:46.223;
#SAMPLELENGTH:15;
#BPMS:0=135;
#STAGE:5;
#NOTES:
     dance-single:
     :
     Beginner:
     2:
     :
0000
0000
0000
0000
,
0000
0000
0000
0000
,
0000
0000
0000
0000
,
0000
0000
0000
0000
,
0000
0000
0000
0000
,
0000
0000
0000
0000
,
0001
0000
0000
0000
,
1000
0000
0000
0000
,
0010
0000
0000
0000
,
0100
0000
0000
0000
,
0001
0000
0000
0000
,
0001
0000
0000
0000
,
1000
0000
0000
0000
,
0010
0000
0000
0000
,
1000
0000
0000
0000
,
1000
0000
0000
0000
,
0001
0000
0000
0000
,
0010
0000
0000
0000
,
0001
0000
0001
0000
,
0100
0000
0000
0000
,
0010
0000
0010
0000
,
1000
0000
0000
0000
,
0001
0000
0001
0000
,
0100
0000
0000
0000
,
0220
0000
0000
0000
,
0330
0000
0000
0000
,
1000
0000
0000
0000
,
0010
0000
0000
0000
,
1000
0000
0000
0000
,
0001
0000
0001
0000
,
0100
0000
0000
0000
,
0001
0000
0000
0000
,
1000
0000
0000
0000
,
0010
0000
0010
0000
,
0100
0000
0000
0000
,
0010
0000
0000
0000
,
1000
0000
0000
0000
,
0001
0000
0001
0000
,
1000
0000
0000
0000
,
0100
0000
0000
0000
,
0010
0000
0000
0000
,
0001
0000
1000
0000
,
0001
0000
0000
0000
,
0100
0000
0000
0000
,
0001
0000
0000
0000
,
1000
0000
0000
0000
,
0010
0000
0000
0000
,
0100
0000
0000
0000
,
0010
0000
0000
0000
,
1000
0000
0000
0000
,
0001
0000
0001
0000
,
0010
0000
0010
0000
,
0100
0000
0100
0000
,
1000
0000
1000
0000
,
0000
0000
0000
0000
;
#NOTES:
     dance-single:
     :
     Easy:
     5:
     :
0000
0000
0000
0000
,
0000
0000
0000
0000
,
0000
0000
0000
0000
,
0000
0000
0000
0000
,
0000
0000
0000
0000
,
0000
0000
0000
0000
,
0001
0000
0100
0001
,
1000
0000
0010
1000
,
0001
0000
0010
0100
,
0110
0000
1001
0000
,
0001
0100
0001
0000
,
1000
0010
1000
0000
,
0010
1000
0001
0010
,
0100
0010
0110
0000
,
0001
1000
1001
0000
,
1000
0001
1001
0000
,
1000
0010
0100
0010
,
1000
0000
0001
0000
,
0010
0100
0010
0000
,
0001
0100
0010
1000
,
0010
0100
0010
0000
,
1000
0100
0010
0001
,
1000
0010
1000
0000
,
0001
0010
0100
0010
,
0002
0000
0203
0000
,
0310
0010
0100
0100
,
0001
0000
1000
0000
,
0001
0100
0001
1000
,
0110
0001
1000
0000
,
0010
1000
0010
0100
,
0001
0000
1000
0000
,
0010
1000
0100
1000
,
0010
0000
0100
0000
,
0001
0000
0100
0110
,
0010
1000
0100
0010
,
0001
1000
0001
0100
,
0010
0010
0010
0000
,
1000
0100
1000
0001
,
0100
0001
0010
0100
,
1000
0001
1000
0010
,
0100
0100
0100
0000
,
1001
0000
0110
0000
,
1000
0001
0000
0001
,
0000
0100
0000
0100
,
0000
0010
0000
0010
,
1000
0100
0010
0001
,
0100
0010
0000
0010
,
0000
1000
0000
1000
,
0000
0001
0000
0001
,
0100
0010
1000
0001
,
1000
0010
1000
0010
,
0100
0010
0100
0010
,
1000
0001
1000
0001
,
0010
0010
0010
0110
,
0000
0000
0000
0000
;
#NOTES:
     dance-single:
     :
     Medium:
     9:
     :
0000
0000
0000
0000
,
0000
0000
0000
0000
,
0000
0000
0000
0000
,
0000
0000
0000
0000
,
0000
0000
0000
0000
,
0000
0000
0000
0000
,
0001
0100
0001
0100
0000
0010
0000
0010
,
1000
0100
1000
0100
0000
0010
0000
0010
,
0001
1000
0001
1000
0000
0100
0000
0100
,
0010
0110
0001
1001
,
1000
0000
0100
0010
0000
0010
0001
0000
,
1000
0000
0010
0100
0000
0100
0001
0000
,
0010
0001
0010
0000
0100
0000
1000
0000
,
0010
0100
0010
0100
0010
0000
1000
0000
,
0001
0000
0100
0010
0000
0010
1000
0000
,
0001
0000
0010
0100
0000
0100
1000
0000
,
0010
1000
0010
0000
0100
0000
0001
0000
,
0010
0100
0000
1000
0000
0010
0100
0000
,
0101
0000
1001
0000
1100
0000
0001
0010
,
0000
0001
0100
0000
0010
1000
0100
0000
,
1100
0000
1001
0000
0011
0000
1000
0100
,
0000
1000
0010
0100
0000
0001
1000
0000
,
1010
0000
0110
0000
0101
0000
0001
0010
,
0000
0001
0000
1000
0000
0010
0100
0001
,
0020
0000
0000
0130
2000
0000
0000
0000
,
3001
0100
0001
0100
0001
0100
0001
0000
,
1000
0000
0100
0000
1000
0100
0001
0000
,
0001
0100
1000
0000
0010
0100
0001
0000
,
0110
0000
1000
0001
0000
1001
0000
1000
,
0010
0100
0010
0000
0100
0001
0100
0000
,
0001
0000
0010
0000
0001
0010
1000
0000
,
1000
0010
0001
0000
0100
0010
1000
0010
,
0000
1000
0100
0010
0000
0011
0000
1000
,
0020
0000
0230
0000
0301
0010
0001
0000
,
0100
0000
0010
0000
1000
0010
1000
0000
,
0001
0100
0001
0000
0010
0000
0100
0000
,
0010
0000
0001
0100
0000
0010
0100
0000
,
0001
1000
0100
0000
0010
0001
1000
0000
,
0010
0000
0100
0000
0010
1000
0010
0000
,
0100
0001
0100
0000
0001
0000
0010
0000
,
0001
0000
0100
0010
0000
1000
0010
0100
,
0001
0000
0100
0000
0001
0100
1000
0000
,
0100
0000
0010
0100
0000
0001
0010
0100
,
0000
1000
0010
0100
0000
0001
0010
0100
,
1000
0000
0100
0010
0000
0100
1000
0010
,
1000
0000
0001
0000
1000
0100
0010
0000
,
0001
0000
1000
0010
0000
1000
0100
0010
,
0000
0001
0100
0010
0000
1000
0100
0010
,
0001
0000
0100
0010
0000
0100
0010
1000
,
0001
0000
0100
0000
1000
0100
0001
0000
,
1000
0010
1000
0000
0010
0100
0010
0000
,
0100
0001
0100
0000
0001
0010
0001
0000
,
1000
0100
1000
0000
0001
0100
0001
0000
,
1000
0100
0010
0100
0010
0100
0010
0000
,
0000
0000
0000
0000
;
#NOTES:
     dance-single:
     :
     Hard:
     13:
     :
0000
0000
0000
0000
,
0000
0000
0000
0000
,
0000
0000
0000
0000
,
0000
0000
0000
0000
,
0000
0000
0000
0000
,
0000
0000
0000
0000
,
1000
0000
0001
1000
0000
0000
0101
0000
0000
0000
1000
0000
0100
0000
0010
0000
,
0001
0000
1000
0001
0000
0000
1100
0000
0000
0000
0001
0000
0010
0000
0100
0000
,
1000
0000
0010
0100
0000
0000
0110
0000
0000
0000
0001
0000
0010
0000
0100
0000
,
0010
0000
0001
0100
0001
0000
1000
0000
0010
0100
0010
0100
0010
0000
1000
0000
,
0001
0100
1000
0100
0000
0010
0110
0001
,
1000
0100
0001
0100
0000
0010
0110
1000
,
0001
0100
0010
0110
0000
1010
0000
1100
,
0001
0000
0010
0000
0100
0000
1000
0000
0001
0000
1000
0010
1000
0000
0001
0000
,
1000
0010
0001
0010
0000
0100
0110
1000
,
0001
0010
1000
0010
0000
0100
0110
0001
,
1000
0010
0100
0110
0000
0101
0000
0011
,
1000
0000
0010
0000
0100
0000
0001
0000
1000
0000
0001
0010
0001
0000
1000
0000
,
0001
0000
0000
0001
1000
0000
0000
1000
0010
0000
0100
0000
0001
0000
2000
0000
,
0000
3010
0100
0001
1000
0100
0010
0001
,
1000
0000
0000
1000
0010
0000
0000
0010
0100
0000
0001
0000
1000
0000
0200
0000
,
0000
0310
0100
0110
0000
0011
0001
1000
,
0010
0000
0000
0010
0100
0000
0000
0100
0001
0000
1000
0000
0010
0000
0200
0000
,
0000
0301
1000
0010
0001
1000
0100
0001
,
1000
0000
0010
0000
0100
0001
0000
0001
0100
0000
0010
0000
1000
0100
0000
0100
,
1000
0001
0000
0001
0010
0100
0000
0100
1000
0000
0010
0000
1000
0000
0010
0000
,
1000
0000
0001
0010
0001
0000
0010
0000
0001
0000
0100
0000
0010
0000
1000
0000
,
0000
0001
0010
1000
0000
0001
0100
1000
,
0001
0000
0100
0010
0100
0000
0001
0000
0000
0000
0010
0000
0100
0000
1000
0000
,
0010
0000
1000
0000
0100
0000
0010
0000
0001
0000
1000
0001
0100
0000
0010
0000
,
0100
0000
0001
1000
0001
0000
1000
0000
0010
0000
0100
0000
0001
0000
1000
0000
,
0000
0001
0100
1000
0100
0010
1000
0100
,
0000
0000
0010
0100
1000
0000
0001
0000
0000
0000
0100
0010
1000
0000
0001
0000
,
1000
0000
0000
0011
0000
0000
0110
0000
0100
0000
1000
0010
0100
0000
0010
0000
,
1000
0100
0010
0100
1000
0010
0100
0002
,
0000
1003
0100
0001
0000
0001
0100
0000
,
0010
0001
0100
0110
0000
1010
0001
1000
,
0100
0000
0010
0000
0001
0000
0100
0000
0010
0000
1000
0010
1000
0000
0001
0000
,
0010
0001
0100
0010
1000
0001
0010
0200
,
0000
1300
0010
0001
0000
0001
0010
0000
,
0100
0001
1000
1100
0000
0011
0001
0100
,
0010
0000
1000
0000
0001
0000
0010
0000
0100
0000
0010
0100
0010
0000
0001
0000
,
1000
0001
0010
1000
0000
0001
0100
1000
,
0010
1000
0010
0001
0000
1000
0100
0001
,
0100
0001
0010
1000
0000
0001
0100
1000
,
0010
1000
0010
0000
1000
0000
0100
0010
0100
0010
0100
0010
0100
0000
0010
0000
,
0001
1000
0010
0001
0000
1000
0100
0001
,
0010
0001
0010
1000
0000
0001
0100
1000
,
0100
1000
0010
0001
0000
1000
0100
0001
,
0010
0100
0000
0100
0010
0001
0000
0001
0100
0010
0100
0010
0100
0000
0001
0000
,
1000
0100
0000
0100
1000
0001
0000
0001
0100
0000
0010
0000
1000
0000
0010
0000
,
0100
0001
0000
0001
0010
0100
0000
0100
1000
0000
0010
0000
0100
0000
0010
0000
,
1000
0001
0000
0001
0100
0010
0000
0010
0100
0000
0001
0000
1000
0000
0001
0000
,
0100
0000
0010
1000
0001
0000
0010
0000
0100
0010
0100
0010
0100
0000
0000
0000
,
0000
0000
0000
0000
;
#NOTES:
     dance-double:
     :
     Easy:
     4:
     :
00000000
00000000
00000000
00000000
,
00000000
00000000
00000000
00000000
,
00000000
00000000
00000000
00000000
,
00000000
00000000
00000000
00000000
,
00000000
00000000
00000000
00000000
,
00000000
00000000
00000000
00000000
,
10000000
00000000
10000000
00010000
,
00100000
00000000
00100000
00001000
,
00010000
00000000
00010000
00000100
,
00001000
00000000
00001001
00000000
,
00000001
00000100
00000001
00000000
,
00001000
00000100
00001000
00000000
,
00000100
00010000
00001000
00100000
,
00010000
10000000
10010000
00000000
,
10000000
00100000
10000000
00000000
,
00010000
00100000
00010000
00000000
,
00100000
00001000
00010000
00000100
,
00001000
00000000
00000010
00000000
,
00001000
00000100
00001000
00000000
,
00000001
00000010
00000100
00001000
,
00000100
00010000
00001000
00000000
,
00100000
00010000
01000000
00100000
,
10000000
00010000
10000000
00000000
,
00010000
00100000
00001000
00010000
,
00002000
00000000
00023000
00000000
,
00030100
00000100
00001000
00001000
,
00000001
00000000
00001000
00000000
,
00000100
00010000
00001000
00010000
,
00011000
00001000
01000000
00000000
,
00010000
10000000
01000000
00100000
,
00010000
00000000
01000000
00000000
,
00001000
00010000
00001000
00010000
,
00000010
00000000
00001000
00000000
,
00000001
00000000
00001000
00000100
,
00010000
00001000
00010000
00001000
,
00100000
00010000
10000000
00100000
,
01000000
00010000
01000000
00000000
,
00001000
00010000
00000010
00001000
,
00000001
00000010
00000001
00001000
,
00000100
00010000
00001000
00010000
,
00001000
00100000
00010000
00000000
,
10000000
00000000
10010000
00000000
,
10000000
00100000
00000000
00100000
,
00000000
00010000
00000000
00010000
,
00000000
00001000
00000000
00001000
,
00010000
00000100
00001000
00000010
,
00000100
00000001
00000000
00000001
,
00000000
00000100
00000000
00000100
,
00000000
00001000
00000000
00001000
,
00010000
00001000
00100000
00010000
,
10000000
01000000
10000000
01000000
,
00100000
00010000
00100000
00001000
,
00010000
00000100
00001000
00000100
,
00000010
00000010
00000001
00001001
,
00000000
00000000
00000000
00000000
;
#NOTES:
     dance-double:
     :
     Medium:
     9:
     :
00000000
00000000
00000000
00000000
,
00000000
00000000
00000000
00000000
,
00000000
00000000
00000000
00000000
,
00000000
00000000
00000000
00000000
,
00000000
00000000
00000000
00000000
,
00000000
00000000
00000000
00000000
,
00000010
00001000
00000010
00001000
00000000
00000100
00000000
00010000
,
00001000
00100000
00001000
00100000
00000000
00010000
00000000
10000000
,
00100000
01000000
00100000
01000000
00000000
00001000
00000000
00001000
,
00010000
00010100
00001000
00001010
,
00000001
00000000
00000100
00000010
00000000
00000010
00001000
00000000
,
00000100
00000000
00010000
00001000
00000000
00001000
00100000
00000000
,
00010000
01000000
00010000
00000000
10000000
00000000
01000000
00000000
,
00100000
00010000
00100000
00001000
00010000
00000000
00001000
00000000
,
00010000
00000000
00000100
00001000
00000000
00001000
00000001
00000000
,
00000100
00000000
00000010
00010000
00000000
00010000
00001000
00000000
,
00100000
00010000
01000000
00000000
00100000
00000000
10000000
00000000
,
00010000
00100000
00000000
00001000
00000000
00010000
00001000
00000000
,
00010100
00000000
00001100
00000000
00000101
00000000
00001000
00000010
,
00000000
00010000
00001000
00000000
00100000
00010000
10000000
00000000
,
11000000
00000000
01010000
00000000
00110000
00000000
00001000
00010000
,
00000000
00000100
00001000
00000001
00000000
00000100
00000010
00000000
,
00001010
00000000
00011000
00000000
00101000
00000000
00100000
00010000
,
00000000
01000000
00000000
00100000
00000000
10000000
01000000
00100000
,
00020000
00000000
00000000
00130000
00002000
00000000
00000000
00000000
,
00013000
00001000
00010000
00000100
00001000
00000100
00000010
00000000
,
00000001
00000000
00001000
00000000
00000001
00000100
00001000
00000000
,
00010000
00100000
10000000
00000000
00010000
00100000
00001000
00000000
,
00011000
00000000
00010000
00000100
00000000
00001100
00000000
00000001
,
00001000
00000100
00010000
00000000
00001000
00100000
00010000
00000000
,
10000000
00000000
00100000
00000000
10000000
01000000
00010000
00000000
,
00001000
00000010
00000001
00000000
00001000
00000100
00010000
00001000
,
00000000
00010000
00001000
01000000
00000000
01010000
00000000
00010000
,
20000000
00000000
30200000
00000000
01300000
00010000
01000000
00000000
,
00001000
00000000
00010000
00000000
00000100
00001000
00000100
00000000
,
00001000
00000010
00001000
00000000
00000001
00000000
00000100
00000000
,
00000001
00000000
00001000
00000100
00000000
00010000
00001000
00000000
,
01000000
00010000
10000000
00000000
00100000
01000000
00010000
00000000
,
00100000
00000000
00001000
00000000
00010000
00000010
00010000
00000000
,
00000010
00001000
00000010
00000000
00000100
00000000
00000001
00000000
,
00001000
00000000
00000100
00010000
00000000
00001000
00100000
00010000
,
10000000
00000000
01000000
00000000
00010000
00001000
00010000
00000000
,
00001000
00000000
00010000
00000100
00000000
00001000
00000100
00000010
,
00000000
00000001
00000100
00000010
00000000
00001000
00000100
00010000
,
00001000
00000000
01000000
00010000
00000000
10000000
01000000
00100000
,
00010000
00000000
00100000
00000000
00001000
00010000
00001000
00000000
,
00010000
00000000
00000010
00001000
00000000
00000100
00000010
00000001
,
00000000
00001000
00000100
00010000
00000000
00001000
00100000
00010000
,
10000000
00000000
00100000
01000000
00000000
00010000
00100000
00001000
,
00010000
00000000
00001000
00000000
00000100
00000001
00001000
00000000
,
00000001
00000010
00000001
00000000
00001000
00000100
00001000
00000000
,
00000100
00010000
00001000
00000000
00100000
00010000
01000000
00000000
,
00100000
10000000
00100000
00000000
01000000
00010000
01000000
00000000
,
00001000
00010000
00000100
00001000
00000001
00000100
00000010
00000000
,
00000000
00000000
00000000
00000000
;
#NOTES:
     dance-double:
     :
     Hard:
     13:
     :
00000000
00000000
00000000
00000000
,
00000000
00000000
00000000
00000000
,
00000000
00000000
00000000
00000000
,
00000000
00000000
00000000
00000000
,
00000000
00000000
00000000
00000000
,
00000000
00000000
00000000
00000000
,
01000000
00000000
00010000
01000000
00000000
00000000
01001000
00000000
00000000
00000000
00001000
00000000
00010000
00000000
00000100
00000000
,
00001000
00000000
00000010
00001000
00000000
00000000
00001001
00000000
00000000
00000000
00000001
00000000
00000010
00000000
00000100
00000000
,
00001000
00000000
00000100
00010000
00000000
00000000
00011000
00000000
00000000
00000000
00001000
00000000
00100000
00000000
00010000
00000000
,
10000000
00100000
01000000
00010000
00100000
00001000
00010000
00001000
,
00000100
00000001
00000100
00001000
00000000
00010000
00011000
00010000
,
01000000
10000000
01000000
00010000
00000000
00001000
00011000
00001000
,
00010000
00000010
00001000
00000100
00000000
00000110
00000000
00000001
,
00001000
00000000
00000001
00000000
00000100
00000000
00000010
00000000
00010000
00000000
00001000
00010000
00001000
00000000
00010000
00000000
,
00100000
10000000
00100000
00010000
00000000
00001000
00011000
00001000
,
00000010
00000001
00000010
00001000
00000000
00010000
00011000
00010000
,
00001000
01000000
00010000
00100000
00000000
01100000
00000000
10000000
,
00100000
00000000
01000000
00000000
00010000
00000000
00100000
00000000
00001000
00000000
00010000
00001000
00010000
00000000
00001000
00000000
,
00010000
00000000
00000000
00010000
00000100
00000000
00000000
00000100
00001000
00000000
00000001
00000000
00000010
00000000
00000200
00000000
,
00000000
00001300
00000100
00010000
00001000
00100000
00010000
10000000
,
00100000
00000000
00000000
01000000
00010000
00000000
00000000
00010000
00100000
00000000
00001000
00000000
00010000
00000000
00000020
00000000
,
00000000
00001030
00000100
00000010
00000000
00000001
00000100
00000001
,
00001000
00000000
00000000
00001000
00000010
00000000
00000000
00000010
00010000
00000000
00001000
00000000
00100000
00000000
00020000
00000000
,
00000000
10030000
01000000
00010000
00001000
00010000
00000100
00000010
,
00001000
00000000
00000010
00000000
00000001
00000100
00000000
00000100
00000001
00000000
00001000
00000000
00000100
00010000
00000000
00010000
,
00001000
00100000
00000000
00100000
00010000
10000000
00000000
10000000
00100000
00000000
01000000
00000000
00010000
00000000
01000000
00000000
,
00001000
00010000
00000100
00001000
00000001
00000010
00000100
00001000
,
00000000
00000001
00000100
00001000
00000000
00010000
00100000
01000000
,
00100000
10000000
01000000
00010000
00000000
00001000
00010000
00000010
,
00000100
00001000
00000100
00000001
00001000
00000100
00010000
00001000
,
00010000
00001000
01000000
00010000
10000000
00100000
01000000
00010000
,
00000000
10000000
01000000
00010000
00001000
00010000
00000010
00001000
,
00000000
00000001
00000100
00001000
00000000
00010000
00100000
10000000
,
00010000
00000000
00000000
00110000
00000000
00000000
00011000
00000000
00001000
00000000
00010000
00001000
00010000
00000000
00000100
00000000
,
00001000
00000100
00000001
00000100
00001000
00000100
00010000
00002000
,
00000000
00013000
01000000
10000000
00000000
00100000
10000000
00000000
,
00010000
00100000
00001000
00011000
00000000
00010000
00000100
00001000
,
00000001
00000000
00000010
00000000
00000100
00000000
00001000
00000000
00000100
00000000
00010000
00001000
00010000
00000000
00001000
00000000
,
01000000
00010000
01000000
10000000
01000000
00010000
00100000
00002000
,
00000000
00013000
00001000
00000100
00000000
00000001
00000010
00000000
,
00000100
00010000
00001000
00011000
00000000
00010000
00001000
00100000
,
00010000
00000000
10000000
00000000
01000000
00000000
00100000
00000000
00010000
00000000
00100000
00001000
00100000
00000000
00001000
00000000
,
00010000
00001000
00000010
00000001
00000000
00000001
00000010
00001000
,
00010000
01000000
10000000
01000000
00000000
10000000
00100000
00010000
,
00001000
00000100
00000001
00001000
00000000
00001000
00000001
00000100
,
00001000
00000000
00010000
00000000
00001000
00000000
01000000
00000000
00010000
01000000
00010000
01000000
00010000
00000000
01000000
00000000
,
00100000
10000000
00100000
00010000
00000000
00001000
00010000
00000100
,
00000010
00001000
00000010
00000001
00000000
00001000
00000100
00010000
,
00001000
01000000
00100000
00010000
00000000
10000000
01000000
00010000
,
00100000
00001000
00000000
00001000
00010000
00000100
00000000
00000100
00001000
00000001
00001000
00000001
00001000
00000000
00000100
00000000
,
00010000
00000010
00010000
00000010
00001000
00000001
00001000
00000001
,
00000010
00000100
00001000
00000100
00010000
00001000
00100000
00001000
,
00010000
01000000
00100000
00010000
10000000
00100000
00010000
00001000
,
00000100
00000000
00000001
00000000
00000010
00000000
00000100
00000000
00001000
00000100
00001000
00000100
00001000
00000000
00000000
00000000
,
00000000
00000000
00000000
00000000
;
