
//----- song ID: akib -----//
#TITLE:THE ANCIENT KING IS BACK;
#ARTIST:BEMANI Sound Team "L.E.D.-G";
#BANNER:THE ANCIENT KING IS BACK.png;
#BACKGROUND:THE ANCIENT KING IS BACK-bg.png;
#CDTITLE:./CDTitles/DDR A3.png;
#MUSIC:THE ANCIENT KING IS BACK.ogg;
#SAMPLESTART:93;
#SAMPLELENGTH:15;
#BPMS:0=160;
#STAGE:14;
#NOTES:
     dance-single:
     :
     Beginner:
     3:
     :
0000
0000
0000
0000
,
0000
0000
0000
0000
,
0000
0000
0000
0000
,
0000
0000
0000
0000
,
0000
0000
0000
0000
,
0000
0000
0000
0000
,
2000
0000
0000
3000
,
0002
0000
0000
0003
,
2000
0000
0000
3000
,
0002
0000
0000
0003
,
0100
0000
0100
0000
,
0010
0010
0010
0000
,
1000
0000
1000
0000
,
0001
0001
0001
0000
,
0100
0000
0010
0000
,
0100
0000
0001
0000
,
1000
0000
0001
0000
,
1001
0000
0000
0000
,
0110
0000
0000
0000
,
0001
0000
0001
0000
,
0010
0000
0100
0000
,
1000
0000
1000
0000
,
0010
0000
0100
0000
,
0010
0000
0010
0000
,
1000
0000
0001
0000
,
0100
0000
0010
0000
,
0110
0000
0000
0000
,
1000
0000
0100
0000
,
1000
0000
0100
0000
,
0010
0000
0001
0000
,
1000
0000
0001
0000
,
0100
0000
0010
0000
,
1000
0000
0010
0000
,
0100
0000
0001
0000
,
0010
0000
0001
0000
,
1000
0000
0010
0000
,
0100
0000
0010
0000
,
1000
0000
0001
0000
,
2000
0000
0000
3000
,
0010
0000
0100
0000
,
0020
0000
0000
0030
,
0100
0000
0001
0000
,
0200
0000
0000
0300
,
0001
0000
1000
0000
,
1001
0000
0000
0000
,
0001
0000
0100
0000
,
0001
0000
1000
0000
,
0010
0000
0100
0000
,
0010
0000
1000
0000
,
0100
0000
0010
0000
,
0100
0000
1000
0000
,
0001
0000
0010
0000
,
0001
0000
0100
0000
,
0020
0000
0000
0030
,
2000
0000
0000
3000
,
0002
0000
0000
0000
0000
0003
0000
0000
,
2000
0000
0000
3000
,
0010
0000
0000
0000
,
0010
0000
0100
0000
,
0001
0000
0000
0000
,
0001
0000
1000
0000
,
0010
0000
0010
0000
,
0100
0000
0100
0000
,
0001
0000
0001
0000
,
1000
0000
1000
0000
,
0100
0000
0100
0000
,
0010
0000
0010
0000
,
0100
0000
0100
0000
,
1000
0000
1000
0000
,
0010
0000
0100
0000
,
0110
0000
0000
0000
,
1000
0000
0010
0000
,
1000
0000
0010
0000
,
0100
0000
0001
0000
,
0100
0000
0001
0000
,
1000
1000
1000
0000
,
0010
0010
0010
0000
,
0100
0000
0001
0000
,
1000
0000
0001
0000
,
1001
0000
0000
0000
,
0000
1001
0000
0000
,
0000
0000
0000
0000
;
#NOTES:
     dance-single:
     :
     Easy:
     7:
     :
0000
0000
0000
0000
,
0000
0000
0000
0000
,
0000
0000
0000
0000
,
0000
0000
0000
0000
,
0000
0000
0000
0000
,
0000
0000
0000
0000
,
2000
0000
0000
0000
0000
0000
0000
3002
,
0000
0000
0000
0003
,
0200
0000
0000
0000
0000
0000
0000
0320
,
0000
0000
0000
0030
,
1000
1000
0100
0100
,
0010
0100
0010
0000
,
0001
0001
0100
0100
,
0010
0100
0010
0000
,
1000
0100
1000
0100
,
0010
0001
0010
0001
,
0100
0010
1000
0001
,
1001
0000
0110
1001
,
0010
0100
0110
0000
,
0001
0100
0001
1000
,
0010
0100
0001
1000
,
0100
0010
0100
1000
,
0001
1000
0200
0300
,
1000
0100
1000
0001
,
0010
0100
1000
0001
,
0100
0010
0100
0001
,
1000
0000
0000
0010
0000
0000
0100
0000
,
0001
0010
0001
0010
,
0100
1000
0002
0103
,
0010
1000
0010
0110
,
1000
0001
0100
0110
,
0010
1000
0001
1001
,
1000
0100
0020
0130
,
1000
0001
0100
0110
,
0010
0100
0002
1003
,
0100
0100
0010
0001
,
1000
1000
0010
0100
,
0001
0010
0100
2000
,
3010
0100
0001
0200
,
0310
1000
0100
0020
,
0031
1000
0010
0100
,
0001
0001
1000
0100
,
1000
0010
0100
0001
,
1000
1000
0010
0010
,
0110
0000
1000
1001
,
0010
0100
0010
0110
,
1000
0001
1001
0000
,
0100
0010
0100
0110
,
0001
1000
1001
0110
,
1000
0100
0010
0110
,
0001
0100
0110
0000
,
1000
0010
1000
0001
,
0010
0100
1000
0001
,
0020
0000
0000
0000
0000
0000
0000
0230
,
0000
0000
0000
0000
,
2300
0000
0000
0000
0000
3000
0000
0002
,
0000
0000
0000
0203
0000
0000
0000
0000
,
0310
0000
1000
0001
,
1000
0000
0010
0100
,
0010
0010
1000
1000
,
0001
0100
0010
1000
,
0100
0100
0010
0010
,
0001
1000
1001
0110
,
0001
0001
1000
0100
,
1000
1000
0010
0100
,
0001
0001
0100
0010
,
0100
0100
0001
1000
,
0100
0100
1000
0010
,
0100
0100
0001
0010
,
0100
0100
1000
0001
,
0000
1001
0000
0110
,
0001
0001
0001
0001
,
0100
0100
0020
2030
,
3100
0100
0100
0100
,
0010
0010
0002
0203
,
0301
0000
0001
0000
1000
0010
1000
0000
,
0100
0000
0100
0000
0010
0001
0010
0000
,
0001
0100
0001
0000
1000
0100
1000
0000
,
0000
0010
0110
0000
,
0110
0000
1001
0000
,
0100
1001
0000
0000
,
0000
0000
0000
0000
;
#NOTES:
     dance-single:
     :
     Medium:
     11:
     :
0000
0000
0000
0000
,
0000
0000
0000
0000
,
0000
0000
0000
0000
,
0000
0000
0000
0000
,
0000
0000
0000
0000
,
0000
0000
0000
0000
,
0200
0000
0000
0000
0301
0000
1000
0200
,
0000
0000
0000
0300
,
0020
0000
0000
0000
0000
0031
0000
2000
,
0000
3000
0100
0020
0000
0031
1000
0000
,
0001
0100
0001
0100
,
0010
0000
0100
0000
0010
0000
1000
0100
,
0010
0001
0010
0001
,
0100
0000
0010
0000
0100
0000
0001
0010
,
0100
1000
0100
0000
1000
0010
1000
0000
,
0010
0100
0010
0000
0100
0001
0100
0000
,
0001
0010
0001
0010
0100
1000
0100
1000
,
0010
0100
0010
0000
0110
0000
1001
0000
,
0001
0100
0010
0000
0110
0000
1001
0000
,
1000
0000
0100
0000
0010
0000
0001
0010
,
0001
0000
0000
0000
0100
0000
0000
0000
0010
0000
0000
0100
0010
0000
0010
0000
,
1000
0000
0001
0000
0100
0010
0100
0010
,
1000
0100
0010
0000
0200
0000
1300
0000
,
0001
0100
0001
0000
1000
0000
0010
0100
,
0010
0000
1000
0000
0100
0010
0100
0010
,
0001
0000
0000
0000
1000
0000
0000
0000
0010
0000
0000
0100
0010
0000
0010
0000
,
1000
0000
0000
0001
0000
0000
1001
0000
,
1000
0100
0000
0100
0000
0010
0000
0010
,
0000
0001
0000
1000
0020
0000
0230
0000
,
0301
0000
0010
0000
0100
0000
1000
0010
,
1000
0000
0010
0000
0100
0001
0100
0001
,
0010
0000
0001
0000
1000
0100
1000
0100
,
0010
0001
0100
0001
0020
0000
0230
0000
,
1300
0000
0001
0000
1000
0000
0000
0000
0010
0000
0000
0000
0110
0000
0000
0100
,
0001
0000
0000
0000
1000
0000
0000
0010
0100
0000
0001
0000
0010
0000
0100
0000
,
1000
0000
0010
0000
1000
0000
0001
0000
0100
0000
0000
0100
0000
0000
0010
0000
,
1000
0100
0010
0001
1000
0001
0100
0000
,
0010
1000
0010
0100
0001
0010
0200
0000
,
1300
0001
1000
0100
0010
0001
2000
0000
,
3001
0010
0001
0100
0010
1000
0200
0000
,
0310
0001
1000
0010
1000
0001
0100
0000
,
0001
0001
1000
0100
1000
0010
0010
0000
,
0100
0100
0001
0010
0001
1000
1000
0000
,
0010
0000
1000
0000
0100
0000
0000
0010
0100
0000
0010
0000
0001
0000
0000
0000
,
1000
0000
1000
0010
0000
0010
0100
0000
0001
0000
1000
0000
,
0001
0000
0001
0010
0000
0010
0100
0000
0000
0110
0000
0000
,
1000
0000
1000
0010
0000
0010
0100
0000
0001
0000
1000
0000
,
0010
0000
0010
1000
0000
1000
0001
0000
0000
1001
0000
0000
,
1000
0000
1000
0100
0000
0100
0010
0000
0000
0110
0000
0000
,
1000
0000
1000
0010
0000
0010
0100
0000
0000
0110
0000
0000
,
0001
0000
0001
0010
0000
0010
0100
0000
0010
0000
0100
0000
,
1000
0000
1000
0001
0000
0001
0100
0000
0100
0010
0000
0010
,
1000
0110
0010
1001
,
0002
0000
0000
0000
0000
0000
0000
0203
,
0000
0000
0000
0000
,
0320
0000
0000
0000
0000
1030
0100
0020
,
0000
0000
0000
0032
0000
1003
0010
0100
,
0002
0000
0000
0000
0013
0100
1000
0002
,
0000
0103
0010
0000
0100
0000
0001
0000
,
2000
0000
0000
0000
3001
0100
0010
2000
,
0000
3100
1000
0020
0000
1030
0001
0000
,
0010
0001
0000
0001
0000
0100
0000
0100
,
0010
1000
0100
0000
0110
0000
1001
0000
,
1000
0010
1000
0010
0100
0001
0010
0100
,
1000
0000
0100
0000
1000
0000
0001
0000
0100
0000
0000
0010
0100
0000
0100
0000
,
0001
0010
0001
0010
0100
1000
0001
0000
,
0100
0010
0100
0010
1000
0001
0100
0010
,
0100
0001
0100
0001
1000
0100
0010
0001
,
1000
0010
1000
0010
0100
0001
0010
0100
,
1000
0010
0100
0001
1000
0010
0100
0001
,
0000
1000
0010
0100
0000
0001
0010
0100
,
1000
0000
0000
0000
1000
0000
0000
0000
0010
0000
0000
0000
0010
0000
0000
0100
,
0010
0100
0001
1000
0020
2030
3200
0320
,
0031
0100
0001
0100
0010
1000
0001
0010
,
0001
1000
0100
0010
0002
2003
3020
0230
,
0301
0010
0001
0010
0001
0010
0001
0010
,
0100
0010
0100
0010
0100
0010
0100
0010
,
0001
1000
0100
0010
0001
0100
0010
1000
,
0000
0000
0001
0000
0010
0000
0100
0000
0010
0000
0000
0001
0000
0000
1000
0000
,
0010
0000
0000
0100
0000
0000
0001
0000
1000
0000
0000
0100
0000
0000
0010
0000
,
0000
0110
0000
0000
,
0000
0000
0000
0000
;
#NOTES:
     dance-single:
     :
     Hard:
     14:
     :
0000
0000
0000
0000
,
0000
0000
0000
0000
,
0000
0000
0000
0000
,
0000
0000
0000
0000
,
0000
0000
0000
0000
,
0000
0000
0000
0000
,
0002
0000
0000
0000
1003
0010
0100
0020
,
0000
0000
0000
0030
,
2000
0000
0000
0000
0000
3001
0010
0200
,
0000
1300
0010
0200
0000
0301
0010
0001
,
1000
0100
0010
0100
1000
0100
0010
0001
,
0100
0000
0010
0000
0100
0000
0001
0000
0100
0000
0010
0000
1000
0001
1000
0100
,
1000
0010
0100
0010
1000
0010
0100
0001
,
0010
0000
0100
0000
0010
0000
0001
0000
0010
0000
0100
0000
1000
0010
1000
0001
,
1000
0100
1000
0100
0010
0001
0010
0001
,
0100
0010
1000
0001
0100
0010
1000
0001
,
0010
0001
0010
0000
0001
1000
0001
0000
1000
0100
1000
0000
0100
0010
0100
0000
,
0010
0001
1000
0000
1100
0000
0011
0000
,
1000
0000
0010
0000
0100
0000
0001
0000
0010
0100
0010
0100
0010
0000
0000
0000
,
0001
0100
0010
1000
0001
0100
0010
0010
,
1000
0000
0010
0000
0100
0000
0001
0000
1000
0000
0000
0100
0010
0000
0010
0000
,
0001
0000
0010
0000
0100
0000
1000
0000
0010
0000
0100
0010
0100
0000
0001
0000
,
1000
0000
0100
0000
0010
0100
0010
0100
2000
0000
0000
0000
3001
0000
0010
0000
,
0001
0100
0010
1000
0001
0010
0100
0010
,
0001
0000
0100
0000
0010
0000
1000
0000
0001
0000
1000
0000
0100
0010
0100
0010
,
0100
0000
1000
0000
0001
0000
0100
0000
0010
0000
0000
1000
0001
0000
0001
0000
,
1000
0100
0010
0110
0000
0001
0101
0000
,
1000
0010
0100
0010
1000
0001
0010
0001
,
0010
0000
0100
0000
1000
0000
0001
0000
0100
0010
0100
0010
2000
0000
0000
0000
,
3010
0000
1000
0010
1000
0000
0001
0000
0010
0000
0100
0000
0010
0000
0010
0000
,
0001
0000
0100
0001
0100
0000
0010
0000
1000
0000
0100
1000
0001
0000
0001
0000
,
0100
0000
0010
1000
0010
0000
0100
0001
1000
0000
1000
0000
0100
0010
0100
0000
,
1000
0000
0001
0000
0010
0000
0001
0100
0010
0000
0010
0000
1000
0000
0001
0000
,
0100
0000
0010
0000
0100
0000
0001
0000
1000
0000
0010
0000
0200
0000
0000
0301
,
1000
0000
0001
0000
0010
0000
0100
1000
0001
0000
1000
0000
0010
0000
0010
0000
,
0100
0000
0001
0010
0001
0000
0100
0000
0010
0000
1000
0010
0000
0010
0100
0000
,
0001
0000
0010
0001
0010
0000
0100
1000
0001
0000
0001
0000
1000
0000
0000
0010
,
0100
0001
0010
0001
1000
0001
0200
0000
,
0310
1000
0100
1000
0010
1000
0002
0023
,
0130
1000
0100
0010
0100
1000
0002
0000
,
0103
0000
0010
0100
0010
0000
0010
0000
1000
0000
1000
0000
0001
0000
0001
0000
,
0010
0000
0010
0000
0100
0010
0100
0000
1000
0000
0010
1000
0010
0000
0100
0000
,
0001
0000
1000
0000
0100
0000
1000
0000
0001
0000
1000
0000
0100
0000
0010
0001
,
0010
0000
0001
0000
0100
0000
0000
0010
0100
0000
0010
0000
1000
0100
1000
0000
,
0001
0000
0001
0010
0000
0010
0100
1000
0010
1000
0100
0010
,
0001
0000
0001
0100
0000
0100
0010
1000
0001
0010
0000
0100
,
1000
0000
1000
0010
0000
0010
0100
0000
0001
0000
1000
0010
,
1000
0000
1000
0100
0000
0100
0010
0001
1000
0010
0000
0100
,
0001
0000
0001
1000
0100
0010
0100
0010
0100
1000
0000
0000
,
0010
0000
0010
0100
0000
0100
0001
0010
0100
1000
0000
0100
,
0010
0000
0010
0001
0000
0001
1000
0000
0010
0000
0100
0001
,
1000
0000
1000
0010
0000
0010
0100
0001
0010
0100
1000
0010
,
0100
0010
0100
0001
0100
0010
1000
0100
0010
0001
0000
0000
,
2000
0000
0000
0000
0000
0000
0000
3200
,
0000
0000
0000
0000
,
0320
0000
0000
0000
0000
0031
0100
0020
,
0000
0000
0000
0000
0000
0000
2030
0000
0000
0000
3001
0000
0010
0000
0100
0010
,
0100
0000
0110
0000
1000
0010
0100
0001
,
0000
1000
0010
1000
0001
0010
0100
1000
,
0010
0100
0010
0100
0001
1000
0001
0010
,
0000
0100
1000
0010
0000
1000
0100
0010
,
0001
0100
0000
0100
0000
0010
0000
0010
,
1000
0000
0100
0000
0001
0000
0100
0000
1000
0000
0010
0000
0100
0000
0001
0100
,
0010
0000
1000
0100
0010
0000
0100
0000
1000
0000
0010
0000
0100
0000
0001
0000
,
1000
0000
0100
0010
0001
0000
0010
0000
0001
0000
0000
0100
0010
0000
0010
0000
,
1000
0000
0001
0010
0001
0000
0100
0000
0010
0000
1000
0100
1000
0000
0001
0000
,
0010
0000
0010
0000
0100
0000
1000
0010
0100
0000
0001
0000
0100
0000
0010
0000
,
1000
0000
0010
0100
0001
0000
0100
0000
0010
0000
1000
0001
0100
0000
0010
0000
,
1000
0000
0100
0010
0100
0000
1000
0000
0001
0000
0100
0010
0100
0000
0100
0000
,
0001
0000
0010
0100
1000
0000
0100
0000
1000
0000
1000
0000
0001
0000
0001
0000
,
0000
0000
0100
0010
0100
0000
0001
0000
0000
0000
1000
0100
1000
0000
0010
0000
,
0100
0000
0000
0000
0100
0000
0000
0000
0001
0000
0000
0000
0001
0000
0000
0010
,
0100
0010
0100
1000
0002
0203
0320
2030
,
3001
0000
0010
0000
0100
0000
1000
0001
1000
0000
0001
0000
0010
0000
0001
0000
,
0100
0010
0100
0000
0010
0000
1000
0001
0020
0000
0230
0000
2300
0000
3002
0000
,
0103
0100
0100
0100
0010
0010
0010
0010
,
1000
1000
1000
1000
0001
0001
0001
0001
,
0010
0000
0100
0010
0100
0000
1000
0001
1000
0001
0010
0000
0001
0100
0001
0000
,
0000
0000
1000
0000
0010
0100
0010
0000
1010
0000
0000
1001
0000
0000
0010
0001
,
0100
0000
0000
0110
0000
0000
1010
0000
1000
0001
0000
0100
0001
0000
0010
0100
,
0000
1001
0000
0000
,
0000
0000
0000
0000
;
#NOTES:
     dance-double:
     :
     Easy:
     7:
     :
00000000
00000000
00000000
00000000
,
00000000
00000000
00000000
00000000
,
00000000
00000000
00000000
00000000
,
00000000
00000000
00000000
00000000
,
00000000
00000000
00000000
00000000
,
00000000
00000000
00000000
00000000
,
00000002
00000000
00000000
00000000
00000000
00000000
00000000
00002003
,
00000000
00000000
00000000
00003000
,
00000200
00000000
00000000
00000000
00000000
00000000
00000000
00020300
,
00000000
00000000
00000000
00030000
,
00001000
00001000
00100000
00100000
,
00010000
10000000
00010000
00000000
,
10000000
10000000
00100000
00100000
,
01000000
00010000
01000000
00000000
,
00001000
00010000
00001000
00010000
,
00000100
00001000
00000100
00001000
,
00000001
00000010
00000100
00001000
,
00001100
00000000
00011000
01010000
,
10000000
00100000
01100000
00000000
,
10000000
01000000
10000000
00010000
,
00100000
00001000
00010000
00001000
,
00010000
00000010
00001000
00000010
,
00000100
00000001
00002000
00003000
,
00000010
00010000
00001000
00010000
,
00001000
01000000
00010000
00100000
,
01000000
10000000
00010000
00100000
,
00001000
00000000
00000000
00010000
00000000
00000000
00001000
00000000
,
00010000
00000100
00010000
00000100
,
00001000
00000010
00000200
00000301
,
00001000
00000100
00010000
00011000
,
00001000
01000000
00010000
01010000
,
10000000
01000000
00100000
01100000
,
00010000
01000000
00002000
00013000
,
00001000
00010000
00000010
00001010
,
00001000
00000001
00002000
00003100
,
00010000
00010000
00001000
00100000
,
00010000
00010000
10000000
01000000
,
10000000
01000000
00010000
00002000
,
00013000
00000010
00001000
00000002
,
00000013
00001000
00010000
00002000
,
01003000
00010000
10000000
00100000
,
01000000
01000000
00010000
00100000
,
00001000
00010000
00001000
00010000
,
00000100
00000100
00001000
00001000
,
00001001
00000000
00000010
00000110
,
00000001
00001000
00000010
00001010
,
00010000
00001000
00011000
00000000
,
00010000
00001000
00100000
00110000
,
10000000
00010000
10010000
01100000
,
10000000
00010000
00100000
00110000
,
00001000
00010000
00011000
00000000
,
00001000
00010000
00000100
00001000
,
00000001
00000010
00000100
00001000
,
00000002
00000000
00000000
00000000
00000000
00000000
00000000
00000203
,
00000000
00000000
00000000
00000000
,
00002300
00000000
00000000
00000000
00000000
00003000
00000000
00020000
,
00000000
00000000
00000000
00230000
00000000
00000000
00000000
00000000
,
10300000
00000000
00010000
01000000
,
00010000
00000000
01000000
00001000
,
00010000
00010000
00000010
00000010
,
00001000
00000001
00000010
00000100
,
00001000
00001000
00000100
00000100
,
00010000
00001000
00011000
00000000
,
00001000
00001000
01000000
00010000
,
10000000
10000000
01000000
00100000
,
00010000
00010000
00100000
00001000
,
00010000
00010000
00000100
00001000
,
00000001
00000001
00000100
00000010
,
00001000
00001000
00000100
00010000
,
00001000
00001000
00100000
00010000
,
00000000
10010000
00000000
01100000
,
00010000
00010000
00010000
00010000
,
00100000
00100000
00002000
00023000
,
00030100
00000100
00000100
00000100
,
00001000
00001000
00000020
00000230
,
00000301
00000001
00000010
00001000
,
00010000
00010000
00100000
10000000
,
00010000
01000000
00010000
01000000
,
00000000
00001000
00011000
00000000
,
00001001
00000000
00011000
00000000
,
01000000
10010000
00000000
00000000
,
00000000
00000000
00000000
00000000
;
#NOTES:
     dance-double:
     :
     Medium:
     11:
     :
00000000
00000000
00000000
00000000
,
00000000
00000000
00000000
00000000
,
00000000
00000000
00000000
00000000
,
00000000
00000000
00000000
00000000
,
00000000
00000000
00000000
00000000
,
00000000
00000000
00000000
00000000
,
20000000
00000000
00000000
00000000
30010000
00000000
00100000
00002000
,
00000000
00000000
00000000
00003000
,
00020000
00000000
00000000
00000000
00000000
00030010
00000000
00002000
,
00000000
00003000
00000001
00000200
00000000
00000310
00001000
00000000
,
00000100
00010000
00001000
00010000
,
00001000
00000000
00100000
00000000
00010000
00000000
10000000
01000000
,
10000000
00100000
10000000
00100000
,
01000000
00000000
00010000
00000000
00100000
00000000
00001000
00010000
,
00000100
00001000
00000100
00000000
00001000
00000001
00001000
00000000
,
00000001
00000100
00000001
00000000
00001000
00000100
00001000
00000000
,
00000100
00010000
00001000
00010000
00001000
01000000
00010000
01000000
,
00100000
10000000
11000000
01010000
,
00001000
00010000
00000010
00000000
00001000
00000000
00000101
00000000
,
00000001
00000000
00000010
00000000
00000100
00000000
00001000
00000100
,
00010000
00000000
00000000
00000000
00001000
00000000
00000000
00000000
01000000
00000000
00000000
00010000
01000000
00000000
01000000
00000000
,
00100000
00000000
10000000
00000000
00010000
00100000
00010000
00100000
,
00001000
00010000
00022000
00033000
,
00000100
00001000
00000100
00000000
00000010
00000000
00000001
00001000
,
00000100
00000000
00010000
00000000
00001000
01000000
00001000
01000000
,
00010000
00000000
00000000
00000000
10000000
00000000
00000000
00000000
00100000
00000000
00000000
01000000
00100000
00000000
00100000
00000000
,
10000000
00000000
00000000
01000000
00000000
00000000
00010000
00000000
,
00001000
00010000
00000000
00010000
00000000
00000100
00000000
00000100
,
00000000
00001000
00000000
00000001
00000200
00000000
00002300
00000000
,
00013000
00000000
00001000
00000000
01000000
00000000
00010000
00100000
,
00010000
00000000
10000000
00000000
00010000
00100000
00010000
00100000
,
00001000
00000000
00010000
00000000
00000100
00001000
00000100
00000000
,
00000010
00000001
00000010
00000000
00002000
00000000
00023000
00000000
,
00031000
00000000
00100000
00000000
00001000
00000000
00000000
00000000
00100000
00000000
00000000
00000000
00110000
00000000
00000000
10000000
,
01000000
00000000
00000000
00000000
10000000
00000000
00000000
01000000
00100000
00000000
00010000
00000000
00100000
00000000
00001000
00000000
,
00010000
00000000
00000100
00000000
00010000
00000000
00000000
00000000
00001000
00000000
00000000
00000100
00000000
00000000
00000001
00000000
,
00000010
00000100
00001000
00000000
00000100
00010000
00001000
00000000
,
00100000
00010000
00100000
00010000
10000000
01000000
00200000
00000000
,
00301000
00010000
00001000
00010000
00000100
00001000
00000002
00000000
,
00000103
00000010
00000100
00000010
00001000
00000100
00020000
00000000
,
00031000
01000000
00010000
01000000
00100000
10000000
01000000
00000000
,
10000000
10000000
01000000
00010000
00001000
00000010
00000010
00000000
,
00000001
00000001
00000100
00001000
00010000
00100000
00100000
00000000
,
10000000
00000000
00010000
00000000
01000000
00000000
00000000
00001000
00010000
00000000
00000010
00000000
00001000
00000000
00000000
00000000
,
00000001
00000000
00000001
00000100
00000000
00000100
00000010
00000000
00001000
00000000
00000100
00000000
,
00010000
00000000
00010000
00001000
00000000
00001000
00100000
00000000
00000000
00110000
00000000
00000000
,
10000000
00000000
10000000
01000000
00000000
01000000
00100000
00000000
00010000
00000000
01000000
00000000
,
00001000
00000000
00001000
00010000
00000000
00010000
00000010
00000000
00000000
00001010
00000000
00000000
,
00000001
00000000
00000001
00000100
00000000
00000100
00000010
00000000
00000000
00001010
00000000
00000000
,
00010000
00000000
00010000
00001000
00000000
00001000
01000000
00000000
00000000
01010000
00000000
00000000
,
10000000
00000000
10000000
00100000
00000000
00100000
01000000
00000000
00010000
00000000
00100000
00000000
,
00001000
00000000
00001000
00010000
00000000
00010000
00000010
00000000
00000010
00001000
00000000
00001000
,
00000001
00000011
00000100
00001100
,
00020000
00000000
00000000
00000000
00000000
00000000
00000000
00032000
,
00000000
00000000
00000000
00000000
,
02003000
00000000
00000000
00000000
00000000
03100000
10000000
02000000
,
00000000
00000000
00000000
03020000
00000000
00031000
00000010
00000001
,
00001000
00000000
00000000
00000000
00000001
00000100
00001000
00010000
,
00000000
00001000
00010000
00000000
01000000
00000000
10000000
00000000
,
00010000
00000000
00000000
00000000
10000000
01000000
00010000
00001000
,
00000000
00010000
00001000
00000010
00000000
00000001
00001000
00000000
,
00000100
00010000
00000000
00010000
00000000
00001000
00000000
00001000
,
00100000
00010000
01000000
00000000
01100000
00000000
10100000
00000000
,
10000000
01000000
10000000
01000000
00100000
00010000
00100000
00001000
,
00010000
00000100
00010000
00000100
00001000
00000000
00001001
00000000
,
00000001
00000100
00000001
00000100
00000010
00001000
00000010
00000000
,
00010000
00001000
00010000
00001000
01000000
00010000
00100000
01000000
,
10000000
00100000
10000000
00100000
01000000
00010000
01000000
00001000
,
00010000
00001000
00010000
00000010
00001000
00000001
00000100
00000001
,
00000010
00000100
00001000
00000010
00010000
00001000
01000000
00010000
,
00000000
00100000
00010000
10000000
00000000
00010000
01000000
00001000
,
00010000
00000000
00000000
00000000
00010000
00000000
00000000
00000000
00000100
00000000
00000000
00000000
00000100
00000000
00000000
00001000
,
00000100
00000010
00000001
00000000
00002000
00003200
00020300
00032000
,
01003000
00010000
01000000
00010000
10000000
00100000
01000000
00010000
,
00100000
00001000
00010000
00000010
00002000
00003200
00000320
00000032
,
00001003
00000100
00001000
00000100
00010000
00001000
00010000
00001000
,
01000000
00010000
01000000
00010000
10000000
00100000
10000000
00100000
,
01000000
00010000
00100000
00001000
00010000
00000100
00001000
00000001
,
00000000
00000000
00000010
00000000
00000100
00000000
00001000
00000000
00000001
00000000
00000000
00000100
00000000
00000000
00001000
00000000
,
00010000
00000000
00000000
01000000
00000000
00000000
10000000
00000000
00010000
00000000
00000000
00100000
00000000
00000000
00001000
00000000
,
00000000
00011000
00000000
00000000
,
00000000
00000000
00000000
00000000
;
#NOTES:
     dance-double:
     :
     Hard:
     15:
     :
00000000
00000000
00000000
00000000
,
00000000
00000000
00000000
00000000
,
00000000
00000000
00000000
00000000
,
00000000
00000000
00000000
00000000
,
00000000
00000000
00000000
00000000
,
00000000
00000000
00000000
00000000
,
00000002
00000000
00000000
00000000
00001003
00000100
00010000
00002000
,
00000000
00000000
00000000
00003000
,
00200000
00000000
00000000
00000000
00000000
00310000
01000000
00200000
,
00000000
10300000
01000000
00200000
00000000
00310000
01000000
00001000
,
00010000
00000010
00001000
00000001
00000010
00000100
00001000
00010000
,
00100000
00000000
01000000
00000000
10000000
00000000
00100000
00000000
00010000
00000000
00001000
00000000
00010000
00000000
00000100
00010000
,
00001000
00100000
00010000
10000000
01000000
00100000
00010000
00001000
,
00000100
00000000
00000010
00000000
00000001
00000000
00000100
00000000
00001000
00000000
00010000
00000000
00001000
01000000
00010000
00000000
,
10000000
01000000
00010000
00001000
00000010
00000001
00000100
00000001
,
00000100
00001000
00010000
00100000
10000000
00100000
10000000
00010000
,
01000000
00100000
01000000
00000000
00010000
00100000
00010000
00000000
00100000
00001000
00100000
00000000
00001000
00010000
00001000
00000000
,
00010000
00000010
00001000
00000000
00001001
00000000
00000101
00000000
,
00001000
00000000
00000010
00000000
00010000
00000000
00001000
00000000
01000000
00010000
01000000
00010000
01000000
00000000
00000000
00000000
,
00100000
10000000
01000000
00100000
00010000
00000010
00001000
00000001
,
00000100
00000000
00001000
00000000
00000001
00000000
00000100
00000000
00000010
00000000
00000000
00001000
00000100
00000000
00000100
00000000
,
00010000
00000000
00001000
00000000
00100000
00000000
00010000
00000000
10000000
00000000
00100000
01000000
00100000
00000000
01000000
00000000
,
00010000
00000000
00100000
00000000
00001000
00010000
00001000
00010000
00000200
00000000
00000000
00000000
00001300
00000000
00000001
00000000
,
00000010
00000001
00000100
00000010
00001000
00100000
00010000
10000000
,
01000000
00000000
00010000
00000000
10000000
00000000
01000000
00000000
00100000
00000000
00010000
00000000
01000000
00010000
01000000
00010000
,
01000000
00000000
00001000
00000000
00010000
00000000
00000010
00000000
00001000
00000000
00000000
00000001
00000100
00000000
00000100
00000000
,
00000001
00000010
00001000
00010000
00000000
00001000
00011000
00000000
,
00010000
00001000
01000000
00010000
01000000
00100000
10000000
00010000
,
01000000
00000000
00001000
00000000
00010000
00000000
00001000
00000000
00010000
00000010
00001000
00000010
00000200
00000000
00000000
00000000
,
00000301
00000000
00000010
00000001
00000010
00000000
00000100
00000000
00001000
00000000
00000010
00000000
00010000
00000000
00010000
00000000
,
00001000
00000000
01000000
00010000
01000000
00000000
00010000
00000000
10000000
00000000
00100000
10000000
00010000
00000000
00010000
00000000
,
01000000
00000000
00001000
00010000
00001000
00000000
00010000
00000010
00001000
00000000
00001000
00000000
00000001
00000100
00000001
00000000
,
00001000
00000000
00000010
00000000
00010000
00000000
00001000
00010000
00001000
00000000
00001000
00000000
00100000
00000000
00010000
00000000
,
10000000
00000000
01000000
00000000
00010000
00000000
00001000
00000000
00000010
00000000
00000001
00000000
00002000
00000000
00000000
00003100
,
00010000
00000000
00000010
00000000
00001000
00000000
00000001
00000100
00000010
00000000
00001000
00000000
00000100
00000000
00000100
00000000
,
00010000
00000000
00001000
01000000
00001000
00000000
01000000
00000000
00010000
00000000
10000000
01000000
00000000
01000000
00100000
00000000
,
00010000
00000000
01000000
00001000
01000000
00000000
00001000
00010000
00000010
00000000
00000010
00000000
00001000
00000000
00000000
00000000
,
00000001
00000010
00001000
00010000
00100000
10000000
00020000
00000000
,
10030000
01000000
00010000
00001000
00000100
00000001
00002000
00003020
,
00000130
00000001
00000010
00000100
00001000
00010000
00200000
00000000
,
00310000
00000000
10000000
00100000
10000000
00000000
10000000
00000000
00010000
00000000
00010000
00000000
01000000
00000000
01000000
00000000
,
00001000
00000000
00001000
00000000
00010000
00000100
00010000
00000000
00000010
00000000
00001000
00000010
00001000
00000000
00000001
00000000
,
00000100
00000000
00001000
00000000
00010000
00000000
01000000
00000000
10000000
00000000
01000000
00000000
00100000
00000000
00010000
01000000
,
00010000
00000000
00100000
00000000
00001000
00000000
00000000
00010000
00001000
00000000
00000100
00000000
00000010
00000100
00000010
00000000
,
00001000
00000000
00001000
00000001
00000000
00000001
00000010
00000100
00001000
00000100
00010000
00001000
,
00100000
00000000
00100000
00010000
00000000
00010000
10000000
01000000
00100000
00010000
00000000
01000000
,
00001000
00000000
00001000
00010000
00000000
00010000
00000010
00000000
00001000
00000000
00000001
00000100
,
00000001
00000000
00000001
00000010
00000000
00000010
00000100
00001000
00010000
00100000
00000000
00010000
,
01000000
00000000
01000000
00100000
00000000
00100000
10000000
01000000
00100000
00010000
00000000
00000000
,
10000000
00000000
10000000
01000000
00000000
01000000
00010000
00001000
00000100
00000001
00000000
00001000
,
00000001
00000000
00000001
00000010
00000000
00000010
00001000
00000000
00010000
00000000
01000000
00010000
,
01000000
00000000
01000000
10000000
00000000
10000000
00100000
00010000
00001000
00000010
00000001
00000010
,
00000100
00001000
00000100
00010000
00001000
00010000
00001000
00100000
00010000
01000000
00000000
00000000
,
00200000
00000000
00000000
00000000
00000000
00000000
00000000
20300000
,
00000000
00000000
00000000
00000000
,
30020000
00000000
00000000
00000000
00000000
01030000
00001000
00020000
,
00000000
00000000
00000000
00000000
00000000
00000000
00030200
00000000
00000000
00000000
00001300
00000000
00000001
00000000
00000010
00000100
,
00000010
00000000
00000011
00000000
00000001
00000100
00001000
00010000
,
00000000
00001000
00100000
00010000
10000000
01000000
00010000
00001000
,
00010000
00000010
00001000
00000010
00000100
00000001
00000010
00000100
,
00000000
00001000
00000010
00010000
00000000
00001000
00010000
00100000
,
01000000
00010000
00000000
00010000
00000000
10000000
00000000
10000000
,
01000000
00000000
00010000
00000000
00001000
00000000
00010000
00000000
00001000
00000000
00000100
00000000
00000001
00000000
00001000
00000010
,
00001000
00000000
00000010
00000100
00000010
00000000
00001000
00000000
00000100
00000000
00010000
00000000
00001000
00000000
00100000
00000000
,
00010000
00000000
10000000
00100000
10000000
00000000
00010000
00000000
01000000
00000000
00000000
00001000
00010000
00000000
00010000
00000000
,
00000100
00000000
00001000
00000010
00001000
00000000
00000001
00000000
00000100
00000000
00000010
00001000
00000010
00000000
00001000
00000000
,
00000100
00000000
00000100
00000000
00010000
00000000
00001000
01000000
00010000
00000000
10000000
00000000
00100000
00000000
01000000
00000000
,
00010000
00000000
00100000
00001000
00100000
00000000
00001000
00000000
00010000
00000000
00000010
00001000
00000010
00000000
00000100
00000000
,
00000001
00000000
00000010
00000100
00000010
00000000
00000001
00000000
00001000
00000000
00000100
00010000
00000100
00000000
00000100
00000000
,
00010000
00000000
00001000
01000000
00010000
00000000
10000000
00000000
00100000
00000000
00100000
00000000
01000000
00000000
01000000
00000000
,
00000000
00000000
00001000
00010000
00001000
00000000
00010000
00000000
00000000
00000000
00000010
00000100
00000010
00000000
00001000
00000000
,
00000001
00000000
00000000
00000000
00000001
00000000
00000000
00000000
00000100
00000000
00000000
00000000
00000100
00000000
00000000
00001000
,
00010000
00001000
00010000
00001000
00020000
02030000
23000000
30200000
,
10300000
00000000
01000000
00000000
00100000
00000000
00010000
00100000
00001000
00000000
00010000
00000000
00001000
00000000
00010000
00000000
,
00000010
00001000
00000001
00000000
00000100
00000000
00000010
00001000
00000002
00000000
00000203
00000000
00002300
00000000
00023000
00000000
,
00130000
00100000
00100000
00100000
10000000
10000000
10000000
10000000
,
00010000
00010000
00010000
00010000
01000000
01000000
01000000
01000000
,
00001000
00000000
00010000
00001000
00010000
00000000
00000010
00001000
00000010
00000000
00001000
00000000
00000001
00000100
00000001
00000000
,
00000000
00000000
00000010
00000000
00000100
00001000
00000100
00000000
00010100
00000000
00000000
00011000
00000000
00000000
00001000
01000000
,
00010000
00000000
00000000
01010000
00000000
00000000
10010000
00000000
10000000
00100000
00000000
01000000
00010000
00000000
00100000
00001000
,
00000000
00011000
00000000
00000000
,
00000000
00000000
00000000
00000000
;
