
//----- song ID: srdr -----//
#TITLE:Surrender (PureFocus remix);
#ARTIST:U1 ft. Becca Hossany;
#BANNER:Surrender (PureFocus remix).png;
#BACKGROUND:Surrender (PureFocus remix)-bg.png;
#CDTITLE:./CDTitles/DDR II.png;
#MUSIC:Surrender (PureFocus remix).ogg;
#SAMPLESTART:44.24;
#SAMPLELENGTH:15;
#DISPLAYBPM:130;
#BPMS:0=129.9,4=130.2;
#STAGE:4;
#NOTES:
     dance-single:
     :
     Beginner:
     2:
     :
0000
0000
0000
0000
,
0000
0000
0000
0000
,
0000
0000
0000
0000
,
0000
0000
0000
0000
,
0000
0000
0000
0000
,
0000
0000
0000
0000
,
0001
0000
0001
0000
,
1000
0000
1000
0000
,
0010
0000
0000
0000
,
0010
0000
0000
0000
,
0100
0000
0000
0000
,
0100
0000
0000
0000
,
0001
0000
0000
0000
,
0001
0000
0000
0000
,
1000
0000
0000
0000
,
1000
0000
0000
0000
,
0001
0000
0001
0000
,
1000
0000
1000
0000
,
0010
0000
0010
0000
,
0010
0000
0000
0000
,
1000
0000
1000
0000
,
0001
0000
0001
0000
,
0100
0000
0100
0000
,
0100
0000
0000
0000
,
0001
0000
1000
0000
,
0010
0000
0010
0000
,
1000
0000
0001
0000
,
0100
0000
0000
0000
,
0001
0000
1000
0000
,
0010
0000
0010
0000
,
1000
0000
0001
0000
,
0100
0000
0000
0000
,
0010
0000
0000
0000
,
0000
0000
0000
0000
,
0100
0000
0000
0000
,
0000
0000
0000
0000
,
0001
0000
0001
0000
,
1000
0000
1000
0000
,
0010
0000
0010
0000
,
0010
0000
0000
0000
,
1000
0000
1000
0000
,
0001
0000
0001
0000
,
0100
0000
0100
0000
,
0100
0000
0000
0000
,
0001
0000
0001
0000
,
0010
0000
0100
0000
,
1000
0000
1000
0000
,
0010
0000
0100
0000
,
0001
0000
0001
0000
,
0010
0000
0100
0000
,
1000
0000
1000
0000
,
0010
0000
0100
0000
,
0000
0000
0000
0000
;
#NOTES:
     dance-single:
     :
     Easy:
     7:
     :
0000
0000
0000
0000
,
0000
0000
0000
0000
,
0000
0000
0000
0000
,
0000
0000
0000
0000
,
0000
0000
0000
0000
,
0000
0000
0000
0000
,
0001
1000
0001
1000
,
0010
0100
0010
0000
,
2000
0001
0001
0001
,
3020
0100
0100
0100
,
2030
0001
0001
0001
,
3200
0010
0010
0010
,
2300
0010
3001
0000
,
0002
0100
1003
0000
,
2000
0100
3001
0000
,
0002
0010
1003
0000
,
0001
0000
1000
0000
0010
0010
0010
0000
,
1000
0001
0100
0100
,
0001
0000
1000
0000
0010
0010
0010
0000
,
2000
3200
0320
0032
,
1003
0000
0001
0000
0100
0100
0100
0000
,
0001
1000
0010
0010
,
1000
0000
0001
0000
0100
0100
0100
0000
,
0002
0023
0230
2300
,
3001
0101
1000
1100
,
0001
0101
1000
1100
,
0001
0001
1000
1000
,
0020
0000
0130
0110
,
1000
1100
0001
0101
,
1000
1100
0001
0101
,
1000
1000
0001
0001
,
0200
0000
0310
0110
,
0001
0000
0000
1000
,
1000
0000
0010
0100
,
0100
0000
0001
0000
,
2002
0000
0000
0000
0000
0000
0000
0000
0000
0000
0000
3003
0000
0000
0000
0000
,
1000
0000
0001
0000
0100
0010
0010
0000
,
1000
0001
0010
0010
,
0001
0000
1000
0000
0010
0100
0100
0000
,
0002
0023
0230
2300
,
3001
0000
1000
0000
0010
0100
0100
0000
,
0001
1000
0010
0010
,
1000
0000
0001
0000
0100
0010
0010
0000
,
2000
3200
0320
0032
,
1003
1100
0001
0101
,
1000
1100
0001
0101
,
1000
1000
0001
0001
,
0200
0000
0310
0110
,
0001
0101
1000
1100
,
0001
0101
1000
1100
,
0001
0001
1000
1000
,
0020
0000
0130
0110
,
0000
0000
0000
0000
;
#NOTES:
     dance-single:
     :
     Medium:
     10:
     :
0000
0000
0000
0000
,
0000
0000
0000
0000
,
0000
0000
0000
0000
,
0000
0000
0000
0000
,
0000
0000
0000
0000
,
0000
0000
0000
0000
,
1000
0000
0000
0000
0001
0000
0100
0000
0001
0000
0000
0010
0000
0000
0100
0000
,
1000
0000
0000
0010
0000
0000
0100
0000
0001
0000
0001
0000
0011
0000
0000
0000
,
1000
0000
1000
0000
1000
0000
1000
0100
,
0010
0000
0010
0000
0010
0000
0010
0001
,
0100
0000
0100
0000
0100
0000
0100
0001
,
1000
0000
1000
0000
1000
0000
1000
0001
,
0100
0010
0100
0001
2000
0000
3000
0100
,
1000
0001
0001
0100
0020
0000
0030
0000
,
0000
0100
0001
0010
0001
0010
0100
1000
,
0002
0000
0000
0000
0000
0000
0000
0000
0103
0000
0000
0100
0000
0000
0100
0000
,
0001
0010
0100
1000
0100
1100
1100
0000
,
0001
1000
0100
0010
0001
0011
0011
0000
,
1000
0001
0100
0010
1000
1010
1010
0000
,
0002
0203
0320
2030
,
3001
0010
0100
1000
0010
1010
1010
0000
,
0001
1000
0010
0100
0001
1001
1001
0000
,
1000
0001
0010
0100
1000
1100
1100
0000
,
0002
0023
0230
2300
,
3001
1000
0001
1000
0010
0100
0001
0011
,
0000
0010
0100
1000
0100
1000
0010
0110
,
0000
0100
0001
0100
0001
0010
0100
1100
,
0000
0002
0000
0103
0010
1000
1001
0000
,
1000
0001
1000
0001
0010
0100
1000
1010
,
0000
0010
0100
0001
0100
0001
0010
0110
,
0000
0100
1000
0100
1000
0010
0100
0101
,
0000
2000
0000
3010
0100
0001
0010
0000
,
0100
0000
0000
0000
0000
0000
1000
0001
,
1000
0000
0000
0000
0010
0010
0100
0000
,
0001
0000
0000
0000
0001
0000
0010
0000
0100
0000
0000
1000
0000
0000
0010
0000
,
0100
0000
0000
0001
0000
0000
0010
0000
0001
0000
0000
1001
0000
0000
0000
0000
,
1000
0100
0010
0001
1001
1001
1001
0000
,
0001
1000
0100
0010
0110
0110
0110
0000
,
0100
1000
0001
0100
0110
0110
0110
0000
,
0002
0023
0230
2300
,
3001
0100
0001
1000
1100
1100
1100
0000
,
1000
0001
0100
0010
1010
1010
1010
0000
,
1000
0100
0010
0001
0101
0101
0101
0000
,
2000
3002
0203
0320
,
1030
0001
0100
0010
0100
0001
1000
1100
,
0000
0100
0010
0001
1000
0010
1000
1001
,
0000
0001
0100
0001
0010
0100
1000
1010
,
0000
0020
0000
0130
0001
1000
1001
0000
,
1000
0100
1000
0010
1000
0001
0010
1100
,
0000
1000
0001
0010
0100
1000
0001
0110
,
0000
1000
0010
0100
0001
1000
0100
0011
,
0000
0100
1000
0001
0100
0010
2001
0000
,
0000
0000
0000
0000
0000
3000
0000
0000
,
0000
0000
0000
0000
;
#NOTES:
     dance-single:
     :
     Hard:
     15:
     :
0000
0000
0000
0000
,
0000
0000
0000
0000
,
0000
0000
0000
0000
,
0000
0000
0000
0000
,
0000
0000
0000
0000
,
0000
0000
0000
0000
,
0001
0000
0000
0000
1000
0000
0010
0000
0100
0000
0000
0001
0000
0000
0011
0000
,
1000
0000
0000
0010
0000
0000
1010
0000
0001
0000
0100
0000
0200
0000
0000
0000
,
0301
0010
0001
0010
0100
1000
0001
0100
,
0010
1000
0001
0020
0000
0000
0030
0001
,
0001
1000
0010
1000
0010
0100
0001
1000
,
0200
0000
0000
0000
0000
0000
0000
0000
1300
0000
0000
0001
0000
0000
0100
0000
,
0001
0010
0100
1000
0020
0000
0030
0001
,
0010
0000
0100
0001
1000
0000
0001
0000
0020
0000
0000
0000
0030
0000
0001
0000
,
0011
1000
0001
0100
0010
0100
0001
1000
,
0200
0000
0000
0000
0000
0000
0300
0000
1000
0100
0000
1000
0000
0000
0001
0000
,
0100
0000
0001
0010
0100
0000
1000
0000
1100
0000
1100
0000
1010
0000
0000
0000
,
0010
0000
1000
0010
0100
0000
0001
0000
0101
0000
0101
0000
0011
0000
0000
0000
,
0010
0000
0001
0100
0010
0000
1000
0000
1010
0000
1010
0000
1100
0000
0000
0000
,
2000
0010
3002
0100
2003
0010
3002
0100
,
1003
0000
0100
0010
0001
0000
1000
0000
1010
0000
1100
0000
1010
0000
0000
0000
,
0001
0000
1000
0010
0100
0000
0001
0000
0011
0000
0101
0000
0011
0000
0000
0000
,
1000
0000
0010
0100
0001
0000
1000
0000
1100
0000
1010
0000
1100
0000
0000
0000
,
0002
0000
0000
0000
0023
0000
0000
0000
0130
1000
0000
0100
1000
0000
0001
0100
,
0001
0000
0010
0100
1000
0000
0010
0100
0001
0000
1000
0000
1100
0000
1010
0000
,
0000
0000
0010
0100
0001
0000
0010
0100
1000
0000
0001
0000
0101
0000
0011
0000
,
0000
0000
1000
0100
0010
0000
0100
1000
0001
0000
0100
0010
1000
0000
1001
0000
,
0000
0002
0000
0013
0100
1000
0010
0000
,
1000
0000
0100
0010
0001
0000
0100
0010
1000
0000
0001
0000
0011
0000
0101
0000
,
0000
0000
0100
0010
1000
0000
0100
0010
0001
0000
1000
0000
1010
0000
1100
0000
,
0000
0000
0001
0100
0010
0000
1000
0001
0010
0000
0100
1000
0010
0000
0200
0000
,
0000
0000
1300
0000
0100
0000
0001
0000
0010
0000
0100
0000
1000
0001
1000
0001
,
0100
0000
0000
0000
0000
0000
0001
0010
,
0001
0000
0000
0000
1000
1000
0001
0000
,
0100
0001
0000
1000
0100
0000
1000
0010
0000
0100
0001
0000
0010
0001
1000
0010
,
0100
0010
1000
0001
1000
0100
0010
0001
0010
0001
0000
0100
0000
0000
0000
0000
,
0001
0000
1000
0100
0001
0000
0100
1000
0010
0000
0110
0000
0101
0000
0000
0000
,
1000
0000
0001
0100
1000
0000
0100
0001
0010
0000
0110
0000
1100
0000
0000
0000
,
0001
0000
1000
0100
0010
0000
1000
0010
0001
0000
0101
0000
1001
0000
0000
0000
,
2000
0100
3020
0100
2030
0100
3002
0010
,
1003
0000
0001
0100
0010
0000
0001
0010
1000
0000
1100
0000
1001
0000
0000
0000
,
0001
0000
1000
0100
0010
0000
1000
0010
0001
0000
0101
0000
1001
0000
0000
0000
,
1000
0000
0010
0100
1000
0000
0100
0001
0010
0000
0001
0000
1001
0000
0000
0000
,
0002
0023
0230
2300
,
3001
0000
0000
0000
0000
0000
1000
0000
0100
0000
1000
0000
0100
0000
0000
0000
0000
0000
0010
0000
0000
0001
0000
0000
1000
0000
0000
0000
0000
0000
0010
0000
0000
0100
0000
0000
0001
0000
0000
0000
0000
0000
0011
0000
0000
0000
0000
0000
,
0000
0000
0000
0000
0000
0000
1000
0000
0010
0000
1000
0000
0010
0000
0000
0000
0000
0000
0100
0000
0000
0001
0000
0000
1000
0000
0000
0000
0000
0000
0100
0000
0000
0010
0000
0000
0001
0000
0000
0000
0000
0000
0101
0000
0000
0000
0000
0000
,
0000
0000
0000
0000
0000
0000
0001
0000
1000
0000
0001
0000
1000
0000
0000
0000
0000
0000
0100
0000
0000
0010
0000
0000
0001
0000
0000
0000
0000
0000
1000
0000
0000
0010
0000
0000
0100
0000
0000
0000
0000
0000
0110
0000
0000
0000
0000
0000
,
0000
0020
0000
0031
0010
1000
0001
0000
,
1000
0000
0000
0000
0000
0000
0001
0000
0010
0000
0001
0000
0010
0000
0000
0000
0000
0000
0100
0000
0000
1000
0000
0000
0001
0000
0000
0000
0000
0000
0100
0000
0000
0010
0000
0000
1000
0000
0000
0000
0000
0000
1100
0000
0000
0000
0000
0000
,
0010
0000
0000
0000
0000
0000
0001
0000
0100
0000
0001
0000
0100
0000
0000
0000
0000
0000
0010
0000
0000
1000
0000
0000
0001
0000
0000
0000
0000
0000
0010
0000
0000
0100
0000
0000
1000
0000
0000
0000
0000
0000
1010
0000
0000
0000
0000
0000
,
0001
0000
0000
0000
0000
0000
1000
0000
0001
0000
1000
0000
0001
0000
0000
0000
0000
0000
0010
0000
0000
0100
0000
0000
1000
0000
0000
0000
0000
0000
0001
0000
0000
0100
0000
0000
0010
0000
0000
0000
0000
0000
1010
0000
0000
0000
0000
0000
,
1000
0100
1000
0001
0100
0001
0010
0001
1000
0100
1000
0010
1000
0001
0200
0000
,
0000
0000
0000
0000
0000
0300
0000
0000
,
0000
0000
0000
0000
;
#NOTES:
     dance-double:
     :
     Easy:
     6:
     :
00000000
00000000
00000000
00000000
,
00000000
00000000
00000000
00000000
,
00000000
00000000
00000000
00000000
,
00000000
00000000
00000000
00000000
,
00000000
00000000
00000000
00000000
,
00000000
00000000
00000000
00000000
,
00001000
00010000
00001000
00010000
,
00000100
00001000
00001000
00000000
,
00000020
00001000
00001000
00001000
,
00020030
00001000
00001000
00001000
,
00030200
00001000
00001000
00001000
,
00020300
00001000
00031000
00000000
,
00002000
00010000
00103000
00000000
,
00200000
00010000
00301000
00000000
,
00002000
00010000
01003000
00000000
,
02000000
00010000
03001000
00000000
,
00001000
00010000
00000100
00000010
,
00000001
00000100
00001000
00010000
,
00001000
00010000
00001000
01000000
,
00200000
00320000
00032000
00003200
,
00000310
00010000
00001000
01000000
,
00001000
00010000
01000000
10000000
,
00100000
01000000
01000000
00010000
,
20000000
32000000
03200000
00320000
,
10030000
01010000
00001000
01010000
,
10000000
01010000
00001000
01010000
,
10000000
01000000
00100000
00001000
,
00020000
00000000
00030100
00000010
,
00000001
00001010
00010000
00001010
,
00000001
00001010
00010000
00001010
,
00000001
00000010
00000100
00010000
,
00002000
00000000
00013000
00011000
,
00001000
00000000
00000000
01000000
,
01000000
00000000
00010000
00100000
,
00100000
00000000
00001000
00000000
,
00022000
00000000
00000000
00000000
00000000
00000000
00000000
00000000
00000000
00000000
00000000
00033000
00000000
00000000
00000000
00000000
,
00001000
00010000
00001000
00000100
,
00000001
00000001
00000100
00001000
,
00010000
01000000
10000000
10000000
,
00200000
00320000
00032000
00003200
,
00000301
00000001
00000010
00001000
,
00010000
00100000
10000000
10000000
,
00100000
00010000
00001000
00000010
,
00000002
00000203
00000320
00002030
,
00003001
00001010
00010000
00001100
,
00000001
00001010
00010000
00001100
,
00000001
00000010
00000100
00010000
,
00002000
00000000
01003000
00010000
,
10000000
01010000
00001000
00110000
,
10000000
01010000
00001000
00110000
,
10000000
01000000
00100000
00001000
,
00020000
00000000
00031000
00011000
,
00000000
00000000
00000000
00000000
;
#NOTES:
     dance-double:
     :
     Medium:
     10:
     :
00000000
00000000
00000000
00000000
,
00000000
00000000
00000000
00000000
,
00000000
00000000
00000000
00000000
,
00000000
00000000
00000000
00000000
,
00000000
00000000
00000000
00000000
,
00000000
00000000
00000000
00000000
,
00001000
00000000
00000000
00000000
00010000
00000000
00000000
00000000
00001000
00000000
00000000
00100000
00000000
00000000
00010000
00000000
,
01000000
00000000
00000000
01000000
00000000
00000000
00100000
00000000
10000000
00000000
00010000
00000000
10010000
00000000
00000000
00000000
,
10000000
00000000
10000000
00000000
10000000
00000000
10000000
01000000
,
00100000
00000000
00100000
00000000
00100000
00000000
00100000
00001000
,
00010000
00000000
00010000
00000000
00010000
00000000
00010000
00000100
,
00001000
00000000
00001000
00000000
00001000
00001000
00001000
00000001
,
00000100
00000000
00000100
00000000
00000100
00000000
00000100
00000010
,
00010000
00000000
00010000
00000000
00010000
00000000
00010000
00001000
,
01000000
00000000
01000000
00000000
01000000
00000000
01000000
00010000
,
00100000
00000000
00000000
00000000
00100000
00000000
00000000
00000000
00010000
00000000
00000000
10000000
00000000
00000000
01000000
00000000
,
10000000
00100000
01000000
00010000
00100000
00110000
00110000
00000000
,
00001000
00010000
00000100
00001000
00000010
00001010
00001010
00000000
,
00010000
00001000
01000000
00010000
00100000
00110000
00110000
00000000
,
00002000
00023000
00030200
00002300
,
00003001
00000100
00000010
00001000
00000100
00001100
00001100
00000000
,
00010000
00001000
00100000
00010000
01000000
01010000
01010000
00000000
,
00001000
00010000
00000010
00001000
00000100
00001100
00001100
00000000
,
00020000
00032000
02003000
03020000
,
00130000
01000000
10000000
00010000
01000000
00100000
10000000
10010000
,
00000000
10000000
01000000
00100000
00010000
00100000
00001000
00011000
,
00000000
00010000
00000100
00000010
00001000
00000010
00000001
00001001
,
00000000
00000002
00000000
00000013
00001000
00010000
00000100
00000000
,
00000100
00000010
00000001
00001000
00000010
00000100
00000001
00001001
,
00000000
00000001
00000010
00000100
00001000
00000100
00010000
00011000
,
00000000
00001000
00100000
01000000
00010000
01000000
10000000
10010000
,
00000000
20000000
00000000
30100000
00010000
00001000
00100000
00000000
,
00010000
00000000
00000000
00000000
00000000
00000000
01000000
00100000
,
01000000
00000000
00000000
00000000
00010000
00010000
10000000
00000000
,
00100000
00000000
00000000
00000000
01000000
00000000
00010000
00000000
10000000
00000000
00000000
01000000
00000000
00000000
00010000
00000000
,
00001000
00000000
00000000
00000010
00000000
00000000
00000001
00000000
00000100
00000000
00000000
00000110
00000000
00000000
00000000
00000000
,
00000001
00000010
00000100
00001000
00000010
00010000
00011000
00000000
,
00010000
00100000
01000000
00010000
10000000
01000000
01100000
00000000
,
00001000
00010000
01000000
00100000
00001000
00010000
00011000
00000000
,
00002000
00003200
00000302
00000023
,
00000130
00001000
00000010
00010000
00001000
00100000
00110000
00000000
,
00001000
00010000
00100000
01000000
00010000
10000000
10010000
00000000
,
10000000
01000000
00010000
00001000
00000100
00000010
00001010
00000000
,
00000002
00000203
00002300
00023000
,
00031000
01000000
00100000
10000000
00010000
00100000
01000000
11000000
,
00000000
10000000
01000000
00010000
00001000
00010000
00000010
00001010
,
00000000
00001000
00000001
00000010
00000100
00001000
00000010
00010010
,
00000000
00020000
00000000
00031000
00000100
00000001
00000011
00000000
,
00000010
00000100
00010000
00001000
01000000
00010000
00100000
00110000
,
00000000
10000000
00100000
00010000
00001000
00010000
00000100
00000110
,
00000000
00000010
00001000
00010000
00001000
01000000
00100000
10100000
,
00000000
10000000
00100000
00010000
00001000
00000100
00000020
00000000
,
00000000
00000000
00000000
00000000
00000000
00000030
00000000
00000000
,
00000000
00000000
00000000
00000000
;
#NOTES:
     dance-double:
     :
     Hard:
     14:
     :
00000000
00000000
00000000
00000000
,
00000000
00000000
00000000
00000000
,
00000000
00000000
00000000
00000000
,
00000000
00000000
00000000
00000000
,
00000000
00000000
00000000
00000000
,
00000000
00000000
00000000
00000000
,
00010000
00000000
00000000
00000000
00001000
00000000
00010000
00000000
00100000
00000000
00000000
00010000
00000000
00000000
00001000
00000000
,
00100000
00000000
00000000
01000000
00000000
00000000
10000000
00000000
00100000
00000000
00010000
00000000
00011000
00000000
00000000
00000000
,
00001000
00010000
00000100
00001000
00000010
00000100
00001000
00000001
,
00000010
00000100
00001000
00020000
00000000
00000000
00030000
00000100
,
00010000
00001000
00100000
00010000
01000000
00100000
00010000
10000000
,
02000000
00000000
00000000
00000000
00000000
00000000
00000000
00000000
03001000
00000000
00000000
00010000
00000000
00000000
00001000
00000000
,
01000000
10000000
01000000
00100000
00020000
00000000
00030000
00001000
,
00010000
00000000
01000000
10000000
01000000
00000000
10000000
00000000
00100000
00000000
00000000
00001000
00000000
00000000
00100000
00000000
,
01000000
10000000
01000000
00010000
00100000
01000000
00010000
00001000
,
00000200
00000000
00000000
00000000
00000000
00000000
00000000
00000000
00000310
00001000
00000000
00000001
00000000
00000000
00000100
00000000
,
00000001
00000000
00000010
00000001
00000010
00000000
00000100
00000000
00010000
00000000
01000000
00000000
10000000
00000000
00000000
00000000
,
10000000
00000000
00100000
10000000
00100000
00000000
01000000
00000000
00001000
00000000
00000100
00000000
00000001
00000000
00000000
00000000
,
00000001
00000000
00000010
00000001
00000010
00000000
00000100
00000000
00010000
00000000
01000000
00000000
10000000
00000000
00000000
00000000
,
20000000
30020000
00032000
00003002
,
00001003
00000000
00000001
00000010
00000100
00000000
00010000
00000000
01000000
00000000
10000000
00000000
11000000
00000000
00000000
00000000
,
00010000
00000000
10000000
00100000
01000000
00000000
00001000
00000000
00000100
00000000
00000001
00000000
00000011
00000000
00000000
00000000
,
00001000
00000000
00000001
00000010
00000100
00000000
00010000
00000000
01000000
00000000
10000000
00000000
10100000
00000000
00000000
00000000
,
20000000
00000000
00000000
00000000
30020000
00000000
00000000
00000000
10030000
01000000
00000000
10000000
01000000
00000000
00100000
00010000
,
10000000
00000000
00100000
01000000
00010000
00000000
10000000
00000000
01000000
00000000
00010000
00000000
00001000
00000000
00000110
00000000
,
00000000
00000000
00001000
00000100
00000010
00000000
00000001
00000000
00000100
00000000
00001000
00000000
00010000
00000000
01100000
00000000
,
00000000
00000000
00010000
01000000
00100000
00000000
10000000
00000000
01000000
00000000
00010000
00000000
00001000
00000000
00000110
00000000
,
00000000
00020000
00000000
00030010
00000001
00000010
00000100
00000000
,
00001000
00000000
00010000
00000100
00000010
00000000
00000001
00000000
00000100
00000000
00001000
00000000
00010000
00000000
01100000
00000000
,
00000000
00000000
00001000
01000000
00100000
00000000
10000000
00000000
01000000
00000000
00010000
00000000
00001000
00000000
00000110
00000000
,
00000000
00000000
00010000
00000100
00000010
00000000
00000001
00000000
00000100
00000000
00001000
00000000
00010000
00000000
01100000
00000000
,
00000000
00000000
00001000
00000000
00100000
00000000
10000000
00000000
00100000
00000000
01000000
00000000
00010000
00000000
00001000
00010000
,
00002000
00000000
00000000
00000000
00003000
00000000
00100000
00010000
,
00200000
00000000
00300000
00000000
00010000
00010000
01000000
00000000
,
00001000
00010000
00000000
00000100
00001000
00000000
00000010
00000100
00000000
00000010
00001000
00000000
00000100
00010000
00001000
00000000
,
00010000
00001000
00010000
00001000
00010000
00001000
00010000
00001000
00010000
00001000
00000000
01000000
00000000
00000000
00000000
00000000
,
00010000
00000000
10000000
01000000
00010000
00000000
00001000
00000000
00000100
00000000
00000001
00000000
00001000
00000000
00000000
00000000
,
00001000
00000000
00000001
00000100
00001000
00000000
00010000
00000000
01000000
00000000
10000000
00000000
00010000
00000000
00000000
00000000
,
00010000
00000000
10000000
01000000
00010000
00000000
00001000
00000000
00000100
00000000
00000001
00000000
00001000
00000000
00000000
00000000
,
00000002
00002003
00023000
20030000
,
30010000
00000000
01000000
00100000
00010000
00000000
00001000
00000000
00000010
00000000
00000001
00000000
00000011
00000000
00000000
00000000
,
00001000
00000000
00000100
00000010
00001000
00000000
00010000
00000000
00100000
00000000
10000000
00000000
10100000
00000000
00000000
00000000
,
00010000
00000000
01000000
00100000
00010000
00000000
00001000
00000000
00000010
00000000
00000001
00000000
00000011
00000000
00000000
00000000
,
00000200
00020300
00032000
00003200
,
00000301
00000000
00000010
00000001
00000010
00000000
00001000
00000000
00010000
00000000
00001000
00000000
01000000
00000000
10100000
00000000
,
00000000
00000000
00100000
10000000
00100000
00000000
00010000
00000000
00001000
00000000
00010000
00000000
00000100
00000000
00000011
00000000
,
00000000
00000000
00000010
00000001
00000010
00000000
00001000
00000000
00010000
00000000
00001000
00000000
01000000
00000000
10100000
00000000
,
00000000
00200000
00000000
00310000
00001000
00010000
01000000
00000000
,
10000000
00000000
00010000
00100000
01000000
00000000
10000000
00000000
00100000
00000000
00010000
00000000
00000100
00000000
00000011
00000000
,
00000000
00000000
00001000
00000010
00000100
00000000
00000001
00000000
00000010
00000000
00001000
00000000
01000000
00000000
10100000
00000000
,
00000000
00000000
00010000
00100000
01000000
00000000
10000000
00000000
00100000
00000000
00010000
00000000
00000100
00000000
00000011
00000000
,
00000000
00000020
00000000
00001030
00010000
01000000
00200000
00002000
,
00000000
00000000
00300000
00000000
00000000
00003000
00000000
00000000
,
00000000
00000000
00000000
00000000
;
