
//----- song ID: surf -----//
#TITLE:Surface;
#ARTIST:Stessie;
#BANNER:Surface.png;
#BACKGROUND:Surface-bg.png;
#CDTITLE:./CDTitles/DDR A3.png;
#MUSIC:Surface.ogg;
#SAMPLESTART:30.4;
#SAMPLELENGTH:15;
#BPMS:0=150;
#BGSTAGE:3;
#NOTES:
     dance-single:
     :
     Beginner:
     1:
     :
0000
0000
0000
0000
,
0000
0000
0000
0000
,
0000
0000
0000
0000
,
0000
0000
0000
0000
,
0000
0000
0000
0000
,
0000
0000
0000
0000
,
0001
0000
0000
0000
,
0000
0000
0000
0000
,
1000
0000
0000
0000
,
0000
0000
0000
0000
,
0100
0000
0000
0000
,
0000
0000
0000
0000
,
0010
0000
0000
0000
,
0000
0000
0000
0000
,
0001
0000
0000
0000
,
1000
0000
0000
0000
,
0001
0000
0000
0000
,
0000
0000
0000
0000
,
0000
0000
0000
0000
,
0100
0000
0000
0000
,
0001
0000
0000
0000
,
1000
0000
0000
0000
,
0001
0000
0000
0000
,
0100
0000
0000
0000
,
0001
0000
0000
0000
,
1000
0000
0000
0000
,
0000
0000
0000
0000
,
0001
0000
0000
0000
,
0010
0000
0000
0000
,
0001
0000
0000
0000
,
1000
0000
0000
0000
,
0010
0000
0000
0000
,
0001
0000
0000
0000
,
1000
0000
0000
0000
,
0000
0000
0000
0000
,
0001
0000
0000
0000
,
0000
0000
0000
0000
,
0100
0000
0000
0000
,
0000
0000
0000
0000
,
0010
0000
0000
0000
,
0000
0000
0000
0000
,
1000
0000
0000
0000
,
0000
0000
0000
0000
,
0100
0000
0000
0000
,
0100
0000
0000
0000
,
0010
0000
0000
0000
,
0010
0000
0000
0000
,
0001
0000
0000
0000
,
1000
0000
0000
0000
,
0001
0000
0000
0000
,
0100
0000
0000
0000
,
0000
0000
0000
0000
,
0000
0000
0000
0000
,
0001
0000
0000
0000
,
1000
0000
0000
0000
,
0001
0000
0000
0000
,
0100
0000
0000
0000
,
0010
0000
0000
0000
,
1000
0000
0000
0000
,
1000
0000
0000
0000
,
1000
0000
0000
0000
,
0001
0000
0000
0000
,
0001
0000
0000
0000
,
0100
0000
0000
0000
,
0100
0000
0000
0000
,
0010
0000
0000
0000
,
0010
0000
0000
0000
,
0000
0000
0000
0000
;
#NOTES:
     dance-single:
     :
     Easy:
     4:
     :
0000
0000
0000
0000
,
0000
0000
0000
0000
,
0000
0000
0000
0000
,
0000
0000
0000
0000
,
1000
0000
1000
0000
,
1000
0000
1000
0000
,
0100
0000
0100
0000
,
0010
0000
0010
0000
,
0001
0000
0001
0000
,
0001
0000
0001
0000
,
0100
0000
0100
0000
,
0010
0000
0010
0000
,
1000
0000
1000
0000
,
0001
0000
0001
0000
,
0010
0000
0100
0000
,
0010
0000
0001
0000
,
1000
0001
1000
0001
,
2000
0000
0000
3000
,
0100
0100
0100
0000
,
1001
0000
0001
0000
,
0100
0000
0010
0000
,
1000
1000
0010
0000
,
0100
0100
0001
0000
,
0001
0000
0010
0000
,
0100
0000
1000
0000
,
0001
1000
0001
0000
,
1000
0001
1000
0000
,
0001
0000
0010
0000
,
0010
0000
0100
0000
,
1000
0001
1000
0000
,
0200
0000
0300
0000
,
1000
0000
0010
0000
,
0100
0000
0001
0000
,
0010
0010
0010
0000
,
0100
0100
0100
0000
,
0010
0000
0001
0000
,
0010
0000
0001
0000
,
1000
0000
0100
0000
,
1000
0000
0100
0000
,
0010
0000
0001
0000
,
1000
0000
0100
0000
,
1000
0000
0010
0000
,
0100
0000
0001
0000
,
0200
0000
0300
0000
,
0020
0000
0030
0000
,
0200
0000
0300
0000
,
0020
0000
0030
0000
,
1000
0000
0100
0000
,
0010
0000
0001
0000
,
1000
0001
1000
0001
,
2000
0000
3000
0000
,
1001
0000
0000
0000
,
0001
0000
1000
0000
,
0001
1000
0001
0000
,
1000
0001
1000
0000
,
0010
1000
0010
0000
,
0100
0001
0100
0000
,
0001
0010
0001
0000
,
1000
0100
1000
0000
,
0100
0100
0010
0000
,
0100
0100
0010
0000
,
0001
0001
1000
0000
,
0001
0001
1000
0000
,
0020
0000
0230
0000
,
0320
0000
0130
0000
,
0001
0000
1000
0000
,
1001
0000
2002
0000
,
3003
0000
0000
0000
,
0000
0000
0000
0000
;
#NOTES:
     dance-single:
     :
     Medium:
     9:
     :
0000
0000
0000
0000
,
0000
0000
0000
0000
,
0000
0000
0000
0000
,
0000
0000
0000
0000
,
0001
0000
0000
0000
,
1000
0000
0000
0000
,
0010
0000
0010
0000
,
0100
0000
0000
0000
,
0001
0000
0001
0000
,
1000
0000
0000
0000
,
0100
0000
0010
0000
,
0001
0000
0100
0000
,
0010
0000
1000
0000
,
0200
0000
0000
0300
,
0010
0001
0010
0001
,
1000
0010
1000
0010
,
2000
0000
0000
0000
,
3002
0000
0000
0003
,
1000
0010
0100
0001
,
0100
0000
0000
0000
0000
0000
0000
0010
0000
0000
1000
0000
0000
0000
0000
0000
,
0100
0000
0000
0100
0000
0000
0010
0000
,
0001
0000
0000
0100
0000
0000
0010
0000
,
2000
0000
0000
3001
0000
0000
0000
0000
,
0010
0000
0000
0000
0000
0000
0000
0100
0000
0000
1000
0000
0000
0000
0000
0000
,
0010
0000
0000
0010
0000
0000
1000
0000
,
0001
0010
1000
0010
,
0002
0000
0103
0000
,
0010
0000
0000
0000
0000
0000
0000
1000
0000
0000
0001
0000
0000
0000
0000
0100
,
0000
0010
0000
0000
1000
0000
0001
0000
,
0100
0000
0000
0010
0000
0000
1000
0000
,
0002
0000
0000
0003
,
0010
0000
0000
0000
0000
0000
0000
0001
0000
0000
0001
0000
0000
0000
0000
0000
,
0100
0000
0000
0010
0000
0000
1000
0000
,
0100
0001
0100
1000
,
0002
0000
0000
0003
0100
0000
0000
0000
,
0020
0000
0000
0030
,
2000
0000
0000
3000
,
0002
0000
0000
0003
,
0200
0000
0000
0300
,
0010
1000
0100
0000
,
0010
0001
0100
0000
,
0010
0100
0010
0000
,
1000
0001
1000
0000
,
0110
0000
0000
0000
,
1100
0000
0000
0000
,
1001
0000
0000
0000
,
0011
0000
0000
0000
,
0001
0010
0100
1000
,
0010
0100
0001
1000
,
0100
0010
0100
0000
1000
0001
1000
0000
,
0001
0100
0010
1000
,
1001
0000
0000
0000
,
0110
0000
0000
0000
,
1000
0000
0000
0010
0000
0000
0100
0000
0000
0000
0001
0000
1000
0000
0001
0000
,
0010
0100
1000
0001
,
0100
0000
0000
0001
0000
0000
0100
0000
0000
0001
0000
0000
0100
0000
0000
0000
,
0010
0000
0000
1000
0000
0000
0010
0000
0000
1000
0000
0000
0010
0000
0000
0000
,
1000
0000
0000
0100
0000
0000
0010
0000
0000
0000
0001
0000
1000
0000
0001
0000
,
0100
0010
1000
0001
,
0010
0000
0000
0100
0000
0000
0010
0000
0000
0100
0000
0000
0010
0000
0000
0000
,
0001
0000
0000
1000
0000
0000
0001
0000
0000
1000
0000
0000
0001
0000
0000
0000
,
0100
0000
0000
0001
0000
0000
1000
0000
0000
0000
0010
0000
0100
0000
0010
0000
,
1000
0010
0100
0001
,
0020
0000
0230
0000
,
2300
0000
0000
3020
0000
0000
0230
0000
0302
0000
0000
0000
0000
0000
0003
0000
,
1000
0000
0000
0100
0000
0000
0010
0000
0200
0000
0000
0000
0320
0000
0000
0000
,
0031
0000
0000
1000
0000
0000
0001
0000
0200
0000
0000
0000
0000
0000
0000
0000
,
0300
0000
0000
0000
,
0000
0000
0000
0000
;
#NOTES:
     dance-single:
     :
     Hard:
     12:
     :
0000
0000
0000
0000
,
0000
0000
0000
0000
,
0000
0000
0000
0000
,
0000
0000
0000
0000
,
1000
0000
0001
0100
0001
0000
1000
0000
,
0001
0000
1000
0100
1000
0000
0001
0000
,
0200
0000
0001
0000
,
0302
0000
1000
0000
,
1003
0000
0001
0010
0001
0000
1000
0000
,
0001
0000
1000
0010
1000
0000
0001
0000
,
0020
0000
0000
0130
0200
0000
0000
1300
,
2000
0000
3020
0000
0230
0000
0000
0310
,
1000
0000
0000
0010
0000
0000
0100
0000
0001
0000
0000
0010
0000
0000
0100
0000
,
2000
0000
0000
0000
,
3010
0010
1000
1000
,
0001
0001
0100
0100
,
0010
1000
0010
1000
0100
0010
0100
0010
,
0001
1000
0010
0100
0001
0010
0100
1000
,
0001
1000
0100
1001
,
0001
0000
0000
0000
0100
0000
0000
0010
0000
0000
0100
0000
0002
0000
0000
0000
,
0023
0000
0130
2000
0000
3001
0200
0300
,
0010
0100
0010
2000
0000
3100
0010
0100
,
0220
0000
0330
2002
0000
0000
3003
0000
,
1000
0000
0000
0000
0010
0000
0000
0100
0000
0000
0010
0000
2000
0000
0000
0000
,
3200
0000
0310
0002
0000
1003
0020
0030
,
0100
0010
0100
0002
0000
0013
0100
0010
,
0001
0000
1000
0000
0001
0000
1000
0000
0001
1000
0001
1000
0001
0000
0000
0000
,
1000
0000
0000
0000
0100
0000
0000
0010
0000
0000
0010
0000
0100
0000
0000
1000
,
0000
1000
0010
0000
0100
0001
0200
0300
,
0010
0100
0010
2000
0000
3100
0010
0100
,
0220
0000
0000
0330
,
0010
0000
0000
0000
0001
0000
0000
0100
0000
0000
0100
0000
0002
0000
0000
0000
,
0023
0000
0130
2000
0000
3010
0200
0300
,
0001
0100
0001
0020
0000
0130
1000
0100
,
1000
0000
0010
0000
0100
0000
0010
0000
0100
0010
0100
0010
0100
0000
0000
0000
,
0002
0000
0000
0000
,
0023
0000
0000
0000
,
0230
0000
0000
0000
,
2300
0000
0000
0000
,
3001
0000
0000
0100
0000
0000
0010
0000
0000
0100
0000
0000
0001
0000
1000
0000
,
0100
0000
0000
1000
0000
0000
0001
0000
0000
1000
0000
0000
0100
0000
0010
0000
,
0001
0000
0000
0100
0000
0000
1000
0000
0000
0100
0000
0000
0001
0000
1000
0000
,
0100
0000
0000
0001
0000
0000
0100
0000
0000
1000
0000
0000
0010
0000
0000
0000
,
1010
0010
0100
0001
,
0101
0100
0010
1000
,
1100
0100
0010
0001
,
0011
0010
0001
1000
,
1001
1010
0110
0101
,
0011
0110
1100
1001
,
0001
0010
0100
1000
0010
0100
0001
1000
,
0002
2003
3002
0103
,
0110
0000
0000
0000
0000
0000
0000
0001
0000
0000
0001
0000
0010
0000
0000
0000
,
1001
0000
0000
0000
0000
0000
0000
1000
0000
0000
1000
0000
0010
0000
0000
0000
,
1000
0000
0000
0010
0000
0000
0100
0001
0000
0000
0010
0000
0100
0000
0010
0000
,
0100
1000
0100
1000
0010
0000
0110
0000
,
0001
0000
0000
0010
0000
0000
0100
0000
0000
1000
0000
0000
0001
0000
1000
0001
,
1000
0000
0000
0010
0000
0000
0100
0000
0000
0001
0000
0000
1000
0000
0000
0000
,
0001
0000
0000
0010
0000
0000
0100
1000
0000
0000
0010
0000
0100
0000
0010
0000
,
1000
0001
0010
0100
1000
0000
1001
0000
,
0001
0000
0000
0100
0000
0000
1000
0000
0000
0100
0000
0000
0001
0000
1000
0001
,
1000
0000
0000
0100
0000
0000
0001
0000
0000
0100
0000
0000
1000
0000
0000
0000
,
0001
0000
0000
0100
0000
0000
0010
1000
0000
0000
0001
0000
1000
0000
0001
0000
,
0010
0100
1000
0000
1100
0000
0001
0100
,
0020
0000
0000
0000
0000
0000
1030
0100
2000
0000
0000
0000
0000
0000
3010
0100
,
0010
0000
1000
0010
1000
0000
0001
0000
0200
0000
0000
0000
0310
0000
0000
0000
,
0110
0000
0000
1010
0000
0000
1100
0000
2100
0000
0000
0000
3010
0000
0000
0000
,
0110
0000
0000
0101
0000
0000
0011
0000
0022
0000
0000
0000
0000
0000
0000
0000
,
0033
0000
0000
0000
,
0000
0000
0000
0000
;
#NOTES:
     dance-double:
     :
     Easy:
     4:
     :
00000000
00000000
00000000
00000000
,
00000000
00000000
00000000
00000000
,
00000000
00000000
00000000
00000000
,
00000000
00000000
00000000
00000000
,
10000000
00000000
10000000
00000000
,
01000000
00000000
01000000
00000000
,
00100000
00000000
00100000
00000000
,
00010000
00000000
00010000
00000000
,
00001000
00000000
00001000
00000000
,
00000100
00000000
00000100
00000000
,
00000010
00000000
00000010
00000000
,
00000001
00000000
00000001
00000000
,
00000100
00000000
00000100
00000000
,
00000001
00000000
00000001
00000000
,
00000010
00000000
00000010
00000000
,
00000100
00000000
00000100
00000000
,
00010000
00001000
00010000
00001000
,
00020000
00000000
00000000
00030000
,
00001000
00001000
00001000
00000000
,
00011000
00000000
00001000
00000000
,
00010000
00000000
00000010
00000000
,
00000100
00000000
00000010
00000000
,
00001000
00000000
00000100
00000000
,
00011000
00000000
00010000
00000000
,
00001000
00000000
01000000
00000000
,
00100000
10000000
00100000
00000000
,
01000000
00010000
01000000
00000000
,
00010000
00000000
00100000
00000000
,
00001000
00000000
00010000
00000000
,
00001000
00010000
00001000
00000000
,
00022000
00000000
00033000
00000000
,
00001000
00000000
00010000
00000000
,
00000100
00000000
00000010
00000000
,
00000001
00000001
00001000
00000000
,
00000010
00000010
00010000
00000000
,
00001000
00000000
01000000
00000000
,
00010000
00000000
10000000
00000000
,
00100000
00000000
10000000
00000000
,
01000000
00000000
10000000
00000000
,
01000000
00000000
00010000
00000000
,
00001000
00000000
00000100
00000000
,
00000001
00000000
00000010
00000000
,
00000100
00000000
00001000
00000000
,
00000002
00000000
00000003
00000000
,
00000200
00000000
00000300
00000000
,
00000020
00000000
00000030
00000000
,
00002000
00000000
00003000
00000000
,
00000010
00000000
00001000
00000000
,
00000100
00000000
00010000
00000000
,
00001000
00010000
00001000
00010000
,
00002000
00000000
00003000
00000000
,
00011000
00000000
00000000
00000000
,
00001000
00000000
00010000
00000000
,
00000100
00001000
00000100
00000000
,
00010000
00001000
00010000
00000000
,
00001000
00100000
00010000
00000000
,
10000000
00100000
10000000
00000000
,
00010000
01000000
00010000
00000000
,
00010000
00001000
00010000
00000000
,
00001000
00001000
00010000
00000000
,
00000100
00000100
00000010
00000000
,
00000001
00000001
00001000
00000000
,
00000010
00000010
00000100
00000000
,
00000002
00000000
00000203
00000000
,
00002300
00000000
00013000
00000000
,
00001000
00000000
00010000
00000000
,
00011000
00000000
00022000
00000000
,
00033000
00000000
00000000
00000000
,
00000000
00000000
00000000
00000000
;
#NOTES:
     dance-double:
     :
     Medium:
     9:
     :
00000000
00000000
00000000
00000000
,
00000000
00000000
00000000
00000000
,
00000000
00000000
00000000
00000000
,
00000000
00000000
00000000
00000000
,
00000001
00000000
00000000
00000000
,
00001000
00000000
00000000
00000000
,
00000010
00000000
00001000
00000000
,
00000010
00000000
00000000
00000000
,
00010000
00000000
00001000
00000000
,
00010000
00000000
00000000
00000000
,
00001000
00000000
00100000
00000000
,
00010000
00000000
10000000
00000000
,
00100000
00000000
01000000
00000000
,
00020000
00000000
00000000
00030000
,
10000000
00100000
10000000
00100000
,
01000000
00010000
01000000
00010000
,
00200000
00000000
00000000
00000000
,
00302000
00000000
00000000
00003000
,
00010000
00000100
00001000
00000010
,
00000110
00000000
00000000
00000000
00000000
00000000
00000000
00001000
00000000
00000000
00000001
00000000
00000000
00000000
00000000
00000000
,
00000100
00000000
00000000
00000100
00000000
00000000
00000010
00000000
,
00001000
00000100
00010000
00001000
,
00020000
00000000
00000000
00031000
00000000
00000000
00000000
00000000
,
00100000
00000000
00000000
00000000
00000000
00000000
00000000
00010000
00000000
00000000
10000000
00000000
00000000
00000000
00000000
00000000
,
00100000
00000000
00000000
00100000
00000000
00000000
10000000
00000000
,
00010000
00100000
00001000
00010000
,
00000200
00000000
00000310
00000000
,
00000001
00000000
00000000
00000000
00000000
00000000
00000000
00001000
00000000
00000000
00000100
00000000
00000000
00000000
00000000
00000010
,
00000000
00000001
00000000
00000000
00000100
00000000
00000010
00000000
,
00001000
00000100
00010000
00001000
,
00200000
00000000
00000000
00300000
,
00010000
00000000
00000000
00000000
00000000
00000000
00000000
10000000
00000000
00000000
10000000
00000000
00000000
00000000
00000000
00000000
,
00100000
00000000
00000000
01000000
00000000
00000000
00010000
00000000
,
00100000
00001000
00010000
00000100
,
00002000
00000000
00003010
00000000
,
00000200
00000000
00000000
00000300
,
00000002
00000000
00000000
00000003
,
00000020
00000000
00000000
00000030
,
00000200
00000000
00000000
00000300
,
00010000
00001000
00100000
00000000
,
00010000
00100000
01000000
00000000
,
10000000
01000000
10000000
00000000
,
00100000
01000000
00100000
00000000
,
01010000
00000000
00000000
00000000
,
00110000
00000000
00000000
00000000
,
00011000
00000000
00000000
00000000
,
00001100
00000000
00000000
00000000
,
00001000
00000100
00000010
00000001
,
00001000
00000010
00000100
00000001
,
00001000
00000100
00001000
00000100
00010000
00001000
00010000
00001000
,
00010000
00001000
00100000
00010000
,
00110000
00000000
00000000
00000000
,
01100000
00000000
00000000
00000000
,
10000000
00000000
00000000
00010000
00000000
00000000
10000000
00000000
00000000
00000000
00100000
00000000
01000000
00000000
00100000
00000000
,
10000000
00010000
00100000
00001000
,
00010000
00000000
00000000
00000100
00000000
00000000
00010000
00000000
00000000
00000100
00000000
00000000
00010000
00000000
00000000
00000000
,
00000010
00000000
00000000
00001000
00000000
00000000
00000010
00000000
00000000
00001000
00000000
00000000
00000010
00000000
00000000
00000000
,
00000100
00000000
00000000
00000010
00000000
00000000
00001000
00000000
00000000
00000000
00000001
00000000
00001000
00000000
00000001
00000000
,
00000010
00000100
00001000
00000100
,
00010000
00000000
00000000
00000100
00000000
00000000
00010000
00000000
00000000
00000100
00000000
00000000
00010000
00000000
00000000
00000000
,
00001000
00000000
00000000
00100000
00000000
00000000
00001000
00000000
00000000
00100000
00000000
00000000
00001000
00000000
00000000
00000000
,
00100000
00000000
00000000
00010000
00000000
00000000
01000000
00000000
00000000
00000000
00010000
00000000
10000000
00000000
00010000
00000000
,
00100000
01000000
10000000
00010000
,
02000000
00000000
00000000
03000000
00200000
00000000
00000000
00300000
,
20000000
00000000
30000000
00200000
00000000
00000000
02300000
00000000
03020000
00000000
00000000
00000000
00000000
00000000
00030000
00000000
,
00100000
00000000
00000000
00001000
00000000
00000000
00010000
00000000
00000200
00000000
00000000
00000000
00000320
00000000
00000000
00000000
,
00000031
00000000
00000000
00001000
00000000
00000000
00000001
00000000
00000200
00000000
00000000
00000000
00000000
00000000
00000000
00000000
,
00000300
00000000
00000000
00000000
,
00000000
00000000
00000000
00000000
;
#NOTES:
     dance-double:
     :
     Hard:
     12:
     :
00000000
00000000
00000000
00000000
,
00000000
00000000
00000000
00000000
,
00000000
00000000
00000000
00000000
,
00000000
00000000
00000000
00000000
,
10000000
01000000
00100000
00000000
,
00010000
00100000
01000000
00000000
,
02000000
00000000
00000000
00000000
,
03200000
00000000
00000000
00000000
,
00301000
00010000
00000100
00000000
,
00001000
00000010
00000100
00000000
,
00000002
00000000
00000000
00000013
00000020
00000000
00000000
00000130
,
00000200
00000000
00002300
00000000
00003020
00000000
00000000
00001030
,
00000100
00000000
00000000
00010000
00000000
00000000
00001000
00000000
00100000
00000000
00000000
01000000
00000000
00000000
10000000
00000000
,
02000000
00000000
00000000
00000000
,
13000000
10000000
00100000
00100000
,
01000000
01000000
00010000
00010000
,
00100000
00001000
00100000
00001000
00010000
00000100
00010000
00000100
,
00001000
00000001
00000100
00000010
00000100
00001000
00010000
00100000
,
01000000
00010000
10000000
10010000
,
01010000
00000000
00000000
00000000
01000000
00000000
00000000
00010000
00000000
00000000
00100000
00000000
02000000
00000000
00000000
00000000
,
03200000
00000000
00310000
02000000
00000000
03100000
00010000
00000000
,
00001000
00010000
00001000
00000200
00000000
00000301
00001000
00000001
,
00000020
00000000
00000030
00002002
00000000
00000000
00003003
00000000
,
00001010
00000000
00000000
00000000
00000010
00000000
00000000
00001000
00000000
00000000
00000100
00000000
00000020
00000000
00000000
00000000
,
00000230
00000000
00001300
00000020
00000000
00000130
00001000
00000000
,
00010000
00001000
00010000
00200000
00000000
10300000
00010000
10000000
,
01000000
00000000
00100000
00000000
01000000
00000000
00100000
00000000
01000000
00100000
01000000
00100000
01000000
00000000
00000000
00000000
,
11000000
00000000
00000000
00000000
10000000
00000000
00000000
00100000
00000000
00000000
00100000
00000000
01000000
00000000
00000000
00010000
,
00000000
00010000
10000000
00100000
01000000
00100000
00010000
00000000
,
00001000
00010000
00001000
00000200
00000000
00000301
00001000
00000001
,
00000020
00000000
00000000
00000030
,
00000101
00000000
00000000
00000000
00000100
00000000
00000000
00000001
00000000
00000000
00000010
00000000
00000200
00000000
00000000
00000000
,
00000320
00000000
00000031
00002000
00000000
00003001
00000100
00000000
,
00001000
00010000
00001000
00200000
00000000
00310000
10000000
00010000
,
00100000
00000000
01000000
00000000
00100000
00000000
01000000
00000000
00100000
01000000
00100000
01000000
00100000
00000000
00000000
00000000
,
00020000
00000000
00000000
00000000
,
20030000
00000000
00000000
00000000
,
30200000
00000000
00000000
00000000
,
02300000
00000000
00000000
00000000
,
03001000
00000000
00000000
00100000
00000000
00000000
00010000
00000000
00000000
00100000
00000000
00000000
00001000
00000000
00010000
00000000
,
00000010
00000000
00000000
00001000
00000000
00000000
00000001
00000000
00000000
00001000
00000000
00000000
00000010
00000000
00000100
00000000
,
00001000
00000000
00000000
00010000
00000000
00000000
00000100
00000000
00000000
00010000
00000000
00000000
00001000
00000000
00100000
00000000
,
01000000
00000000
00000000
00100000
00000000
00000000
00010000
00000000
00000000
00100000
00000000
00000000
01000000
00000000
00000000
00000000
,
11000000
10000000
00100000
01000000
,
01010000
00010000
00100000
00001000
,
00011000
00010000
00000100
00001000
,
00001010
00000010
00000100
00000001
,
00000101
00001001
00001100
00010100
,
00011000
00101000
00110000
10010000
,
10000000
01000000
00100000
00010000
00001000
00000100
00000010
00000001
,
00002000
00003002
00001003
00001001
,
00000110
00000000
00000000
00000000
00000000
00000000
00000000
00000001
00000000
00000000
00000001
00000000
00000010
00000000
00000100
00000000
,
00000110
00000000
00000000
00000000
00000000
00000000
00000000
00001000
00000000
00000000
00001000
00000000
00000010
00000000
00000000
00000000
,
00000100
00000000
00000000
00000001
00000000
00000000
00001000
00000001
00000000
00000000
00000010
00000000
00000100
00000000
00000010
00000000
,
00001000
00010000
00001000
00100000
01000000
00000000
01100000
00000000
,
10000000
00000000
00000000
00010000
00000000
00000000
01000000
00000000
00000000
00001000
00000000
00000000
00010000
00000000
00001000
00000000
,
00010000
00000000
00000000
00000100
00000000
00000000
00001000
00000000
00000000
00000001
00000000
00000000
00000100
00000000
00000000
00000000
,
00000010
00000000
00000000
00001000
00000000
00000000
00000001
00001000
00000000
00000000
00000100
00000000
00000010
00000000
00000100
00000000
,
00010000
00001000
00010000
01000000
00100000
00000000
01100000
00000000
,
10000000
00000000
00000000
01000000
00000000
00000000
00010000
00000000
00000000
01000000
00000000
00000000
10000000
00000000
01000000
00000000
,
00010000
00000000
00000000
00001000
00000000
00000000
00000010
00000000
00000000
00001000
00000000
00000000
00010000
00000000
00000000
00000000
,
00000100
00000000
00000000
00001000
00000000
00000000
00000001
00001000
00000000
00000000
00000010
00000000
00000100
00000000
00000010
00000000
,
00010000
00001000
00010000
00100000
01000000
00000000
00010000
10000000
,
02000000
00000000
00000000
00000000
00000000
00000000
03100000
00010000
00200000
00000000
00000000
00000000
00000000
00000000
00301000
00010000
,
00001000
00010000
00001000
00000010
00000200
00000000
00001300
00000000
,
00001001
00000000
00000000
00001000
00000000
00000000
00000010
00000000
00000210
00000000
00000000
00000000
00000301
00000000
00000000
00000000
,
00000010
00000000
00000000
00001000
00000000
00000000
00010000
00000000
00022000
00000000
00000000
00000000
00000000
00000000
00000000
00000000
,
00033000
00000000
00000000
00000000
,
00000000
00000000
00000000
00000000
;
