
//----- song ID: ucha -----//
#TITLE:Such A Feeling;
#ARTIST:U1;
#BANNER:Such A Feeling.png;
#BACKGROUND:Such A Feeling-bg.png;
#CDTITLE:./CDTitles/DDR HOTTEST PARTY.png;
#MUSIC:Such A Feeling.ogg;
#SAMPLESTART:11;
#SAMPLELENGTH:15;
#BPMS:0=120;
#STAGE:16;
#NOTES:
     dance-single:
     :
     Beginner:
     3:
     :
0000
0000
0000
0000
,
0000
0000
0000
0000
,
0000
0000
0000
0000
,
0000
0000
0000
0000
,
0000
0000
0000
0000
,
0000
0000
0000
0000
,
0001
0000
0001
0000
,
0010
0000
0000
0000
,
0001
0000
0001
0000
,
0100
0000
0000
0000
,
1000
0000
1000
0000
,
0010
0000
0000
0000
,
1000
0000
1000
0000
,
0100
0000
0000
0000
,
1000
0000
0000
0000
,
0100
0000
0100
0000
,
0010
0000
0000
0000
,
0000
0000
0000
0000
,
0001
0000
0000
0000
,
0100
0000
0100
0000
,
0010
0000
0000
0000
,
0000
0000
0000
0000
,
0002
0000
0000
0000
,
0003
0000
0000
0000
,
2000
0000
0000
0000
,
3000
0000
0000
0000
,
0020
0000
0000
0000
,
0030
0000
0000
0000
,
0200
0000
0000
0000
,
0300
0000
0000
0000
,
0001
0000
0010
0000
,
0001
0001
0010
0000
,
0100
0000
0000
0000
,
0000
0000
0000
0000
,
1000
0000
0010
0000
,
1000
1000
0100
0000
,
0010
0000
0000
0000
,
0000
0000
0000
0000
,
0001
0000
0010
0000
,
0100
0100
0001
0000
,
0100
0000
0000
0000
,
0000
0000
0000
0000
,
1000
0000
0010
0000
,
0100
0100
1000
0000
,
0100
0000
0000
0000
,
0000
0000
0000
0000
,
1001
0000
0000
0000
,
0000
0000
0000
0000
;
#NOTES:
     dance-single:
     :
     Easy:
     6:
     :
0000
0000
0000
0000
,
0000
0000
0000
0000
,
0000
0000
0000
0000
,
0000
0000
0000
0000
,
0000
0000
0000
0000
,
0000
0000
0000
0000
,
0001
0100
0001
0010
,
0001
0100
0001
0000
,
0100
0100
0010
0000
,
0010
0010
1000
0000
,
1000
0010
1000
0100
,
1000
0010
1000
0000
,
0100
0100
0010
0000
,
0010
0010
0001
0000
,
0001
0100
0010
1000
,
0010
0100
0001
0000
,
1000
0100
0010
0001
,
0010
0100
1000
0000
,
0002
0000
0003
0001
,
0100
0010
0110
0000
,
2000
0000
3000
1000
,
0100
0010
0110
0000
,
0001
0100
0001
0100
,
1000
0100
1000
0100
,
0001
0010
0001
0010
,
1000
0010
1000
0010
,
0002
0000
0003
1001
,
2000
0000
3000
1001
,
0020
0000
0030
0110
,
0200
0000
0300
0110
,
0001
0100
0001
0010
,
0100
1000
0010
0000
,
1000
0010
1000
0100
,
0010
0001
0100
0000
,
0001
1000
0100
1000
,
0001
0100
0010
0000
,
1000
0010
0001
0000
,
0001
0010
1000
0000
,
1000
0001
0100
0001
,
1000
0100
0010
0000
,
0001
0010
1000
0000
,
1000
0010
0001
0000
,
1000
0100
0001
0100
,
1000
1000
1000
0000
,
0001
0100
1000
0100
,
0001
0001
0001
0000
,
1001
0000
0000
0000
,
0000
0000
0000
0000
;
#NOTES:
     dance-single:
     :
     Medium:
     11:
     :
0000
0000
0000
0000
,
0000
0000
0000
0000
,
0000
0000
0000
0000
,
0000
0000
0000
0000
,
0000
0000
0000
0000
,
0000
0000
0000
0000
,
0001
0000
0100
0010
0000
0100
0010
0000
,
1000
0010
1000
0000
0001
0100
0001
0000
,
0010
0000
0000
0100
0000
0000
0220
0000
0000
0000
0000
0000
0330
0000
0000
0000
,
1000
0000
0000
0100
0000
0000
0000
0010
0000
0000
0001
0000
0000
0000
0000
0000
,
1000
0000
0010
0100
0000
0010
0100
0000
,
0001
0100
0001
0000
1000
0010
1000
0000
,
0100
0000
0000
0010
0000
0000
0220
0000
0000
0000
0000
0000
0330
0000
0000
0000
,
0001
0000
0000
0010
0000
0000
0000
0100
0000
0000
1000
0000
0000
0000
0000
0000
,
1000
0100
1000
0100
0010
0001
1000
0000
,
0001
0000
0000
0100
0000
0000
2002
0000
0000
0000
0000
0000
3003
0000
0000
0000
,
0001
0100
0001
0100
0010
1000
0001
0000
,
1000
0000
0000
0100
0000
0000
2002
0000
0000
0000
0000
0000
3003
0000
0000
0000
,
0002
0000
0203
0000
0310
1000
0100
1000
,
0010
0100
0110
0000
0001
1000
1001
0000
,
2000
0000
3020
0000
0130
0001
0010
0001
,
0100
0010
0110
0000
1000
0001
1001
0000
,
0002
0000
0203
0000
1300
0100
0001
0000
,
2000
0000
3200
0000
0301
0100
1000
0000
,
0001
0010
0100
1000
0010
0100
0110
0000
,
1000
0100
0010
0001
0100
0010
0110
0000
,
2000
0000
3020
0000
0031
0010
1000
0000
,
0002
0000
0023
0000
1030
0010
0001
0000
,
1000
0100
0010
0001
0100
0010
0110
0000
,
0001
0010
0100
1000
0010
0100
0110
0000
,
1000
0100
1000
0010
0100
0001
0010
0001
,
0101
0100
0110
0010
,
1010
0000
0000
0001
0000
0000
2002
0000
0000
0000
0000
0000
3003
0000
0000
0000
,
1000
0010
0001
0010
1000
0100
0010
0000
,
0001
0010
0001
0100
0010
1000
0100
1000
,
1010
0010
0110
0100
,
0101
0000
0000
1000
0000
0000
2002
0000
0000
0000
0000
0000
3003
0000
0000
0000
,
0001
0100
1000
0100
0001
0010
0100
0000
,
1000
0100
0010
0001
0100
0010
1000
0010
,
0101
0001
0011
0000
1100
1000
1010
0000
,
0100
0000
0000
0010
0000
0000
2002
0000
0000
0000
0000
0000
3003
0000
0000
0000
,
0000
0000
0001
1000
0001
0000
0100
0000
0010
0100
0010
0000
1000
0000
0000
0000
,
1000
0010
0001
0010
1000
0100
0010
0000
,
0001
0010
0100
1000
0010
0100
0001
0100
,
1010
1000
1100
0000
0011
0001
0101
0000
,
1000
0000
0000
0010
0000
0000
0100
0000
0001
1000
0001
0000
1000
0000
0000
0000
,
1001
0000
0000
0000
,
0000
0000
0000
0000
;
#NOTES:
     dance-single:
     :
     Hard:
     14:
     :
0000
0000
0000
0000
,
0000
0000
0000
0000
,
0000
0000
0000
0000
,
0000
0000
0000
0000
,
0000
0000
0000
0000
,
0000
0000
0000
0000
0000
0000
1000
0100
,
0011
0001
1000
2002
0000
3003
1000
0100
,
1100
0101
1100
0110
,
0001
0000
0100
0010
0000
0010
2000
0000
0000
0000
0100
0000
3100
0000
0000
0000
,
2000
0000
0000
3100
0001
0000
0000
0001
0000
0100
1000
0000
0001
0000
0001
0000
,
1010
1000
0001
2002
0000
3003
0001
0100
,
0101
1100
0101
0110
,
1000
0000
0100
0010
0000
0010
0002
0000
0000
0000
0100
0000
0103
0000
0000
0000
,
0002
0000
0000
0103
1000
0000
0000
2000
0000
0000
3100
0001
1000
0000
0000
0000
,
0001
0000
0100
0010
0100
0000
0010
1000
0010
0000
0000
0000
1000
0000
0100
0000
,
0011
0000
0000
0101
0000
0000
0001
1000
0000
0010
0100
0001
1000
0000
0000
0000
,
1000
0000
0010
0100
0010
0000
0100
0001
0100
0000
0000
0000
0001
0000
0010
0000
,
1100
0000
0000
1010
0000
0000
1000
0001
0000
0100
0010
0000
1000
0001
1000
0000
,
0010
0000
1000
0001
0010
0000
0001
1000
0010
0000
0100
0000
1000
0000
0100
0000
,
0101
0000
0001
0000
1001
0000
1000
0001
0000
0000
0100
0000
0010
0000
0010
0000
,
0100
0000
0001
1000
0100
0000
1000
0001
0100
0000
0010
0000
0001
0000
0010
0000
,
1010
0000
1000
0000
1001
0000
0000
0000
0001
0010
0001
0000
1000
0100
1000
0100
,
2000
0000
3100
0010
0002
0000
0103
0010
,
2000
0000
0000
0000
3001
0000
0010
0000
0200
0000
0000
0000
1300
0000
0001
0010
,
0002
0000
0103
1000
0200
0000
0301
0010
,
2000
0000
0000
0000
3010
0000
0001
0000
2000
0000
0000
0000
3100
0000
0010
0001
,
1000
0000
0010
0100
0010
0000
1000
0000
0100
0000
0010
0001
0010
0000
0001
0000
,
1000
0000
0010
0100
0010
0000
1000
0000
0001
0000
1000
0100
1000
0000
0010
0100
,
0001
0000
1000
0100
0010
0000
0001
0000
1000
0000
0010
0100
0001
0000
1000
0000
,
0200
0000
0020
0330
,
0001
0000
1000
0010
0100
0000
0010
0000
1000
0000
0100
0010
0001
0000
0100
0000
,
1010
1100
0011
0101
,
0001
0000
0010
1000
0000
0010
0001
0000
1000
0000
0100
0010
0100
0000
1000
0000
,
0001
0000
0100
0010
0100
0001
1000
0000
0100
0010
0100
1000
0001
0000
0000
0000
,
1000
0000
0001
0100
0010
0000
0100
0000
0001
0000
0010
0100
1000
0000
0010
0000
,
0101
0011
1100
1010
,
1000
0000
0100
0001
0000
0100
1000
0000
0001
0000
0010
0100
0010
0000
0001
0000
,
1000
0000
0010
0100
0010
1000
0001
0000
0010
0100
0010
0001
1000
0000
0000
0000
,
0001
0000
0100
1000
0001
0000
0010
0000
1000
0000
0100
0010
0001
1000
0001
0000
,
1000
0000
0100
0001
1000
0000
0010
0000
0001
0000
0100
0010
1000
0001
1000
0000
,
0001
0000
0100
1000
0000
0100
0001
0000
1000
0000
0001
0010
0100
0000
1000
0000
,
0000
0000
0001
0100
0010
1000
0100
0000
0010
0001
0100
0010
1000
0000
0000
0000
,
1000
0000
0010
0001
1000
0000
0100
0000
0001
0000
0010
0100
1000
0001
1000
0000
,
0001
0000
0010
1000
0001
0000
0100
0000
1000
0000
0010
0100
0001
1000
0001
0000
,
1000
0000
0010
0001
0000
0010
1000
0000
0001
0000
1000
0100
0010
0000
0001
0000
,
1001
0000
1000
0010
0100
0001
0100
0001
1000
0100
0010
0001
0010
0100
1000
0000
,
1001
0000
0000
0000
,
0000
0000
0000
0000
;
#NOTES:
     dance-double:
     :
     Easy:
     6:
     :
00000000
00000000
00000000
00000000
,
00000000
00000000
00000000
00000000
,
00000000
00000000
00000000
00000000
,
00000000
00000000
00000000
00000000
,
00000000
00000000
00000000
00000000
,
00000000
00000000
00000000
00000000
,
00000001
00000100
00000010
00000010
,
00001000
00000001
00001000
00000000
,
00000001
00000100
00001000
00000000
,
00001000
00010000
00001000
00000000
,
00001000
01000000
00010000
00010000
,
00100000
01000000
10000000
00000000
,
10000000
01000000
00010000
00000000
,
00010000
00001000
00010000
00000000
,
00010000
00001000
00010000
00000010
,
00001000
00000010
00000100
00000000
,
00000001
00000100
00000001
00000010
,
00000100
00001000
00000100
00000000
,
00000200
00000000
00000000
00000000
,
00010300
00001000
00010000
00001000
,
02000000
00000000
00000000
00000000
,
03001000
00010000
00011000
00000000
,
00001000
00010000
00100000
00100000
,
00010000
00001000
00010000
00000000
,
00010000
00001000
00000010
00000010
,
00001000
00010000
00001000
00000000
,
00001000
00010000
00100000
00000000
,
00100000
10000000
00010000
00000000
,
10000000
01000000
00010000
00000000
,
00010000
00001000
00010000
00000000
,
00001000
00010000
00000010
00001000
,
00000010
00001000
00000100
00000000
,
00000010
00000000
00000100
00000000
,
00000010
00000100
00000110
00000000
,
00000001
00000100
00000010
00001000
,
00000010
00010000
00001000
00000000
,
00100000
00000000
01000000
00000000
,
00100000
01000000
01100000
00000000
,
10000000
01000000
10000000
01000000
,
00100000
00001000
00010000
00000000
,
00001000
00010000
00000100
00000000
,
00000100
00001000
00000010
00000000
,
00001000
00000001
00001000
00000001
,
00000100
00000010
00001000
00000000
,
00000100
00010000
00001000
00000000
,
00001000
00010000
00001000
00000000
,
00011000
00000000
00000000
00000000
,
00000000
00000000
00000000
00000000
;
#NOTES:
     dance-double:
     :
     Medium:
     11:
     :
00000000
00000000
00000000
00000000
,
00000000
00000000
00000000
00000000
,
00000000
00000000
00000000
00000000
,
00000000
00000000
00000000
00000000
,
00000000
00000000
00000000
00000000
,
00000000
00000000
00000000
00000000
,
00000001
00000000
00000010
00000000
00000001
00000100
00000010
00000000
,
00001000
00000010
00001000
00000000
00000100
00010000
00000100
00000000
,
00010000
00000000
00000000
00001000
00000000
00000000
00022000
00000000
00000000
00000000
00000000
00000000
00033000
00000000
00000000
00000000
,
00001000
00000000
00000000
01000000
00000000
00000000
00000000
00010000
00000000
00000000
01000000
00000000
00000000
00000000
00000000
00000000
,
00100000
00000000
10000000
00000000
01000000
00100000
01000000
00000000
,
00100000
00001000
00100000
00000000
00001000
00010000
00001000
00000000
,
00010000
00000000
00000000
00000100
00000000
00000000
00000220
00000000
00000000
00000000
00000000
00000000
00000330
00000000
00000000
00000000
,
00000001
00000000
00000000
00000010
00000000
00000000
00000000
00000001
00000000
00000000
00000100
00000000
00000000
00000000
00000000
00000000
,
00000001
00000010
00000001
00000010
00000100
00001000
00000100
00000000
,
00010000
00000000
00000000
00001000
00000000
00000000
00022000
00000000
00000000
00000000
00000000
00000000
00033000
00000000
00000000
00000000
,
00010000
00001000
00010000
00001000
01000000
00010000
00100000
00000000
,
01000000
00000000
00000000
10000000
00000000
00000000
20020000
00000000
00000000
00000000
00000000
00000000
30030000
00000000
00000000
00000000
,
20000000
00000000
30200000
00000000
00310000
00100000
10000000
00000000
,
00010000
00100000
00001000
00000000
00010000
00000100
00001000
00000000
,
00000002
00000000
00000023
00000000
00001030
00000010
00000001
00000000
,
00000100
00000010
00010000
00000000
00001000
00010000
00001000
00000000
,
00010000
00000000
01000000
00000000
10000000
01000000
00010000
00000000
,
00001000
00000000
00000100
00000000
00000001
00000100
00001000
00000000
,
00010000
00100000
01000000
00100000
00010000
00001000
00010000
00000000
,
00001000
00000010
00000100
00000010
00001000
00010000
00001000
00000000
,
00001000
00000000
00000010
00000000
00000001
00000010
00001000
00000000
,
00010000
00000000
00100000
00000000
10000000
00100000
00010000
00000000
,
00001000
00000100
00000010
00000100
00001000
00010000
00001000
00000000
,
00010000
01000000
00100000
01000000
00010000
00001000
00010000
00000000
,
00001000
00000010
00000001
00001000
00000100
00000010
00000001
00000000
,
00000011
00000001
00001100
00001000
,
00000100
00000000
00000000
00010000
00000000
00000000
00022000
00000000
00000000
00000000
00000000
00000000
00033000
00000000
00000000
00000000
,
00001000
00010000
00100000
01000000
00010000
00100000
01000000
00000000
,
10000000
01000000
00100000
00010000
01000000
00100000
10000000
00000000
,
11000000
01000000
00110000
00100000
,
00001000
00000000
00000000
00010000
00000000
00000000
00022000
00000000
00000000
00000000
00000000
00000000
00033000
00000000
00000000
00000000
,
00001000
00010000
00000100
00001000
00000010
00000100
00000001
00000000
,
00000001
00000010
00000001
00000100
00000010
00010000
00001000
00000010
,
00001000
00010000
00011000
00000000
00001000
01000000
01010000
00000000
,
00100000
00000000
00000000
01000000
00000000
00000000
20020000
00000000
00000000
00000000
00000000
00000000
30030000
00000000
00000000
00000000
,
00000000
00000000
10000000
01000000
10000000
00000000
00010000
00000000
01000000
00100000
01000000
00000000
00010000
00000000
00000000
00000000
,
10000000
01000000
10000000
00100000
01000000
00001000
00010000
01000000
,
00010000
00001000
00011000
00000000
00010000
00000010
00001010
00000000
,
00000100
00000000
00000000
00000010
00000000
00000000
00002002
00000000
00000000
00000000
00000000
00000000
00003003
00000000
00000000
00000000
,
00000001
00000000
00000000
00000100
00000000
00000000
00001000
00000000
00010000
00001000
00010000
00000000
00001000
00000000
00000000
00000000
,
00011000
00000000
00000000
00000000
,
00000000
00000000
00000000
00000000
;
#NOTES:
     dance-double:
     :
     Hard:
     14:
     :
00000000
00000000
00000000
00000000
,
00000000
00000000
00000000
00000000
,
00000000
00000000
00000000
00000000
,
00000000
00000000
00000000
00000000
,
00000000
00000000
00000000
00000000
,
00000000
00000000
00000000
00000000
00000000
00000000
00000001
00001000
,
00000001
00000100
00001000
00010000
00000010
00000100
00001000
00010000
,
00100000
10000000
01000000
00000000
00001000
01000000
10000000
00000000
,
01000000
00000000
00100000
00001000
00000000
00001000
00020000
00000000
00000000
00000000
00001000
00000000
00031000
00000000
00000000
00000000
,
00010000
00000000
00000000
00001000
00000010
00000000
00000000
00000001
00000000
00001000
00000001
00000000
00001000
00000000
00001000
00000000
,
00000001
00000100
00001000
00010000
00000100
00000010
00001000
00010000
,
01000000
10000000
00100000
00000000
00001000
00100000
10000000
00000000
,
01000000
00000000
00100000
00001000
00000000
00001000
00020000
00000000
00000000
00000000
00001000
00000000
00031000
00000000
00000000
00000000
,
00001000
00000000
00000000
00010000
00100000
00000000
00000000
10000000
00000000
00000000
01000000
00100000
01000000
00000000
00000000
00000000
,
10000000
00000000
00010000
01000000
00010000
00000000
00100000
00001000
00100000
00000000
00000000
00000000
00001000
00000000
00010000
00000000
,
00000100
00000000
00000000
00000110
00000000
00000000
00000002
00002000
00000000
00000000
00000000
00000000
00003003
00000000
00000000
00000000
,
00000001
00000000
00001000
00000100
00001000
00000000
00000010
00010000
00000010
00000000
00000000
00000000
00010000
00000000
00001000
00000000
,
01000000
00000000
00000000
01100000
00000000
00000000
20000000
00020000
00000000
00000000
00000000
00000000
30030000
00000000
00000000
00000000
,
10000000
00000000
00100000
01000000
00010000
00000000
00100000
01000000
10000000
00000000
00100000
00000000
00010000
00000000
00001000
00000000
,
00001010
00000000
00000010
00000000
00000011
00000000
00000001
00001000
00000000
00000000
00000010
00000000
00000100
00000000
00000100
00000000
,
00000001
00000000
00000010
00000100
00001000
00000000
00000010
00000100
00000001
00000000
00000010
00000000
00001000
00000000
00010000
00000000
,
00110000
00000000
00100000
00000000
10100000
00000000
10000000
00000000
00010000
01000000
00010000
00000000
10000000
00100000
10000000
00100000
,
20000000
00000000
31000000
00010000
00002000
00000000
00103000
00001000
,
00020000
00000000
00030100
00010000
00002000
00000000
00003010
00000001
,
00000200
00000000
00001300
00000100
00000020
00000000
00010030
00001000
,
00020000
00000000
00000000
00000000
01030000
00000000
00010000
00000000
00002000
00000000
00000000
00000000
00013000
00000000
00001000
00010000
,
00001000
00000000
00010000
00100000
10000000
00000000
00010000
00000000
01000000
00000000
00100000
10000000
01000000
00000000
00100000
00000000
,
00001000
00000000
00010000
00001000
00000010
00000000
00000001
00000000
00000100
00000000
00000010
00001000
00000100
00000000
00000010
00000001
,
00000100
00000000
00000001
00001000
00000100
00000000
00000010
00000000
00001000
00000000
00010000
01000000
00100000
00000000
00010000
00000000
,
02000000
00000000
00200000
03300000
,
00100000
00000000
10000000
01000000
00100000
00000000
00010000
00100000
00001000
00000000
00010000
00000010
00001000
00000000
00000000
00000000
,
00001010
00000011
00001100
00000101
,
00000001
00000000
00000100
00000010
00000000
00000100
00002000
00000000
00010000
00000000
00000000
00000000
00000100
00000000
00000000
00000000
,
00013000
00000000
00000100
00001000
00000100
00010000
00000100
00000000
00001000
00000100
00000010
00000100
00001000
00000000
00000001
00000000
,
00000010
00000000
00000001
00000100
00000010
00000000
00001000
00000010
00010000
00000000
00001000
00100000
00010000
00000000
00000000
00000000
,
00110000
10100000
01010000
11000000
,
10000000
00000000
01000000
00100000
00000000
01000000
00020000
00000000
00001000
00000000
00000000
00000000
01000000
00000000
00000000
00000000
,
00031000
00000000
01000000
00010000
01000000
00001000
01000000
00000000
00010000
01000000
00100000
01000000
00010000
00000000
00000000
00000000
,
10000000
00000000
00100000
01000000
00001000
00000000
00010000
01000000
00100000
00000000
00010000
01000000
00100000
00000000
10000000
00000000
,
01000000
01000000
00010000
00010000
00001000
00001000
00000010
00000010
,
00000011
00000000
00000001
00000100
00000000
00001000
00000200
00000000
00000001
00000000
00000000
00000000
00001000
00000000
00000000
00000000
,
00000301
00000000
00000010
00000100
00010000
00001000
00010000
00000000
00001000
00010000
00000010
00000100
00000001
00000000
00000000
00000000
,
00000001
00000000
00000100
00000010
00010000
00000000
00001000
00000010
00000100
00000000
00001000
00000010
00000100
00000000
00000001
00000000
,
00000010
00000010
00001000
00001000
00010000
00010000
01000000
01000000
,
11000000
00000000
10000000
00100000
00000000
00010000
00200000
00000000
10000000
00000000
00000000
00000000
00010000
00000000
00000000
00000000
,
10300000
00000000
01000000
00100000
00001000
00010000
00001000
00000000
00010000
00001000
01000000
00100000
10000000
00010000
10000000
00000000
,
10010000
00000000
00000000
00000000
,
00000000
00000000
00000000
00000000
;
