
//----- song ID: spad -----//
#TITLE:Sparkle Dreams;
#ARTIST:PIKASONIC;
#BANNER:Sparkle Dreams.png;
#BACKGROUND:Sparkle Dreams-bg.png;
#CDTITLE:./CDTitles/DDR A3.png;
#MUSIC:Sparkle Dreams.ogg;
#SAMPLESTART:24;
#SAMPLELENGTH:15;
#BPMS:0=180;
#STAGE:16;
#NOTES:
     dance-single:
     :
     Beginner:
     3:
     :
0000
0000
0000
0000
,
0000
0000
0000
0000
,
0000
0000
0000
0000
,
0000
0000
0000
0000
,
0000
0000
0000
0000
,
0000
0000
0000
0000
,
0000
0000
0000
0000
,
0000
0000
0000
0000
,
0000
0000
0000
0000
,
0000
0000
0000
0000
,
0001
0000
0000
0000
,
1000
0000
0000
0000
,
0010
0000
0000
0000
,
0100
0000
0000
0000
,
0010
0000
0000
0000
,
1000
0000
0000
0000
,
0001
0000
0000
0000
,
1001
0000
0000
0000
,
0001
0000
1000
0000
,
0001
0000
0000
0000
,
0100
0000
0010
0000
,
0100
0000
0000
0000
,
0001
0000
1000
0000
,
0001
0000
0000
0000
,
0010
0000
0100
0000
,
0010
0000
0000
0000
,
0001
0000
1000
0000
,
0010
0000
0000
0000
,
1000
0000
0001
0000
,
0100
0000
0000
0000
,
0001
0000
1000
0000
,
0010
0000
0000
0000
,
0100
0000
0001
0000
,
1000
0000
0000
0000
,
0002
0000
0000
0000
,
0003
0000
0000
0000
,
0200
0000
0000
0000
,
0300
0000
0000
0000
,
0020
0000
0000
0000
,
0030
0000
0000
0000
,
2000
0000
0000
0000
,
3000
0000
0000
0000
,
0001
0000
0001
0000
,
0001
0000
0000
0000
,
1000
0000
1000
0000
,
1000
0000
0000
0000
,
0010
0000
0010
0000
,
0010
0000
0000
0000
,
0100
0000
0100
0000
,
0100
0000
0000
0000
,
0001
0000
1000
0000
,
0010
0000
0000
0000
,
0010
0000
1000
0000
,
0001
0000
0000
0000
,
1000
0000
0001
0000
,
0100
0000
0000
0000
,
0100
0000
0001
0000
,
1000
0000
0000
0000
,
0001
0000
0001
0000
,
0100
0000
0010
0000
,
1000
0000
1000
0000
,
0010
0000
0100
0000
,
0001
0000
0001
0000
,
1000
0000
1000
0000
,
0010
0000
0000
0000
,
2002
0000
0000
0000
,
3003
0000
0000
0000
,
0001
0000
0000
0000
,
0100
0000
0000
0000
,
0010
0000
0000
0000
,
1000
0000
0000
0000
,
0001
0000
0000
0000
,
0010
0000
0000
0000
,
0100
0000
0000
0000
,
1000
0000
0000
0000
,
1000
0000
0000
0000
,
0001
0000
0000
0000
,
0001
0000
0000
0000
,
0100
0000
0000
0000
,
0100
0000
0000
0000
,
0010
0000
0000
0000
,
0010
0000
0000
0000
,
2000
0000
0000
0000
,
0000
0000
0000
0000
,
3000
0000
0000
0000
,
0000
0000
0000
0000
;
#NOTES:
     dance-single:
     :
     Easy:
     8:
     :
0000
0000
0000
0000
,
0000
0000
0000
0000
,
0000
0000
0000
0000
,
0000
0000
0000
0000
,
0000
0000
0000
0000
,
0000
0000
0000
0000
,
0000
0000
0000
0000
,
0000
0000
0000
0000
,
0000
0000
0000
0000
,
0000
0000
0000
0000
,
1000
0001
0100
0100
,
0001
1000
0010
0010
,
1000
0100
0010
0100
,
1000
0010
0001
0010
,
1000
1000
0001
0001
,
0100
0100
0010
0010
,
0100
0010
0100
0000
0001
1000
0001
0000
,
0100
0100
0001
1001
,
1000
0001
0010
0001
,
1000
0000
0010
0100
0010
0000
0010
0000
,
1000
0010
1000
0001
,
1000
0100
0010
0000
0001
0000
0011
0000
,
1000
0010
1000
0001
,
0100
0000
0100
0010
0100
0000
0001
0000
,
1000
0100
1000
0010
,
1000
0000
0001
0001
0001
0000
0110
0000
,
0001
1000
0100
1000
,
0001
0000
0001
0010
0001
0000
1000
0000
,
0010
0100
0001
1000
,
0001
0010
0100
0000
1000
0000
1100
0000
,
0001
0100
0010
0100
,
0001
0010
0100
1000
,
0001
0001
0001
0000
1000
1000
1000
0000
,
0001
0101
1000
1100
,
0002
0000
0000
0003
,
0200
0000
0000
0300
,
0020
0000
0000
0030
,
2000
0000
0000
3000
,
0002
0000
0000
0003
,
2000
0000
0000
3000
,
0200
0000
0000
0300
,
0020
0000
0000
0030
,
0001
0001
0011
0011
,
1000
1000
1100
1100
,
0001
0001
0101
0101
,
1000
1000
1010
1010
,
0001
0001
1000
0100
,
0010
0001
1000
0010
,
0100
0001
0100
0000
0010
1000
0010
0000
,
0100
0100
0001
1001
,
1000
1100
0010
0001
,
0100
0110
0001
1000
,
0010
0110
1000
0001
,
0100
1010
0010
0100
,
0001
0011
1000
0100
,
1000
1010
0001
0100
,
0001
0000
0011
0000
1000
0000
0010
0100
,
0000
0100
0000
0100
0000
0100
0010
0000
,
1000
0001
0100
0010
,
0100
0101
1001
1100
,
0100
0010
0001
0100
,
0010
1010
1001
0011
,
0010
0100
1000
0001
,
0100
0010
0100
0001
,
1000
0100
1000
0000
0001
0010
0001
0000
,
1000
0010
0100
0110
,
1002
0000
0013
0000
,
0020
0000
0130
0000
,
0200
0000
1300
0000
,
2000
0000
3010
0000
,
0020
0000
0130
0000
,
0200
0000
0301
0000
,
0002
0000
1003
0000
,
2000
0000
3001
0000
,
0002
0000
0000
0000
,
0200
0000
0003
0000
,
0020
0000
0300
0000
,
2000
0000
0030
0000
,
0002
0000
3000
0000
,
0020
0000
0003
0000
,
0200
0000
0030
0000
,
2000
0000
0300
0000
,
0002
0000
0000
0000
,
3000
0000
0000
0000
,
0003
0000
0000
0000
,
0000
0000
0000
0000
;
#NOTES:
     dance-single:
     :
     Medium:
     13:
     :
0000
0000
0000
0000
,
0000
0000
0000
0000
,
0000
0000
0000
0000
,
0000
0000
0000
0000
,
0000
0000
0000
0000
,
0000
0000
0000
0000
,
0000
0000
0000
0000
,
0000
0000
0000
0000
,
0000
0000
0000
0000
,
0000
0000
0000
0000
,
0001
1000
0020
0100
0000
1030
0020
0100
,
0000
1030
0001
0010
0100
1000
0001
0200
,
0000
0010
0000
0301
0010
0100
0020
0001
,
0000
0130
0010
0001
1000
0010
1000
0100
,
0010
0001
0010
0001
1000
0010
1000
0010
,
0100
0001
0010
0001
1000
0010
0100
0001
,
1000
0100
1000
0000
0100
0010
0100
0000
0010
0001
0010
0000
0001
0000
0000
0000
,
0200
0300
0200
0300
0002
0003
1001
0000
,
1000
0100
0010
0100
1000
0010
0100
0010
,
1000
0100
1000
0010
1000
0100
1000
0010
,
0100
0001
0010
0100
0010
0001
0100
0010
,
0100
0001
1000
0100
0001
0100
1000
0001
,
0100
0010
0100
0001
0010
0001
0100
0010
,
0100
0001
0010
0001
0100
0001
0010
0001
,
1000
0100
1000
0010
0100
0010
1000
0100
,
1000
1000
0001
0100
0100
0010
1001
0000
,
0001
0100
0010
0100
0001
1000
0001
0010
,
0100
1000
0010
1000
0100
1000
0010
0100
,
0001
0010
0100
1000
0100
0010
0001
1000
,
0010
0100
0001
0010
1000
0010
0001
0100
,
0010
1000
0001
1000
0100
0010
0001
1000
,
0001
0100
0010
0100
0001
0010
0100
1000
,
0010
1000
1000
0100
1000
1000
0010
0100
,
0001
0010
0011
0000
1000
0010
1010
0000
,
2001
0000
0000
0000
,
3200
0000
0000
0000
,
0320
0000
0000
0000
,
0032
0000
2003
0000
,
3002
0000
0000
0000
,
0203
0000
0000
0000
,
0320
0000
0000
0000
,
1030
0100
0010
0001
1000
0100
0010
0001
,
1000
1000
0001
0001
0100
0100
0010
0010
,
0100
0100
0001
0001
0010
0010
0100
0100
,
1000
1000
0010
0010
0100
0100
0010
0010
,
1000
1000
0100
0100
0010
0010
0001
0001
,
1000
0010
0100
0001
1000
0100
1000
0001
,
0100
0010
0100
0001
1000
0100
0010
0001
,
1000
0010
1000
0000
0010
0100
0010
0000
0100
0001
0100
0000
0001
0000
0000
0000
,
0200
0300
0200
0300
0002
0003
1001
0000
,
1000
0001
0200
0010
0000
0301
0200
0010
,
0000
0301
0100
0010
0000
0100
0001
0010
,
0001
1000
0200
0010
0000
1300
0200
0001
,
0000
1300
0010
0100
0001
0100
0010
1000
,
0000
0001
0200
0010
0000
0301
0200
1000
,
0000
0301
0010
0100
0010
0001
1000
0010
,
0100
0010
1000
0001
0010
0100
2000
0010
,
0000
0001
0000
3100
0000
0001
0010
0100
,
0000
1000
0020
0001
0000
1030
0020
0001
,
0000
1030
0010
0100
0001
0010
0100
1000
,
0000
0001
0000
0100
0010
0100
0001
1000
,
0000
0010
1000
0100
0001
0100
1000
0010
,
0100
0002
0010
0000
0103
0001
0010
0100
,
0000
1000
0010
0100
0010
1000
0100
1000
,
0001
0100
0001
0100
0010
1000
0010
1000
,
0001
0010
1000
0010
0001
0100
1000
0100
,
0002
0023
0230
2300
,
3002
0203
0320
0230
,
0302
0023
0230
2300
,
3001
0100
0001
0010
0100
1000
0001
0000
,
2000
3020
0230
0302
,
2003
3002
0023
0230
,
0302
0203
2300
3020
,
0032
0023
0230
0302
,
2003
3200
0320
0032
,
0023
0000
0130
1000
0020
0000
0230
0000
,
0302
2003
3020
2030
,
3001
0010
0100
1000
0100
0010
0002
0000
,
2003
3020
0230
0302
,
0203
0320
2030
3002
,
0023
0030
0200
0300
,
1000
0001
0100
0001
0010
0100
1000
0000
,
2002
0000
0000
0000
,
3000
0000
0000
0000
,
0003
0000
0000
0000
,
0000
0000
0000
0000
;
#NOTES:
     dance-single:
     :
     Hard:
     17:
     :
0000
0000
0000
0000
,
0000
0000
0000
0000
,
0000
0000
0000
0000
,
0000
0000
0000
0000
,
0000
0000
0000
0000
,
0000
0000
0000
0000
,
0000
0000
0000
0000
,
0000
0000
0000
0000
,
0000
0000
0000
0000
,
0000
0000
0000
0000
,
1000
0100
0010
0100
1000
0010
0100
0010
,
1000
0100
0010
0001
0100
0001
0010
0100
,
1000
0001
0100
0010
0100
0001
1000
0100
,
0010
0100
1000
0010
0001
0010
1000
0100
,
1100
1000
1010
0010
0110
0100
0101
0001
,
0011
0010
0110
0100
1100
1000
1001
0001
,
1000
0010
1000
0001
0010
0100
1000
0010
1000
0001
0100
0001
0010
0100
1000
0010
,
0200
0300
0201
0300
1002
0013
1001
0000
,
0001
0000
0100
0000
0010
0000
1000
0100
0010
0000
0001
0000
0100
0000
0001
0010
,
0100
0000
1000
0000
0010
0000
1000
0001
0100
0000
0010
0000
0100
0000
0001
1000
,
0100
0000
1000
0000
0010
0000
0100
0001
1000
0000
0100
0000
0010
0000
0001
1000
,
0001
0100
0001
0010
1000
0010
0001
0100
,
0001
0000
1000
0000
0100
0000
1000
0010
0100
0000
0001
0000
1000
0000
0001
0010
,
0100
0000
1000
0000
0001
0000
0100
0001
0010
0000
0001
0000
1000
0000
0100
1000
,
0010
1000
0001
0010
0100
1000
0001
1000
,
0101
0000
1010
0000
0001
0000
1100
0000
0011
0000
1000
0000
1001
0000
0001
0010
,
0100
0000
1000
0000
0001
0000
0100
0010
1000
0000
0001
0000
0010
0000
0001
0100
,
0010
0000
1000
0000
0100
0000
1000
0010
0100
0000
0001
0000
0010
0000
0100
1000
,
0010
0000
1000
0000
0100
0000
1000
0010
0100
0000
0010
0000
1000
0000
0100
1000
,
0010
0100
0001
0010
1000
0010
0001
0100
,
0010
0000
1000
0000
0001
0000
0010
0100
1000
0000
0010
0000
0100
0000
0001
0010
,
0100
0000
1000
0000
0010
0000
0100
0001
1000
0000
0100
0000
0010
0000
0001
1000
,
0010
0000
0110
0000
1010
0000
1000
0001
0010
0000
0011
0000
0001
1000
0010
0000
,
0010
0000
0110
0000
0010
0000
1010
0000
0010
0000
0011
0000
0110
0000
0100
0001
,
2000
3020
0230
0302
,
0023
0000
0031
1000
0020
0000
0230
0000
,
0302
0023
0230
2300
,
3010
0100
0001
0010
0001
1000
0200
0000
,
2300
3020
0032
0023
,
0230
0302
2003
3200
,
0320
0032
0203
0302
,
1003
0100
0010
0001
1000
0010
0100
0001
1000
0100
1000
0010
0100
0001
0010
0001
,
1000
0000
0010
0100
0001
0000
0010
0100
0001
0000
0100
0010
0001
0000
0100
0010
,
0001
0000
1000
0100
0010
0000
1000
0100
0010
0000
1000
0010
0100
0000
1000
0010
,
0100
0000
1000
0100
0010
0000
1000
0100
0010
0000
0100
0010
0001
0000
0100
0010
,
0001
0000
0010
0100
0001
0000
0010
0100
0001
0000
0100
0010
0001
0000
0100
0010
,
0001
1000
0100
0001
0001
0010
1000
0001
,
0100
1000
1000
0010
0100
0001
0010
0100
,
0010
0001
1000
0010
0100
0001
0010
0001
1000
0010
1000
0100
0010
0001
1000
0010
,
0200
0300
0201
0300
1002
0013
1001
0000
,
0011
0000
1001
0000
1000
0010
0100
0000
0101
0000
1001
0000
1000
0100
0010
0000
,
0011
0000
1001
0000
1000
0010
0100
0000
0101
0000
1001
0000
1000
0100
0010
0000
,
0001
0000
1000
0000
0010
0100
0001
0000
1000
0000
0001
0000
0010
0100
1000
0000
,
0001
0000
1000
0000
0100
0000
0010
0000
1000
0010
0001
0000
0100
0000
0001
0000
,
1100
0000
1001
0000
0001
0100
0010
0000
1010
0000
1001
0000
0001
0010
0100
0000
,
1100
0000
1001
0000
0001
0100
0010
0000
1010
0000
1001
0000
0001
0010
0100
0000
,
1000
0000
0010
0000
1000
0001
0100
0000
0001
0000
0010
0000
0100
0000
2100
0000
,
3001
0102
1003
2100
3001
0100
1001
0000
,
1010
0000
0101
0000
0001
0010
0100
0000
1100
0000
0011
0000
0001
0100
0010
0000
,
1010
0000
0101
0000
1000
0100
0010
0000
0011
0000
1100
0000
1000
0010
0100
0000
,
0101
0000
1010
0000
0001
0010
0100
0000
1100
0000
0011
0000
0001
0100
0010
0000
,
2010
0000
3001
0000
0102
0000
1003
0000
0001
0010
0100
0000
1000
0000
0001
0000
,
0011
1100
1001
0010
1001
0101
1001
1100
,
0010
0011
1001
0101
0110
1010
1001
0100
,
0001
0010
1000
0000
0010
0000
0001
0100
1000
0000
0100
0000
0001
0010
1000
0000
,
0010
0001
1000
0100
1000
0010
1000
0001
0100
0001
0010
0001
1000
0010
0100
0001
,
2000
3002
0203
0302
,
2003
0000
3010
1000
0200
0000
0320
0000
,
0032
0000
2003
0000
3002
0000
0103
0001
,
0010
0100
1000
0010
0001
0010
1000
0100
,
0020
0032
2003
3020
,
0230
0000
0301
0010
2000
0000
3020
0000
,
0032
0203
2300
3200
,
0320
0000
0032
0000
0013
1000
0100
0010
,
0002
1000
0203
1000
,
0320
0001
0001
0000
2030
0000
0100
0000
,
3002
0000
0010
1000
1003
0000
0100
0000
,
1000
0010
1000
0100
0001
0100
1000
0010
,
0200
1000
0302
1000
,
0023
1000
1000
0000
0230
0000
0001
0000
,
2300
0000
0001
0010
3020
0000
0100
0000
,
1030
0000
0001
0000
0100
0000
0010
0000
1000
0100
1000
0000
0010
0000
0100
0000
,
2002
0000
0000
0000
,
0003
0000
0000
0000
,
3000
0000
0000
0000
,
0000
0000
0000
0000
;
#NOTES:
     dance-double:
     :
     Easy:
     7:
     :
00000000
00000000
00000000
00000000
,
00000000
00000000
00000000
00000000
,
00000000
00000000
00000000
00000000
,
00000000
00000000
00000000
00000000
,
00000000
00000000
00000000
00000000
,
00000000
00000000
00000000
00000000
,
00000000
00000000
00000000
00000000
,
00000000
00000000
00000000
00000000
,
00000000
00000000
00000000
00000000
,
00000000
00000000
00000000
00000000
,
00001000
00001000
00010000
00010000
,
00001000
01000000
00100000
10000000
,
00010000
00010000
01000000
01000000
,
00001000
00010000
00000100
00000010
,
00000001
00000001
00001000
00001000
,
00000010
00010000
00001000
00010000
,
00022000
00000000
00000000
00033000
,
01000000
01000000
00010000
10010000
,
10000000
00010000
01000000
00100000
,
10000000
00000000
01000000
00100000
00010000
00000000
00110000
00000000
,
00001000
00010000
00000010
00001000
,
00000001
00000000
00000010
00000100
00001000
00000000
00001100
00000000
,
00010000
00001000
00100000
00010000
,
10000000
00000000
00100000
01000000
00010000
00000000
01010000
00000000
,
00001000
00010000
00000100
00001000
,
00000001
00000100
00000110
00001010
,
00001000
00000001
00000010
00001000
,
00010000
00000000
00001000
00010000
00001000
00000000
00010000
00000000
,
00001000
00010000
00100000
10000000
,
10000000
01000000
00010000
00001000
,
00010000
00001000
00000100
00000001
,
00000010
00000000
00000100
00001000
00000010
00000000
00010000
00000000
,
00011000
00000000
00001000
00000000
00010000
00010000
00010000
00000000
,
00001000
01000000
01100000
20010000
,
00000000
00000000
00000000
30000000
,
02000000
00000000
00000000
03000000
,
00200000
00000000
00000000
00300000
,
00002000
00000000
00000000
00003000
,
00020000
00000000
00000000
00030000
,
00000020
00000000
00000000
00000030
,
00000200
00000000
00000000
00000300
,
00000002
00000000
00000000
00000003
,
00000010
00000010
00000001
00000001
,
00000100
00000100
00001000
00001000
,
00010000
00010000
00001000
00001000
,
01000000
00100000
00100000
10000000
,
01000000
11000000
00100000
01100000
,
00010000
00110000
00001000
00011000
,
00000100
00001100
00000010
00000110
,
00000100
00000100
00000001
00001001
,
00000001
00000100
00001000
00010000
,
01000000
10000000
00100000
10000000
,
01000000
00010000
00001000
00000100
,
00000001
00000010
00000100
00001000
,
00000001
00000010
00001000
00010000
,
00100000
10000000
01000000
10000000
,
00100000
00000000
00010000
00000000
00001000
00000000
00010000
00000100
,
00000000
00001000
00000000
00001000
00000000
00001000
00000010
00000000
,
00000100
00000101
00000100
00010100
,
00000100
00000101
00000100
00010100
,
00000100
00000101
00000001
00000010
,
00000100
00001100
00010010
00001100
,
00010000
00001000
00000100
00000010
,
00001000
00000100
00010000
00000010
,
00000100
00001000
00010000
01000000
,
20000000
30200000
02300000
03020000
,
20030000
00000000
31000000
00000000
,
02000000
00000000
03100000
00000000
,
00200000
00000000
00301000
00000000
,
00001000
00010000
00001000
00000000
00010000
00000000
00000000
00000000
,
00020000
00000000
00030010
00000000
,
00000020
00000000
00000130
00000000
,
00000200
00000000
00000301
00000000
,
00000002
00000000
00001003
00000000
,
00000002
00000000
00000000
00000000
,
00000200
00000000
00000003
00000000
,
00002000
00000000
00000300
00000000
,
00020000
00000000
00003000
00000000
,
00200000
00000000
00030000
00000000
,
20000000
00000000
00300000
00000000
,
00020000
00000000
30000000
00000000
,
00200000
00000000
00030000
00000000
,
02000000
00000000
00000000
00000000
,
00300000
00000000
00000000
00000000
,
03000000
00000000
00000000
00000000
,
00000000
00000000
00000000
00000000
;
#NOTES:
     dance-double:
     :
     Medium:
     13:
     :
00000000
00000000
00000000
00000000
,
00000000
00000000
00000000
00000000
,
00000000
00000000
00000000
00000000
,
00000000
00000000
00000000
00000000
,
00000000
00000000
00000000
00000000
,
00000000
00000000
00000000
00000000
,
00000000
00000000
00000000
00000000
,
00000000
00000000
00000000
00000000
,
00000000
00000000
00000000
00000000
,
00000000
00000000
00000000
00000000
,
00001000
00010000
00000100
00001000
00000000
00000010
00010000
00001000
,
00000000
01000000
00010000
00100000
00001000
00010000
00001000
01000000
,
00000000
00010000
00000000
00100000
00010000
00100000
00001000
00010000
,
00000000
00000100
00001000
00000010
00010000
00001000
00000100
00000010
,
00001000
00000001
00001000
00000000
00000001
00000010
00000100
00001000
,
00000000
00000010
00000100
00001000
00010000
01000000
10000000
00200000
,
00000000
00000000
00000000
00300000
,
02000000
03000000
02000000
03000000
00020000
00030000
10010000
00000000
,
10000000
01000000
10000000
01000000
00100000
00010000
01000000
00100000
,
00010000
00001000
00010000
00001000
00010000
00000100
00000010
00000000
,
00000001
00000100
00000001
00000100
00000010
00001000
00000100
00000010
,
00000001
00000100
00001000
00010000
00001000
00010000
01000000
00000000
,
10000000
00100000
10000000
00100000
01000000
00010000
10000000
01000000
,
00010000
00001000
00010000
00001000
00000100
00000010
00001000
00000000
,
00000001
00000100
00000001
00000100
00001000
00010000
00001000
00010000
,
01000000
10000000
01000000
10000000
00010000
01000000
01100000
00000000
,
00001000
01000000
00001000
00010000
00001000
00000010
00001000
00010000
,
00001000
01000000
00001000
00010000
00001000
00000100
00001000
00000000
,
00010000
00000100
00001000
00000010
00010000
00001000
00010000
00000000
,
00010000
00001000
00000100
00000001
00000010
00001000
00010000
00000000
,
00000010
00010000
00001000
00010000
01000000
00010000
00001000
00010000
,
00000100
00010000
00001000
00010000
00100000
00010000
00001000
00000000
,
00010000
00001000
00001000
01000000
00010000
00010000
00100000
00010000
,
00010000
10000000
00100000
01000000
00001000
00010000
00000100
00000010
,
00000002
00000000
00000000
00000000
,
00000203
00000000
00000000
00000000
,
00002300
00000000
00000000
00000000
,
00023000
00000000
00000000
00000000
,
02030000
00000000
00000000
00000000
,
23000000
00000000
00000000
00000000
,
30020000
00000000
00000000
00000000
,
10030000
00100000
01000000
00010000
10000000
01000000
00100000
00010000
,
10000000
10000000
01000000
01000000
00100000
00100000
00010000
00010000
,
01000000
01000000
00001000
00001000
00010000
00010000
00000100
00000100
,
00001000
00001000
00000010
00000010
00010000
00010000
00001000
00001000
,
00000010
00000010
00000001
00000001
00000100
00000100
00000010
00000010
,
00010000
00001000
00010000
00001000
00010000
00001000
00000010
00000100
,
00010000
00001000
00010000
00001000
00010000
00001000
00000100
00000010
,
00010000
00001000
00000010
00000100
00010000
00001000
00000100
00000010
,
00000200
00000300
00000200
00000300
00000002
00000003
00001001
00000000
,
00000001
00000100
00000010
00001000
00000100
00000010
00001000
00010000
,
00001000
00000100
00000010
00001000
00000100
00010000
00001000
00010000
,
01000000
00100000
00001000
00010000
00100000
00010000
00100000
10000000
,
01000000
00010000
00001000
00000010
00000100
00001000
00000010
00010000
,
00001000
00010000
00100000
10000000
01000000
00100000
10000000
00100000
,
00010000
01000000
00001000
00010000
00100000
10000000
01000000
00010000
,
00001000
00000100
00000001
00000010
00001000
00000010
00000001
00000100
,
00000000
00000100
00000000
00000010
00000000
00001000
00001001
00000000
,
00000001
00000010
00001000
00000010
00000001
00000100
00001000
00010000
,
01000000
10000000
00100000
01000000
00010000
10000000
01000000
00010000
,
00001000
00000100
00000001
00000010
00000100
00001000
00000001
00000100
,
00001000
00010000
00001000
00000100
00000001
00000010
00001000
00010000
,
00001000
00010000
00100000
10000000
01000000
00010000
00001000
00010000
,
01000000
10000000
00100000
01000000
00001000
00010000
00001000
00000100
,
00000001
00000010
00000001
00000100
00001000
00010000
01000000
10000000
,
01000000
10000000
00100000
00010000
00001000
00000010
00000001
00000100
,
00000020
00000230
00000302
00000023
,
00000230
00002300
00003020
00020030
,
00032000
02003000
03020000
00230000
,
02300000
23000000
32000000
03200000
,
00320000
02030000
03200000
00320000
,
00032000
00023000
02030000
03200000
,
00320000
02030000
03002000
00023000
,
00032000
00003200
00000320
00020030
,
00032000
00003020
00000032
00000203
,
00002300
00023000
00230000
02300000
,
03020000
00230000
00302000
00023000
,
00032000
00003020
00000032
00000203
,
00000320
00000032
00000023
00002030
,
00003200
00020300
00032000
00003020
,
00000032
00000203
00002300
00023000
,
02030000
23000000
30200000
20300000
,
00020000
00000000
00000000
00000000
,
30000000
00000000
00000000
00000000
,
00030000
00000000
00000000
00000000
,
00000000
00000000
00000000
00000000
;
#NOTES:
     dance-double:
     :
     Hard:
     17:
     :
00000000
00000000
00000000
00000000
,
00000000
00000000
00000000
00000000
,
00000000
00000000
00000000
00000000
,
00000000
00000000
00000000
00000000
,
00000000
00000000
00000000
00000000
,
00000000
00000000
00000000
00000000
,
00000000
00000000
00000000
00000000
,
00000000
00000000
00000000
00000000
,
00000000
00000000
00000000
00000000
,
00000000
00000000
00000000
00000000
,
00010000
00001000
00000100
00000010
00010000
00001000
00000010
00000100
,
00010000
00001000
00000100
00000001
00000001
00000010
00001000
00010000
,
00001000
00010000
00100000
01000000
00001000
00010000
01000000
00100000
,
00001000
00010000
00100000
10000000
10000000
01000000
00010000
00001000
,
00010000
00000100
00000010
00001000
00000010
00000100
00010000
00001000
,
00000100
00010000
00000100
00001000
00010000
00001000
00100000
00010000
,
01000000
00001000
00010000
00001000
00100000
00010000
10000000
01000000
10000000
00100000
01000000
00010000
00100000
00010000
10000000
00100000
,
02000000
03000000
02010000
03000000
00120000
00030000
10010000
00000000
,
10000000
00000000
00100000
00000000
00010000
00000000
00001000
00010000
00001000
00000000
00000010
00000000
00001000
00000000
00000001
00000000
,
00000100
00000000
00000010
00000000
00001000
00000000
00010000
00001000
00010000
00000000
00100000
00000000
00010000
00000000
10000000
00000000
,
01000000
00000000
00100000
00000000
00010000
00000000
00001000
00010000
00001000
00000000
00000010
00000000
00000001
00000000
00000010
00000000
,
00001000
00010000
00100000
10000000
01000000
00010000
00001000
00010000
,
00001000
00000000
00000100
00000000
00001000
00000000
00000001
00000000
00000010
00000000
00000100
00000000
00001000
00000000
00010000
00001000
,
00010000
00000000
01000000
00000000
00010000
00000000
10000000
00000000
00100000
00000000
01000000
00000000
00010000
00000000
00001000
00010000
,
00001000
00000000
00000100
00000000
00001000
00000000
00000001
00000000
00000010
00000000
00000100
00000000
00001000
00000000
00010000
00001000
,
00010000
00000000
00000100
00000000
00001000
00000000
00001000
00000000
00000010
00000000
00010000
00000000
00011000
00000000
00001000
01000000
,
00100000
00000000
00010000
00000000
00001000
00000000
00000100
00000010
00001000
00000000
00000010
00000000
00010000
00000000
00001000
00000010
,
00000001
00000000
00001000
00000000
00000001
00000000
00000100
00001000
00010000
00000000
00001000
00000000
00100000
00000000
01000000
10000000
,
00010000
00000000
01000000
00000000
00100000
00000000
01000000
00010000
10000000
00000000
01000000
00000000
00100000
00000000
00001000
00000000
,
00010000
01000000
10000000
00100000
00010000
00001000
00000010
00000001
,
00001000
00000000
00000001
00000000
00000100
00000000
00000010
00001000
00000001
00000000
00000010
00000000
00000100
00000000
00001000
00000001
,
00000100
00000000
00000010
00000000
00010000
00000000
00001000
01000000
00100000
00000000
01000000
00000000
00010000
00000000
10000000
00010000
,
10000000
01000000
01100000
00010000
00001000
00011000
00000100
00000010
,
00000110
00000000
00001000
00000000
00001100
00000000
00010000
00000000
00011000
00000000
00100000
00000000
00110000
00000000
00001000
00010000
,
00002000
00023000
02030000
03020000
,
00032000
00023000
00230000
00320000
,
00032000
00023000
02030000
03020000
,
00031000
00010000
00100000
01000000
00001000
00010000
00001000
00000100
,
00002000
00023000
00032000
00003020
,
00002030
00023000
00032000
00003200
,
00002300
00000000
00000000
00000000
00000000
00000000
00000000
00000000
00000000
00000000
00000000
00000000
00000000
00000000
00000000
00000000
00000000
00000000
00000000
00000000
00000000
00000000
00000000
00000000
00000000
00000000
00000000
00000000
00000000
00000000
00000000
00000000
00000000
00000000
00000000
00000000
00000000
00000000
00000000
00000000
00000000
00000000
00000000
00000000
00000000
00000000
00000000
00000000
00023000
00000000
00000000
00000000
00000000
00000000
00000000
00000000
00000000
00000000
00000000
00000000
00000000
00000000
00000000
00000000
00000000
00000000
00000000
00000000
00000000
00000000
00000000
00000000
00000000
00000000
00000000
00000000
00000000
00000000
00000000
00000000
00000000
00000000
00000000
00000000
00000000
00000000
00000000
00000000
00000000
00000000
00000000
00000000
00000000
00000000
00000000
00000000
00032000
00000000
00000000
00000000
00000000
00000000
00000000
00000000
00000000
00000000
00000000
00000000
00000000
00000000
00000000
00000000
00000000
00000000
00000000
00000000
00000000
00000000
00000000
00000000
00000000
00000000
00000000
00000000
00000000
00000000
00000000
00000000
00000000
00000000
00000000
00000000
00000000
00000000
00000000
00000000
00000000
00000000
00000000
00000000
00000000
00000000
00000000
00000000
00003020
00000000
00000000
00000000
00000000
00000000
00000000
00000000
00000000
00000000
00000000
00000000
00000000
00000000
00000000
00000000
00000000
00000000
00000000
00000000
00000000
00000000
00000000
00000000
00000000
00000000
00000000
00000000
00000000
00000000
00000000
00000000
00000000
00000000
00000000
00000000
00000000
00000000
00000000
00000000
00000000
00000000
00000000
00000000
00000000
00000000
00000000
00000030
,
00001000
00010000
00001000
00010000
00000100
00001000
00000100
00010000
00001000
00010000
00000010
00001000
00000010
00010000
00001000
00010000
,
00000100
00000000
00010000
00001000
00000010
00000000
00001000
00000010
00000100
00000000
00000010
00000100
00001000
00000000
00000010
00000000
,
00010000
00000000
00001000
00010000
00100000
00000000
00010000
00100000
01000000
00000000
00100000
01000000
00010000
00000000
00100000
00000000
,
00001000
00000000
01000000
00010000
00100000
00000000
00010000
00100000
01000000
00000000
00100000
01000000
00010000
00000000
00001000
00000000
,
00010000
00000000
00000100
00001000
00000010
00000000
00001000
00000010
00000100
00000000
00000010
00000100
00001000
00000000
00010000
00000000
,
00001000
00010000
01000000
10000000
00100000
10000000
01000000
00010000
,
00001000
00010000
00000010
00000100
00001000
00010000
00001000
00000000
,
00010000
00001000
00010000
00001000
01000000
00010000
01000000
00001000
00010000
00001000
00100000
00010000
00100000
01000000
10000000
00010000
,
02000000
03000000
02100000
03000000
10020000
00030000
00110000
00000000
,
00001000
00000000
00010000
00001000
00010000
00000000
00000100
00000000
00001000
00000000
00010000
00001000
00010000
00000000
00000010
00000000
,
00000100
00000000
00010000
00001000
00010000
00000000
00000010
00000000
00000100
00000000
00001000
00010000
00001000
00000000
00100000
00000000
,
00010000
00000000
00001000
00010000
00001000
00000000
01000000
00000000
00100000
00000000
00001000
00010000
00001000
00000000
01000000
00000000
,
00100000
00000000
00010000
00001000
00010000
00000000
00001000
00000000
00000100
00000000
00000001
00000000
00000010
00000000
00001000
00000000
,
00010000
00000000
00001000
00010000
00001000
00000000
01000000
00000000
00010000
00000000
00001000
00010000
00001000
00000000
00100000
00000000
,
01000000
00000000
00001000
00010000
00001000
00000000
00100000
00000000
01000000
00000000
00010000
00000000
00001000
00000000
00010000
00000000
,
00001000
00000100
00000010
00001000
00000001
00000011
00000000
00010100
,
00000000
01001000
00000000
10100000
00000000
10000000
01000000
00100000
,
00001000
00000000
00010000
00001000
00010000
00000000
00001000
00000000
00010000
00000000
01000000
00001000
01000000
00000000
00010000
00000000
,
00001000
00000000
00100000
00010000
00100000
00000000
00001000
00000000
00010000
00000000
00100000
00001000
00100000
00000000
00010000
00000000
,
00001000
00000000
01000000
00010000
01000000
00000000
00001000
00000000
00010000
00000000
01000000
00001000
01000000
00000000
00010000
00000000
,
00001000
00010000
00100000
01000000
10000000
01000000
00100000
00010000
,
00001000
00000000
00000010
00010000
00000010
00000000
00001000
00000000
00010000
00000000
00000100
00001000
00000100
00000000
00010000
00000000
,
00001000
00000000
00000100
00010000
00000100
00000000
00001000
00000000
00010000
00000000
00000010
00001000
00000010
00000000
00010000
00000000
,
00001000
00001000
01000000
00010000
10000000
01000000
00100000
00010000
,
01000000
00010000
10000000
01000000
00100000
00010000
00100000
00001000
00010000
00001000
00010000
00000100
00001000
00000100
00000010
00000001
,
00002000
00003002
00000203
00000320
,
00002030
00000000
00003100
00010000
00002000
00000000
02003000
00000000
,
03200000
00000000
02300000
00000000
03020000
00000000
10030000
01000000
,
10000000
00100000
00010000
00001000
00000100
00000001
00000020
00000000
,
00000230
00002300
00003020
00020030
,
00032000
00000000
00013000
00001000
00000200
00000000
00000320
00000000
,
00020030
00032000
00023000
02030000
,
03200000
00000000
00320000
00000000
10030000
00100000
01000000
00100000
,
20000000
32000000
03020000
00032000
,
00003020
00000000
00000130
00010000
00002000
00000000
00003200
00000000
,
00000302
00000023
00002030
00023000
,
00031000
00010000
00100000
10000000
01000000
00010000
00002000
00000000
,
02003000
03020000
00230000
00302000
,
00023000
00000000
00030100
00001000
00000020
00000000
00020030
00000000
,
00032000
00003200
00000302
00000023
,
00000031
00000000
00001000
00000000
00000010
00000000
00000100
00000000
00000001
00001000
00000001
00000000
00000010
00000000
00000001
00000000
,
00002002
00000000
00000000
00000000
,
00000003
00000000
00000000
00000000
,
00003000
00000000
00000000
00000000
,
00000000
00000000
00000000
00000000
;
