
//----- song ID: soco -----//
#TITLE:Something Comforting;
#ARTIST:Porter Robinson;
#BANNER:Something Comforting.png;
#BACKGROUND:Something Comforting-bg.png;
#CDTITLE:./CDTitles/DDR A3.png;
#MUSIC:Something Comforting.ogg;
#SAMPLESTART:93.991;
#SAMPLELENGTH:15;
#BPMS:0=144;
#NOTES:
     dance-single:
     :
     Beginner:
     2:
     :
0000
0000
0000
0000
,
0000
0000
0000
0000
,
0000
0000
0000
0000
,
1000
0000
0000
0000
,
0000
0000
0000
0000
,
0001
0000
0000
0000
,
0000
0000
0000
0000
,
0001
0000
0000
0000
,
0000
0000
0000
0000
,
0010
0000
0000
0000
,
0000
0000
0000
0000
,
0010
0000
0000
0000
,
0000
0000
0000
0000
,
0100
0000
0000
0000
,
0000
0000
0000
0000
,
0100
0000
0000
0000
,
0000
0000
0000
0000
,
1000
0000
0000
0000
,
1000
0000
0000
0000
,
0001
0000
0000
0000
,
0001
0000
0000
0000
,
0100
0000
0000
0000
,
0100
0000
0000
0000
,
0010
0000
0000
0000
,
0010
0000
0000
0000
,
0100
0000
0000
0000
,
0100
0000
0000
0000
,
0001
0000
0000
0000
,
0001
0000
0000
0000
,
1000
0000
0000
0000
,
1000
0000
0000
0000
,
0010
0000
0000
0000
,
0010
0000
0000
0000
,
1000
0000
0000
0000
,
0100
0000
0000
0000
,
0010
0000
0000
0000
,
0001
0000
0000
0000
,
0100
0000
0000
0000
,
0010
0000
0000
0000
,
1000
0000
0000
0000
,
0001
0000
0000
0000
,
0010
0000
0000
0000
,
0100
0000
0000
0000
,
0001
0000
0000
0000
,
0100
0000
0000
0000
,
1000
0000
0000
0000
,
0010
0000
0000
0000
,
0100
0000
0000
0000
,
1000
0000
0000
0000
,
0100
0000
0000
0000
,
0100
0000
0000
0000
,
0010
0000
0000
0000
,
0010
0000
0000
0000
,
0001
0000
0000
0000
,
0001
0000
0000
0000
,
1000
0000
0000
0000
,
1000
0000
0000
0000
,
0001
0000
0001
0000
,
0010
0000
0010
0000
,
1000
0000
1000
0000
,
0010
0000
0010
0000
,
0001
0000
0001
0000
,
0100
0000
0100
0000
,
1000
0000
1000
0000
,
0100
0000
0000
0000
,
1000
0000
1000
0000
,
0010
0000
0010
0000
,
0001
0000
0001
0000
,
0010
0000
0010
0000
,
1000
0000
1000
0000
,
0100
0000
0100
0000
,
0001
0000
0000
0000
,
1000
0000
0000
0000
,
0000
0000
0000
0000
;
#NOTES:
     dance-single:
     :
     Easy:
     3:
     :
0000
0000
0000
0000
,
0000
0000
0000
0000
,
0000
0000
0000
0000
,
0000
0000
0000
0000
,
0000
0000
0000
0000
,
1000
0000
0000
0000
,
0000
0000
0000
0000
,
0100
0000
0000
0000
,
0010
0000
0000
0000
,
0001
0000
0000
0000
,
0000
0000
0000
0000
,
1000
0000
0000
0000
,
0000
0000
0000
0000
,
0010
0000
0000
0000
,
0000
0000
0000
0000
,
0100
0000
0000
0000
,
0010
0000
0000
0000
,
1000
0000
1000
0000
,
0100
0000
0100
0000
,
0010
0000
0010
0000
,
0001
0000
0001
0000
,
1000
0000
1000
0000
,
0001
0000
0001
0000
,
0100
0000
0100
0000
,
0010
0000
0000
0000
,
1001
0000
0000
0000
,
1001
0000
0000
0000
,
0110
0000
0000
0000
,
0110
0000
0000
0000
,
1001
0000
0000
0000
,
1001
0000
0000
0000
,
0110
0000
0000
0000
,
0110
0000
0000
0000
,
0001
0000
0100
0000
,
0010
0000
1000
0000
,
0100
0000
0010
0000
,
0001
0000
1000
0000
,
0010
0000
1000
0000
,
0100
0000
1000
0000
,
0001
0000
0100
0000
,
0001
0100
0010
0000
,
1000
0000
0010
0000
,
0100
0000
0001
0000
,
0010
0000
0100
0000
,
1000
0000
0001
0000
,
0100
0000
0001
0000
,
0010
0000
0001
0000
,
1000
0000
0010
0000
,
1000
0010
0100
0000
,
0110
0000
0000
0000
,
0110
0000
0000
0000
,
1001
0000
0000
0000
,
1001
0000
0000
0000
,
0110
0000
0000
0000
,
1001
0000
0000
0000
,
0110
0000
0000
0000
,
1000
0000
0001
0000
,
1000
0000
0100
0000
,
0010
0000
0001
0000
,
0100
0000
0010
0000
,
1000
0000
0001
0000
,
0010
0000
0001
0000
,
0100
0000
0001
0000
,
1000
0000
0100
0000
,
1000
0100
0010
0000
,
0001
0000
0010
0000
,
0100
0000
1000
0000
,
0010
0000
0100
0000
,
0001
0010
0100
0000
,
1000
0000
0010
0000
,
1000
0000
0001
0000
,
0020
0000
0000
0230
,
0000
0000
0300
0000
,
0000
0000
0000
0000
;
#NOTES:
     dance-single:
     :
     Medium:
     7:
     :
0000
0000
0000
0000
,
0000
0000
0000
0000
,
0000
0000
0000
0000
,
0000
0000
0000
0000
,
0000
0000
0000
0000
,
0002
0000
0000
2003
,
0000
3020
0000
2030
,
0000
0000
3002
0000
,
0000
0003
0000
0000
,
1000
0000
0100
0000
,
0010
0000
0100
1000
,
0001
0000
0100
0000
,
0010
0000
0100
0001
,
2000
0000
0000
3100
,
1000
0000
0010
0100
,
0002
0000
0000
0103
,
0001
0000
0010
0100
,
1000
1000
0001
0001
,
0010
0010
0100
0100
,
1000
1000
0010
0010
,
0100
0100
0001
1000
,
0001
0001
1000
1000
,
0010
0010
0100
0100
,
0001
0001
1000
1000
,
0100
0100
0010
0100
,
0110
0000
1100
0000
,
0011
0000
0000
0000
0000
1000
0000
0000
,
1001
0000
0101
0000
,
1010
0000
0000
0000
0000
1000
0000
0000
,
1100
0000
0110
0000
,
0011
0000
0000
0000
0000
0001
0000
0000
,
0101
0000
0110
0000
,
1010
0000
1000
0010
,
1000
0100
0010
0001
,
0100
0000
1000
0000
0100
0000
0010
0100
,
0001
0100
0010
1000
,
0100
0000
0001
0000
0100
0000
0010
0100
,
1000
0010
0100
0001
,
0010
0000
1000
0000
0010
0000
0001
0100
,
0001
0010
0100
1000
,
0010
0000
0001
0000
0010
0000
1000
0100
,
2000
3010
0200
0301
,
0020
0000
0130
0000
0020
0000
0031
0010
,
0002
0103
0010
2000
,
3200
0000
0320
0000
0230
0000
1300
0100
,
2000
3010
0200
0301
,
0020
0000
0130
0000
0020
0000
0031
0010
,
0001
0100
0010
1000
,
0100
0010
0100
0000
,
1001
0001
0000
0010
,
0011
0000
1000
0000
0000
0010
0000
0000
,
1010
0010
0000
0100
,
0101
0000
0001
0000
0000
0010
0000
0000
,
0011
0010
0000
0100
,
1100
0000
1000
0000
0000
0010
0000
0000
,
1010
0002
0003
2000
,
3000
0000
0001
0001
,
1000
0100
0010
0001
,
0100
0000
1000
0000
0100
0000
0010
0100
,
0001
0100
0010
1000
,
0100
0000
0001
0000
0100
0000
0010
0100
,
1000
0010
0100
0001
,
0010
0000
1000
0000
0010
0000
0001
0100
,
0001
0010
0100
1000
,
0010
1000
0100
1100
,
2000
3010
0200
0301
,
0020
0000
0130
0000
0020
0000
0031
0010
,
0002
0103
0010
2000
,
3200
0000
0320
0000
0230
0000
1300
0100
,
2000
3010
0200
0301
,
0020
0000
0130
0000
0020
0000
0031
0010
,
0002
0000
0000
0023
,
0000
0000
0030
0000
,
0000
0000
0000
0000
;
#NOTES:
     dance-single:
     :
     Hard:
     13:
     :
0000
0000
0000
0000
,
0000
0000
0000
0000
,
0000
0000
0000
0000
,
0000
0000
0000
0000
,
0000
0000
0000
0000
,
0000
0001
1000
0020
,
0000
0230
0000
0302
,
0000
0000
0013
0200
,
0000
0000
0300
0000
0000
1000
0010
1000
,
0000
0001
0000
0010
0000
0001
2000
0000
,
0010
0000
3001
0000
1000
0100
0010
0001
,
0000
0100
0000
0010
0000
1000
0002
0000
,
0010
1003
0001
0100
,
0001
0000
0010
0000
0100
0000
1000
0010
,
1000
0001
0100
0010
,
1000
0000
0100
0000
0010
0000
0001
0100
,
0001
0000
1000
0000
0010
1000
0010
0100
,
0001
0000
0001
0000
1000
0000
1000
0100
,
1000
0000
1000
0000
0010
0100
0010
0100
,
0001
0000
0001
0000
0010
0000
0010
0100
,
0010
0000
0010
0000
0001
0100
0010
1000
,
0001
0000
0001
0000
0010
0000
0010
0100
,
0010
0000
0010
0000
0100
1000
0001
0100
,
0010
0000
0010
0000
1000
0000
1000
0010
,
1000
0000
0001
0010
0001
0000
1000
0100
1000
0000
0010
0100
0010
0000
0000
0000
,
0110
0000
1000
0010
1010
0000
0001
0010
,
0011
0000
1000
0100
0000
0010
0000
0001
,
1001
0000
1000
0100
1100
0000
0001
0100
,
0101
0000
1000
0010
0000
0100
0000
0010
,
0110
0000
1000
0100
1100
0000
0001
0100
,
0101
0000
1000
0010
0000
0100
0000
0001
,
0011
0020
0130
2000
,
3010
0200
0301
0110
,
1000
0000
0100
0000
0010
0001
0010
0000
0001
0000
0100
0000
0010
1000
0010
0000
,
0100
0000
0001
0000
1000
0100
1000
0000
0001
0000
0100
0000
1000
0000
0100
0000
,
0001
0000
0010
0000
0100
1000
0100
0000
1000
0000
0010
0000
0100
0001
0100
0000
,
0010
0000
1000
0000
0001
0010
0001
0000
1000
0000
0010
0000
0001
0000
0010
0000
,
1000
0000
0100
0000
0010
0001
0010
0000
0001
0000
0100
0000
0010
1000
0010
0000
,
0100
0000
0001
0000
1000
0100
1000
0000
0001
0000
0100
0000
1000
0000
0100
0000
,
0001
0000
0010
0000
0100
1000
0100
0000
1000
0000
0010
0000
0100
0001
0100
0000
,
0001
0000
1000
0000
0100
0010
0100
0000
0010
0000
0100
0000
1000
0000
0010
0000
,
0200
0000
0310
1000
0001
0100
1000
0100
,
0020
0000
0130
0001
1000
0100
0001
0100
,
0020
0000
0130
0010
1000
0010
0001
0010
,
0200
0000
0310
0100
0001
0100
1000
0100
,
2000
0000
3010
0001
0010
1000
0010
0001
,
0020
0000
0130
1000
0100
0001
0100
1000
,
0100
0010
2000
0000
3001
0010
0200
0000
,
1300
0000
0010
0100
0001
0000
1000
0000
,
1100
0000
0000
0000
1000
0100
1000
0000
0000
0000
0000
0000
0010
1000
0010
0000
,
1010
0000
0000
0000
0001
1000
0001
0000
0000
0000
0010
0000
0000
0000
0001
0000
,
0011
0000
0000
0000
0001
0010
0001
0000
0000
0000
0000
0000
0100
0010
0100
0000
,
0110
0000
0000
0000
1000
0001
1000
0000
0000
0000
0100
0000
0000
0000
1000
0000
,
1100
0000
0000
0000
1000
0100
1000
0000
0000
0000
0000
0000
0010
1000
0010
0000
,
1010
0000
0000
0000
0001
1000
0001
0000
0000
0000
0010
0000
0000
0000
0001
0000
,
1001
2000
3000
0002
,
0003
0000
1001
0011
,
0001
0000
0100
0000
0010
1000
0010
0000
1000
0000
0100
0000
0010
0001
0010
0000
,
0100
0000
1000
0000
0001
0100
0001
0000
1000
0000
0100
0000
0001
0000
0100
0000
,
1000
0000
0010
0000
0100
0001
0100
0000
0001
0000
0010
0000
0100
1000
0100
0000
,
0010
0000
0001
0000
1000
0010
1000
0000
0001
0000
0010
0000
1000
0000
0010
0000
,
0001
0000
0100
0000
0010
1000
0010
0000
1000
0000
0100
0000
0010
0001
0010
0000
,
0100
0000
1000
0000
0001
0100
0001
0000
1000
0000
0100
0000
0001
0000
0100
0000
,
1000
0000
0010
0000
0100
0001
0100
0000
0001
0000
0010
0000
0100
1000
0100
0000
,
1000
0001
0100
0010
0110
0000
0110
0000
,
0002
0000
0000
0000
1003
0100
1000
0000
0200
0000
0000
0000
0310
0001
0010
0000
,
0002
0000
0000
0000
1003
0010
1000
0000
0010
0000
0100
0000
0001
0010
0001
0000
,
2000
0000
0000
0000
3100
0010
0100
0000
0020
0000
0000
0000
0031
0100
0001
0000
,
0200
0000
0000
0000
0310
1000
0010
0000
1000
0000
0100
0000
0010
0001
0010
0000
,
0002
0000
0000
0000
1003
0010
1000
0000
0020
0000
0000
0000
0130
0001
0100
0000
,
0002
0000
0000
0000
0013
0100
0010
0000
0100
0000
1000
0000
0001
0100
0001
0000
,
2000
0000
0000
0000
0000
0000
3100
0020
,
0000
0000
0000
0030
,
0000
0000
0000
0000
;
#NOTES:
     dance-double:
     :
     Easy:
     3:
     :
00000000
00000000
00000000
00000000
,
00000000
00000000
00000000
00000000
,
00000000
00000000
00000000
00000000
,
00000000
00000000
00000000
00000000
,
00000000
00000000
00000000
00000000
,
00001000
00000000
00000000
00000000
,
00000000
00000000
00000000
00000000
,
01000000
00000000
00000000
00000000
,
00010000
00000000
00000000
00000000
,
10000000
00000000
00000000
00000000
,
00000000
00000000
00000000
00000000
,
00010000
00000000
00000000
00000000
,
00000000
00000000
00000000
00000000
,
01000000
00000000
00000000
00000000
,
00000000
00000000
00000000
00000000
,
00001000
00000000
00000000
00000000
,
00001000
00000000
00000000
00000000
,
00010000
00000000
00010000
00000000
,
00000010
00000000
00000010
00000000
,
00001000
00000000
00001000
00000000
,
00000100
00000000
00000100
00000000
,
00000010
00000000
00000010
00000000
,
00000001
00000000
00000001
00000000
,
00000100
00000000
00000100
00000000
,
00000010
00000000
00000000
00000000
,
00000110
00000000
00000000
00000000
,
00000110
00000000
00000000
00000000
,
00011000
00000000
00000000
00000000
,
00011000
00000000
00000000
00000000
,
01100000
00000000
00000000
00000000
,
01100000
00000000
00000000
00000000
,
10010000
00000000
00000000
00000000
,
10010000
00000000
00000000
00000000
,
10000000
00000000
00100000
00000000
,
01000000
00000000
00010000
00000000
,
00100000
00000000
00001000
00000000
,
00010000
00000000
00000100
00000000
,
00001000
00000000
00000010
00000000
,
00000100
00000000
00000001
00000000
,
00000010
00000000
00000100
00000000
,
00001000
00000010
00000100
00000000
,
00000001
00000000
00000010
00000000
,
00000100
00000000
00001000
00000000
,
00000100
00000000
00010000
00000000
,
00001000
00000000
01000000
00000000
,
00010000
00000000
01000000
00000000
,
00100000
00000000
10000000
00000000
,
01000000
00000000
00100000
00000000
,
00010000
01000000
00100000
00000000
,
01100000
00000000
00000000
00000000
,
01100000
00000000
00000000
00000000
,
00011000
00000000
00000000
00000000
,
00011000
00000000
00000000
00000000
,
00000110
00000000
00000000
00000000
,
00000110
00000000
00000000
00000000
,
00001001
00000000
00000000
00000000
,
00000001
00000000
00000001
00000000
,
00000001
00000000
00000100
00000000
,
00000010
00000000
00001000
00000000
,
00000100
00000000
00010000
00000000
,
00001000
00000000
00100000
00000000
,
00010000
00000000
01000000
00000000
,
00100000
00000000
10000000
00000000
,
01000000
00000000
00100000
00000000
,
00010000
01000000
00100000
00000000
,
10000000
00000000
01000000
00000000
,
00100000
00000000
00010000
00000000
,
00100000
00000000
00001000
00000000
,
00010000
00000000
00000010
00000000
,
00001000
00000000
00000010
00000000
,
00000100
00000000
00000001
00000000
,
00000020
00000000
00000000
00000000
00000000
00000000
00000030
00000200
,
00000000
00000000
00000000
00000300
,
00000000
00000000
00000000
00000000
;
#NOTES:
     dance-double:
     :
     Medium:
     7:
     :
00000000
00000000
00000000
00000000
,
00000000
00000000
00000000
00000000
,
00000000
00000000
00000000
00000000
,
00000000
00000000
00000000
00000000
,
00000000
00000000
00000000
00000000
,
00020000
00000000
00000000
00032000
,
00000000
02003000
00000000
03020000
,
00000000
00000000
02030000
00000000
,
03200000
00000000
00000000
00000000
,
10300000
00000000
00100000
00000000
,
01000000
00000000
00010000
00100000
,
00001000
00000000
00010000
00000010
,
00001000
00000000
00000100
00000010
,
00000002
00000000
00000000
00000013
,
00000100
00000000
00001000
00000100
,
00020000
00000000
00000000
00031000
,
01000000
00000000
00010000
10000000
,
00010000
00010000
01000000
01000000
,
00001000
00001000
00010000
00010000
,
00000100
00000100
00001000
00001000
,
00000010
00000010
00001000
00000001
,
00001000
00001000
00000100
00000100
,
00010000
00010000
00001000
00001000
,
01000000
01000000
00010000
00010000
,
00100000
00100000
00010000
10000000
,
10010000
00000000
01010000
00000000
,
00110000
00000000
00000000
00000000
00000000
00001000
00000000
00000000
,
00011000
00000000
00010100
00000000
,
00001100
00000000
00000000
00000000
00000000
00001000
00000000
00000000
,
00001001
00000000
00001010
00000000
,
00001100
00000000
00000000
00000000
00000000
00010000
00000000
00000000
,
00011000
00000000
01001000
00000000
,
01010000
00000000
10000000
00100000
,
10000000
00100000
01000000
00010000
,
00100000
00000000
00001000
00000000
00010000
00000000
00000100
00001000
,
00000001
00000010
00000100
00001000
,
00000010
00000000
00010000
00000000
00001000
00000000
01000000
00010000
,
10000000
00100000
01000000
00010000
,
00100000
00000000
00001000
00000000
00010000
00000000
00000100
00001000
,
00000001
00000010
00000100
00001000
,
00000010
00000000
00010000
00000000
00001000
00000000
01000000
00010000
,
20000000
30010000
02000000
03001000
,
00020000
00000000
00030100
00000000
00002000
00000000
00003010
00000100
,
00000002
00001003
00000100
00020000
,
00032000
00000000
02003000
00000000
03020000
00000000
00130000
01000000
,
20000000
30010000
02000000
03001000
,
00020000
00000000
00030100
00000000
00002000
00000000
00003010
00000100
,
00000020
00001030
00000100
00010000
,
00001000
00100000
00010000
00000000
,
10100000
10000000
00000000
00010000
,
00110000
00000000
00100000
00000000
00000000
00001000
00000000
00000000
,
00011000
00010000
00000000
00000100
,
00001100
00000000
00001000
00000000
00000000
00000001
00000000
00000000
,
00000101
00000001
00000000
00001000
,
00001010
00000000
00000010
00000000
00000000
00010000
00000000
00000000
,
00011000
00002000
00003000
02000000
,
03000000
00000000
00010000
00010000
,
10000000
00100000
01000000
00010000
,
00100000
00000000
00001000
00000000
00010000
00000000
00000100
00001000
,
00000001
00000010
00000100
00001000
,
00000010
00000000
00010000
00000000
00001000
00000000
01000000
00010000
,
10000000
00100000
01000000
00010000
,
00100000
00000000
00001000
00000000
00010000
00000000
00000100
00001000
,
00000001
00000010
00000100
00001000
,
00000010
00010000
00001000
00011000
,
02000000
03010000
00200000
00301000
,
00020000
00000000
00030100
00000000
00002000
00000000
00003010
00000100
,
00000002
00001003
00000100
00020000
,
00032000
00000000
02003000
00000000
03020000
00000000
00130000
01000000
,
20000000
30010000
02000000
03001000
,
00020000
00000000
00030100
00000000
00002000
00000000
00003010
00000100
,
00000020
00000000
00000000
00000000
00000000
00000000
00000030
00000200
,
00000000
00000000
00000000
00000300
,
00000000
00000000
00000000
00000000
;
#NOTES:
     dance-double:
     :
     Hard:
     13:
     :
00000000
00000000
00000000
00000000
,
00000000
00000000
00000000
00000000
,
00000000
00000000
00000000
00000000
,
00000000
00000000
00000000
00000000
,
00000000
00000000
00000000
00000000
,
00000000
00001000
00010000
00002000
,
00000000
00203000
00000000
00320000
,
00000000
00000000
10030000
02000000
,
00000000
00000000
03000000
00000000
00000000
10000000
00100000
10000000
,
00000000
00010000
00000000
00100000
00000000
00001000
00010000
00000000
,
00000100
00000000
00001000
00000000
00000010
00000100
00000001
00000010
,
00000000
00000100
00000000
00001000
00000000
00000100
00010000
00000000
,
00001000
00100000
00010000
01000000
,
00100000
00000000
10000000
00000000
00010000
00000000
01000000
00001000
,
00010000
00000100
00001000
00000010
,
00000100
00000000
00000001
00000000
00001000
00000000
00000100
00010000
,
00001000
00000000
01000000
00000000
00010000
01000000
00100000
10000000
,
00010000
00000000
00010000
00000000
00100000
00000000
00100000
00001000
,
00010000
00000000
00010000
00000000
00000100
00000000
00001000
00000001
,
00001000
00000000
00001000
00000000
00000010
00000000
00000010
00010000
,
00001000
00000000
00001000
00000000
01000000
00010000
10000000
00100000
,
10000000
00000000
10000000
00000000
01000000
00000000
00100000
00010000
,
01000000
00000000
01000000
00000000
00001000
00010000
00000100
00001000
,
00000010
00000000
00000010
00000000
00001000
00000000
00000100
00010000
,
00001000
00000000
00010000
00001000
00010000
00000000
00001000
00100000
00001000
00000000
00100000
00010000
00100000
00000000
00000000
00000000
,
00110000
00000000
10000000
01000000
11000000
00000000
00010000
00100000
,
00110000
00000000
00001000
00010000
00000000
00000010
00000000
00001000
,
00001010
00000000
00000001
00000100
00000101
00000000
00001000
00000010
,
00001010
00000000
00010000
00001000
00000000
00100000
00000000
00010000
,
00110000
00000000
10000000
01000000
11000000
00000000
00010000
01000000
,
01010000
00000000
00001000
00010000
00000000
00000010
00000000
00001000
,
00001010
00002000
00003100
00020000
,
00031000
02000000
03010000
01100000
,
10000000
00000000
01000000
00000000
00100000
00010000
00100000
00000000
00001000
00000000
00100000
00000000
00001000
00010000
00001000
00000000
,
00010000
00000000
00000010
00000000
00001000
00000010
00001000
00000000
00000001
00000000
00000010
00000000
00001000
00000000
00000010
00000000
,
00000001
00000000
00000100
00000000
00000010
00001000
00000010
00000000
00010000
00000000
00000010
00000000
00010000
00001000
00010000
00000000
,
00001000
00000000
00100000
00000000
00010000
00100000
00010000
00000000
10000000
00000000
00100000
00000000
00010000
00000000
00100000
00000000
,
10000000
00000000
00100000
00000000
01000000
00010000
01000000
00000000
00001000
00000000
01000000
00000000
00001000
00010000
00001000
00000000
,
00010000
00000000
00000100
00000000
00001000
00000100
00001000
00000000
00000001
00000000
00000010
00000000
00001000
00000000
00000010
00000000
,
00000001
00000000
00000010
00000000
00000100
00001000
00000100
00000000
00010000
00000000
00000100
00000000
00010000
00001000
00010000
00000000
,
00001000
00000000
01000000
00000000
00010000
01000000
00010000
00000000
10000000
00000000
00100000
00000000
00010000
00000000
00100000
00000000
,
20000000
00000000
31000000
10000000
01000000
00010000
00001000
00000010
,
00000002
00000000
00000103
00000001
00000100
00001000
00010000
00100000
,
20000000
00000000
30100000
10000000
00100000
00010000
00001000
00000100
,
00000002
00000000
00000013
00000001
00000010
00001000
00010000
01000000
,
20000000
00000000
31000000
10000000
01000000
00010000
00001000
00000010
,
00000002
00000000
00000103
00000001
00000100
00001000
00010000
00100000
,
10000000
01000000
20000000
00000000
30010000
00100000
00002000
00000000
,
00013000
00000000
00000100
00001000
00000010
00000000
00000100
00000000
,
00000101
00000000
00000000
00000000
00000001
00000100
00000001
00000000
00000000
00000000
00000000
00000000
00001000
00000010
00001000
00000000
,
00001010
00000000
00000000
00000000
00010000
00001000
00010000
00000000
00000000
00000000
00000010
00000000
00000000
00000000
00010000
00000000
,
00010010
00000000
00000000
00000000
00010000
00001000
00010000
00000000
00000000
00000000
00000000
00000000
00001000
00100000
00001000
00000000
,
00101000
00000000
00000000
00000000
00100000
00010000
00100000
00000000
00000000
00000000
01000000
00000000
00000000
00000000
10000000
00000000
,
10100000
00000000
00000000
00000000
10000000
00100000
10000000
00000000
00000000
00000000
00000000
00000000
00010000
01000000
00010000
00000000
,
01010000
00000000
00000000
00000000
00001000
00010000
00001000
00000000
00000000
00000000
00010000
00000000
00000000
00000000
00000100
00000000
,
00001100
00002000
00003000
00000002
,
00000003
00000000
00001001
00001001
,
00000001
00000000
00000100
00000000
00000010
00001000
00000010
00000000
00010000
00000000
00000010
00000000
00010000
00001000
00010000
00000000
,
00001000
00000000
00100000
00000000
00010000
00100000
00010000
00000000
10000000
00000000
00100000
00000000
00010000
00000000
00100000
00000000
,
10000000
00000000
01000000
00000000
00100000
00010000
00100000
00000000
00001000
00000000
00100000
00000000
00001000
00010000
00001000
00000000
,
00010000
00000000
00000010
00000000
00001000
00000010
00001000
00000000
00000001
00000000
00000010
00000000
00001000
00000000
00000010
00000000
,
00000001
00000000
00000010
00000000
00000100
00001000
00000100
00000000
00010000
00000000
00000100
00000000
00010000
00001000
00010000
00000000
,
00001000
00000000
01000000
00000000
00010000
01000000
00010000
00000000
10000000
00000000
00100000
00000000
00010000
00000000
00100000
00000000
,
10000000
00000000
00100000
00000000
01000000
00010000
01000000
00000000
00001000
00000000
01000000
00000000
00001000
00010000
00001000
00000000
,
00010000
00000010
00001000
00000100
00000110
00000000
00000110
00000000
,
00000002
00000000
00000000
00000000
00001003
00000010
00001000
00000000
00000020
00000000
00000000
00000000
00010030
00001000
00010000
00000000
,
00002000
00000000
00000000
00000000
00103000
00010000
00100000
00000000
00010000
00000000
00100000
00000000
01000000
10000000
01000000
00000000
,
20000000
00000000
00000000
00000000
30010000
01000000
00010000
00000000
02000000
00000000
00000000
00000000
03001000
00010000
00001000
00000000
,
00020000
00000000
00000000
00000000
00030100
00001000
00000100
00000000
00001000
00000000
00000100
00000000
00000010
00000001
00000010
00000000
,
00000002
00000000
00000000
00000000
00001003
00000010
00001000
00000000
00000020
00000000
00000000
00000000
00010030
00001000
00010000
00000000
,
00002000
00000000
00000000
00000000
01003000
00010000
01000000
00000000
00010000
00000000
00100000
00000000
01000000
10000000
00010000
00000000
,
00200000
00000000
00000000
00000000
00000000
00000000
00301000
00020000
,
00000000
00000000
00000000
00030000
,
00000000
00000000
00000000
00000000
;
