
//----- song ID: shwa -----//
#TITLE:しゅわスパ大作戦☆;
#ARTIST:SOUND HOLIC feat. Nana Takahashi;
#TITLETRANSLIT:Shuwa spa daisakusen;
#BANNER:Shuwa spa daisakusen.png;
#BACKGROUND:Shuwa spa daisakusen-bg.png;
#CDTITLE:./CDTitles/BeatStream.png;
#MUSIC:Shuwa spa daisakusen.ogg;
#SAMPLESTART:44.143;
#SAMPLELENGTH:15;
#BPMS:0=140;
#NOTES:
     dance-single:
     :
     Beginner:
     1:
     :
0000
0000
0000
0000
,
0000
0000
0000
0000
,
0000
0000
0000
0000
,
0000
0000
0000
0000
,
0000
0000
0000
0000
,
0000
0000
0000
0000
,
1000
0000
0000
0000
,
0000
0000
0000
0000
,
0010
0000
0000
0000
,
0000
0000
0000
0000
,
0100
0000
0000
0000
,
0000
0000
0000
0000
,
0100
0000
0000
0000
,
0000
0000
0000
0000
,
0010
0000
0000
0000
,
0000
0000
0000
0000
,
0010
0000
0000
0000
,
0000
0000
0000
0000
,
0001
0000
0000
0000
,
0000
0000
0000
0000
,
0010
0000
0000
0000
,
0000
0000
0000
0000
,
0100
0000
0000
0000
,
0000
0000
0000
0000
,
0100
0000
0000
0000
,
0000
0000
0000
0000
,
1000
0000
0000
0000
,
0000
0000
0000
0000
,
1000
0000
0000
0000
,
0000
0000
0000
0000
,
0010
0000
0000
0000
,
0000
0000
0000
0000
,
0010
0000
0000
0000
,
0000
0000
0000
0000
,
0100
0000
0000
0000
,
0000
0000
0000
0000
,
0100
0000
0000
0000
,
0000
0000
0000
0000
,
0001
0000
0000
0000
,
0000
0000
0000
0000
,
0001
0000
0000
0000
,
0000
0000
0000
0000
,
0010
0000
0000
0000
,
0000
0000
0000
0000
,
0100
0000
0000
0000
,
0000
0000
0000
0000
,
0010
0000
0000
0000
,
0000
0000
0000
0000
,
0000
0000
0000
0000
,
1000
0000
0000
0000
,
0000
0000
0000
0000
,
1000
0000
0000
0000
,
0000
0000
0000
0000
,
0000
0000
0000
0000
,
0010
0000
0000
0000
,
0100
0000
0000
0000
,
0010
0000
0000
0000
,
0000
0000
0000
0000
,
0001
0000
0000
0000
,
0000
0000
0000
0000
,
0001
0000
0000
0000
,
0000
0000
0000
0000
,
0010
0000
0000
0000
,
0100
0000
0000
0000
,
0010
0000
0000
0000
,
0000
0000
0000
0000
,
1000
0000
0000
0000
,
0000
0000
0000
0000
,
1000
0000
0000
0000
,
0000
0000
0000
0000
,
0010
0000
0000
0000
,
0000
0010
0000
0000
,
0000
0000
0000
0000
;
#NOTES:
     dance-single:
     :
     Easy:
     5:
     :
0000
0000
0000
0000
,
0000
0000
0000
0000
,
0000
0000
0000
0000
,
0000
0000
0000
0000
,
0000
0000
0000
0000
,
0000
0000
0000
0000
,
2000
0000
0000
3000
,
0010
0010
0010
0000
,
0002
0000
0000
0003
,
0010
0010
0010
0000
,
1000
0000
0010
0100
,
0010
0000
1000
0000
,
0001
0000
0010
0100
,
0010
0000
0001
0000
,
1000
0100
1000
0000
,
0001
0010
0001
0000
,
0100
0000
0100
0000
,
0110
0000
0000
0000
,
2000
0000
0000
3000
,
0200
0000
0000
0300
,
0020
0000
0000
0030
,
0002
0000
0000
0003
,
1001
0000
0000
0000
,
0110
0000
0000
0000
,
1001
0000
0000
0000
,
0000
0000
0000
0000
,
0001
0000
0100
0000
,
0010
1000
0010
0000
,
1000
0000
0100
0000
,
0010
0001
0010
0000
,
0001
0001
0100
0000
,
0001
0001
0010
0000
,
0100
0000
1000
0000
,
2002
0000
0000
3003
,
1000
0000
0010
0000
,
0100
0001
0100
0000
,
0001
0000
0010
0000
,
0100
1000
0100
0000
,
1000
1000
0010
0000
,
1000
1000
0100
0000
,
0010
0000
0001
0000
,
2002
0000
0000
3003
,
0001
0000
0000
0000
,
1000
0000
0000
0000
,
0010
0000
0000
0000
,
0100
0000
0000
0000
,
0001
0000
0001
0000
,
0010
0000
0010
0000
,
0100
0000
0100
0000
,
2000
0000
0000
3000
,
0002
0000
0000
0003
,
1000
1000
0100
0000
,
0001
0001
0010
0000
,
1001
0000
0000
0000
,
0001
1000
0010
1000
,
0010
0100
0001
0000
,
1000
0000
0001
0000
,
1001
0000
0000
0000
,
0200
0000
0000
0300
,
0020
0000
0000
0030
,
1000
0001
1000
0001
,
2000
0000
0000
3000
,
1000
0001
0010
0001
,
0010
0100
1000
0000
,
0001
0000
1000
0000
,
1001
0000
0000
0000
,
0200
0000
0000
0300
,
0020
0000
0000
0030
,
0001
1000
0001
1000
,
0002
0000
0000
0003
,
0100
0000
0100
0000
,
0000
1001
0000
0000
,
0000
0000
0000
0000
;
#NOTES:
     dance-single:
     :
     Medium:
     10:
     :
0000
0000
0000
0000
,
0000
0000
0000
0000
,
0000
0000
0000
0000
,
0000
0000
0000
0000
,
0000
0000
0000
0000
,
0000
0000
0000
0000
,
2000
3200
2300
3200
0320
0032
0023
0030
,
0001
1001
0100
0110
,
0002
0203
0302
0203
0320
2030
3020
0030
,
1000
1001
0010
0110
,
1000
0000
0100
0010
0100
0010
0001
0000
,
0100
0000
0010
1000
0001
0000
0010
0001
,
1000
0000
1001
0000
0001
0010
0100
1000
,
0002
0000
0000
1000
1003
0000
1000
0010
,
1000
0000
0100
0010
0001
0010
0100
0000
,
1000
0000
0010
0100
0001
0000
0010
0100
,
1000
0000
1001
0000
1000
0010
0001
0010
,
2000
0000
0000
0001
3001
0000
0000
0000
,
0001
0100
0001
0100
0010
1000
0010
0000
,
1000
0001
1000
0001
0010
0100
0010
0000
,
0001
1000
0100
0000
1000
0001
0100
0000
,
0010
0000
0000
0100
0000
0000
0010
0000
0100
0000
0000
0000
0000
0000
0000
0000
,
1010
0000
0000
1100
0000
0000
0000
0000
,
0011
0000
0000
0101
0000
0000
0000
0000
,
0001
0100
0010
0000
1000
0100
0010
0000
,
0001
1000
0001
1000
0001
0000
0000
0000
,
1000
0100
0010
0100
1000
0010
0100
0000
,
0001
0010
0100
0010
0001
0100
0010
0000
,
1000
0100
1000
0000
0001
0100
0001
0000
,
2000
0100
0010
3100
,
1000
0100
0001
0000
0001
0100
1000
0000
,
0001
1000
0010
0100
0020
0000
0030
0000
,
1010
1010
0011
0011
,
2000
3002
2003
3002
2003
3002
2003
3000
,
0001
0010
0100
0010
0001
0100
0010
0000
,
1000
0100
0010
0100
1000
0010
0100
0000
,
0001
0010
0001
0000
1000
0010
1000
0000
,
0002
0010
0100
0013
,
0001
0010
1000
0000
1000
0010
0001
0000
,
1000
0001
0100
0010
0200
0000
0300
0000
,
0101
0101
1100
1100
,
2002
0000
0000
3003
,
2000
0000
3010
0000
,
0002
0000
0013
0000
,
2000
0000
3100
0000
,
0002
0000
0103
0000
,
1000
0010
0010
0000
,
0001
0010
0010
0000
,
1000
0100
0001
0100
,
1000
1100
0001
0101
,
0010
0100
0110
1001
,
1000
0100
1000
0000
0001
0100
0001
0000
,
1000
0010
1000
0000
0001
0010
0001
0000
,
2000
0000
0002
3003
,
0001
0100
0010
1000
0100
0010
0001
0000
,
1000
0010
1000
0100
0001
0100
1000
0000
,
0001
0011
1000
1100
,
0001
0100
0010
1000
0001
0100
0010
0000
,
2000
0000
3100
0100
0002
0000
0103
0100
,
1000
0000
0001
0000
1000
0000
0001
1000
0000
0000
0000
0000
0000
0000
1000
0000
,
0010
0100
0001
0100
0010
1000
0100
0010
,
0002
2003
3200
0320
0032
2003
3200
0300
,
1000
0010
0100
0001
0010
0100
1000
0000
,
0001
0100
0001
0010
1000
0010
0001
0000
,
1000
1100
0001
0011
,
1000
0010
0100
0001
1000
0010
0100
0000
,
0002
0000
0013
0010
2000
0000
3010
0010
,
0001
0000
1000
0000
0001
0000
1000
0001
0000
0000
0000
0000
0000
0000
0001
0000
,
0100
0010
1000
0010
0100
0001
0010
0100
,
2000
3002
0023
0230
2300
3002
0023
0030
,
0001
0100
0100
0001
0010
0010
0001
1000
,
0000
2002
0000
0000
,
3003
0000
0000
0000
,
0000
0000
0000
0000
;
#NOTES:
     dance-single:
     :
     Hard:
     14:
     :
0000
0000
0000
0000
,
0000
0000
0000
0000
,
0000
0000
0000
0000
,
0000
0000
0000
0000
,
0000
0000
0000
0000
,
0000
0000
0000
0000
,
0002
0203
2300
3200
0302
0203
2300
3200
,
0301
0000
0000
0000
1001
0000
0000
0000
1000
0100
0000
0010
0001
0000
0000
0000
,
2000
3200
0302
0203
2300
3200
0302
0203
,
1300
0001
0000
0000
0110
0000
0000
0010
0001
0000
0100
0000
0001
1000
0001
0000
,
2000
0000
3100
0010
0001
0100
0001
0010
,
0200
0000
1300
0010
0002
0000
1003
0100
,
0001
0000
0101
0100
0010
1000
0010
0100
,
0002
0000
0013
1000
0020
0000
0031
1000
,
0100
0000
0110
0010
0001
1000
0010
1000
,
0200
0000
0301
0100
2000
0000
3010
0100
,
0020
0000
1030
0100
0010
0001
0100
0010
,
2000
0000
0000
0000
3000
0000
0001
0100
0002
0000
0000
0000
1003
0000
1000
0000
,
0010
0100
0001
1000
0010
0100
0001
1000
,
0100
0010
0001
1000
0001
0010
0100
1000
,
0010
0100
1000
0100
0010
0100
0001
0100
,
0010
0000
0000
1000
0000
0000
0010
0000
1010
0000
0000
0000
1000
0000
0100
0000
,
0011
0000
0000
0001
0000
0000
1001
0000
0000
0000
0000
0000
0001
0000
0100
0000
,
1010
0000
0000
1000
0000
0000
1001
0000
0000
0000
0000
0000
0100
0000
0200
0000
,
0000
0000
0000
0300
,
1000
0000
0100
0000
0010
0001
0000
0010
0000
0001
0100
0000
0001
0000
0000
0000
,
1000
0000
0001
0000
0010
0000
0001
0100
0000
0000
0010
0000
1000
0000
0100
0000
,
1000
0000
0100
0000
0001
0000
0100
1000
0000
0000
0001
0000
0010
0000
0001
0000
,
0100
0000
0010
1000
0010
0000
0100
0001
0100
0000
0001
0010
0100
0000
1000
0000
,
0010
0000
1000
0002
0000
0000
0000
0000
1003
0000
0100
0000
0001
0000
0100
0000
,
1000
0000
0010
0100
0001
0000
1000
0000
0001
0000
0010
0100
1000
0000
0001
0000
,
0101
0000
0100
0000
0110
0000
0010
2000
0000
0000
0000
0000
3000
0000
1000
0000
,
1001
0000
1000
0100
0010
0000
0100
0000
1000
0000
0010
0000
0100
0000
0001
1000
,
0002
0203
2300
3200
0302
0023
2030
3020
,
0031
0000
1000
0000
0010
0000
1000
0100
0000
0000
0010
0000
0001
0000
0100
0000
,
0001
0000
0100
0000
1000
0000
0100
0010
0000
0000
1000
0000
0010
0000
1000
0000
,
0100
0000
0010
0001
0010
0000
0100
1000
0100
0000
1000
0010
0100
0000
0001
0000
,
0010
0000
0001
2000
0000
0000
0000
0000
3001
0000
0100
0000
1000
0000
0100
0000
,
0001
0000
0010
0100
1000
0000
0001
0000
1000
0000
0010
0100
0001
0000
1000
0000
,
1100
0000
0100
0000
0110
0000
0010
0002
0000
0000
0000
0000
0003
0000
0001
0000
,
1001
0000
0001
0100
0010
0000
0100
0000
0001
0000
0010
0000
0100
0000
1000
0001
,
2000
0100
0001
3100
,
1000
0000
0010
0000
0100
0000
0001
1000
0000
0000
0000
0000
0001
0000
0100
0000
,
1000
0000
0100
0000
0001
0000
0010
0100
0000
0000
0000
0000
0000
0000
1000
0000
,
0100
0010
0100
0010
0001
0000
0001
0010
,
1000
0000
0010
0002
0000
0000
0000
0000
0003
0000
0000
0000
0001
0000
0100
0000
,
0010
0000
0010
1000
0100
0000
0100
0001
,
1000
0000
0010
0000
0001
0000
1000
0100
0000
0000
0000
0000
0000
0000
0100
0000
,
2000
0000
0000
0000
3010
0000
0100
0000
0010
0000
1000
0000
0100
0000
0010
0001
,
1000
1000
1100
0000
0001
0001
0101
0000
,
0010
0000
0010
0000
0110
0000
0000
0000
1000
0001
0000
1000
0001
0000
0001
0000
,
1000
1010
1000
1010
0001
0101
0001
0101
,
1000
0000
1100
0000
1000
0000
1100
0000
0001
0010
0001
0010
0002
0000
0000
0000
,
1003
0000
0010
0000
0001
0000
0010
2000
0000
0000
0000
0000
3000
0000
0000
0000
,
1000
0000
0100
0000
0001
0000
0100
1000
0000
0001
0000
0010
0100
0010
0100
0000
,
1000
0000
0010
0000
0001
0000
0010
1000
0001
0100
0000
0010
0100
0000
0010
0000
,
1000
0000
0001
0100
0010
0000
1000
0000
0100
0000
0010
0001
0010
0000
0001
0000
,
0100
0000
0010
2000
0000
0000
0000
0000
0010
0000
0000
0000
3100
0000
0010
0000
,
0011
0000
0001
0100
1010
0000
1000
0010
,
0100
0000
1000
0000
0100
0000
0001
1000
0001
0100
0000
0010
0000
1000
0010
0000
,
0100
0000
0010
1000
0010
0000
1000
0000
0001
0000
0010
0100
0010
0000
0001
1000
,
0020
0032
0023
2030
3200
0302
0203
2300
,
3001
0000
0010
0000
1000
0000
0010
0001
0000
1000
0000
0100
0010
0100
0010
0000
,
0001
0000
0100
0000
1000
0000
0100
0001
1000
0010
0000
0100
0010
0000
0100
0000
,
0001
0000
1000
0010
0100
0000
0001
0000
0010
0000
0100
1000
0100
0000
1000
0000
,
0010
0000
0100
0002
0000
0000
0000
0000
0100
0000
0000
0000
0013
0000
0100
0000
,
1100
0000
1000
0010
0101
0000
0001
0100
,
0010
0000
0001
0000
0010
0000
1000
0001
1000
0010
0000
0100
0000
0001
0100
0000
,
0010
0000
0100
0001
0100
0000
0001
0000
1000
0000
0100
0010
0100
0000
1000
0001
,
0200
2300
3200
0302
0023
2030
3020
0032
,
1003
0000
0100
0010
0100
0000
0010
0100
0010
0000
0001
1000
0001
0000
1000
0000
,
0000
2002
0000
0000
,
3003
0000
0000
0000
,
0000
0000
0000
0000
;
#NOTES:
     dance-double:
     :
     Easy:
     5:
     :
00000000
00000000
00000000
00000000
,
00000000
00000000
00000000
00000000
,
00000000
00000000
00000000
00000000
,
00000000
00000000
00000000
00000000
,
00000000
00000000
00000000
00000000
,
00000000
00000000
00000000
00000000
,
20000000
00000000
00000000
30000000
,
01000000
00000000
01000000
00000000
,
00200000
00000000
00000000
00300000
,
00001000
00000000
00001000
00000000
,
00010000
00000000
00000100
00001000
,
00000100
00000000
00000010
00000000
,
00000001
00000000
00000100
00000010
,
00000100
00000000
00000001
00000000
,
00001000
00000000
00000100
00010000
,
00000100
00000000
00010000
00000000
,
00001000
00000000
00010000
00000000
,
00011000
00000000
00000000
00000000
,
00002000
00000000
00000000
00003000
,
02000000
00000000
00000000
03000000
,
00020000
00000000
00000000
00030000
,
00200000
00000000
00000000
00300000
,
01100000
00000000
00000000
00000000
,
10010000
00000000
00000000
00000000
,
10000000
00000000
01000000
00000000
,
00010000
00000000
00000000
00000000
,
00001000
00000000
00001000
00000000
,
00010000
00000000
00010000
00000000
,
00000100
00001000
00000100
00000000
,
00000110
00000000
00000000
00000000
,
00000001
00000000
00000010
00000000
,
00000001
00000000
00000100
00000000
,
00001000
00000000
00010000
00000000
,
00022000
00000000
00000000
00033000
,
00010000
00000000
00010000
00000000
,
00001000
00000000
00001000
00000000
,
01000000
00010000
01000000
00000000
,
01100000
00000000
00000000
00000000
,
10000000
00000000
00100000
00000000
,
10000000
00000000
01000000
00000000
,
00010000
00000000
00001000
00000000
,
00022000
00000000
00000000
00033000
,
00010000
00000000
00000000
00000000
,
00000010
00000000
00000000
00000000
,
00001000
00000000
00000000
00000000
,
00000001
00000000
00000000
00000000
,
00000200
00000000
00000000
00000300
,
00000020
00000000
00000000
00000030
,
00010000
00000000
00001000
00000000
,
00020000
00000000
00000000
00030000
,
00002000
00000000
00000000
00003000
,
00100000
00100000
00010000
00000000
,
01000000
01000000
00010000
00000000
,
10010000
00000000
00000000
00000000
,
10000000
01000000
10000000
01000000
,
00100000
00000000
00010000
00000000
,
00100000
00000000
00001000
00000000
,
00011000
00000000
00000000
00000000
,
00020000
00000000
00000000
00030000
,
00000020
00000000
00000000
00000030
,
00001000
00000100
00000010
00000001
,
00002000
00000000
00000000
00003000
,
00000001
00000100
00000001
00000100
,
00000010
00000000
00001000
00000000
,
00000010
00000000
00010000
00000000
,
00011000
00000000
00000000
00000000
,
00002000
00000000
00000000
00003000
,
00200000
00000000
00000000
00300000
,
00010000
01000000
00100000
10000000
,
00020000
00000000
00000000
00030000
,
01000000
00000000
01000000
00000000
,
00000000
10010000
00000000
00000000
,
00000000
00000000
00000000
00000000
;
#NOTES:
     dance-double:
     :
     Medium:
     10:
     :
00000000
00000000
00000000
00000000
,
00000000
00000000
00000000
00000000
,
00000000
00000000
00000000
00000000
,
00000000
00000000
00000000
00000000
,
00000000
00000000
00000000
00000000
,
00000000
00000000
00000000
00000000
,
20000000
32000000
23000000
32000000
03200000
00320000
00230000
00302000
,
00013000
00011000
00000010
00000110
,
00000002
00000203
00000302
00000203
00000320
00002030
00003020
00020030
,
00031000
00011000
00100000
01100000
,
10000000
00000000
01000000
00100000
00010000
00100000
00010000
00000000
,
01000000
00000000
00001000
00010000
00001000
00000000
00001000
00010000
,
00000100
00000000
00001000
00000010
00000100
00000010
00001000
00000000
,
00000002
00000000
00000000
00001000
00001003
00000000
00001001
00000000
,
00000001
00000000
00000010
00000100
00001000
00000100
00001000
00000000
,
00000100
00000000
00010000
00001000
00010000
00000000
00010000
00001000
,
01000000
00000000
00010000
00100000
01000000
10000000
00100000
00000000
,
02000000
00000000
00000000
00100000
03100000
00000000
00000000
00000000
,
10000000
00100000
10000000
00100000
01000000
00010000
01000000
00000000
,
00010000
00100000
00010000
00100000
00001000
00010000
00001000
00000000
,
00010000
00000100
00010000
00000100
00001000
00000100
00001000
00000000
,
00000010
00000000
00000000
00000100
00000000
00000000
00000010
00000000
00000100
00000000
00000000
00000000
00000000
00000000
00000000
00000000
,
00000101
00000000
00000000
00001001
00000000
00000000
00000000
00000000
,
00001100
00000000
00000000
00010100
00000000
00000000
00000000
00000000
,
00010000
00001000
00100000
00000000
00001000
00010000
00000010
00000000
,
00010000
00001000
00010000
00001000
00010000
00000000
00000000
00000000
,
00001000
00100000
00010000
00000000
01000000
00100000
10000000
00000000
,
01000000
00100000
00010000
01000000
00010000
00000000
10010000
00000000
,
10000000
00000000
01000000
00100000
00010000
00000000
00100000
00001000
,
00020000
00001000
00000100
00031000
,
00001000
00010000
00000100
00000000
00000100
00001000
00000010
00000000
,
00000100
00000001
00000010
00000001
00000200
00000000
00000300
00000000
,
00000100
00001000
00010000
00000000
00010000
00100000
00010000
00000000
,
00002000
00023000
00032000
00023000
00032000
00023000
00032000
00003000
,
00010000
00000010
00001000
00000000
00000100
00000010
00000001
00000000
,
00000100
00000010
00001000
00000100
00001000
00000000
00001001
00000000
,
00000001
00000000
00000100
00000010
00001000
00000000
00000010
00010000
,
00002000
00010000
01000000
00013000
,
00010000
00001000
01000000
00000000
01000000
00010000
00100000
00000000
,
01000000
10000000
00100000
10000000
02000000
00000000
03000000
00000000
,
01000000
00010000
00001000
00000000
00001000
00000010
00001000
00000000
,
00022000
00000000
00000000
00033000
,
00010000
00001000
00000010
00000000
,
00000010
00000001
00001000
00000000
,
00000001
00000100
00001000
00000000
,
00010000
00001000
00010000
00000000
,
00002000
00000000
00103000
00000000
,
00200000
00010000
00310000
00000000
,
00020000
01030000
20000000
31000000
,
00010000
00110000
10000000
10100000
,
00010000
00110000
00101000
00011000
,
00010000
00000100
00010000
00000000
00001000
01000000
00001000
00000000
,
00010000
00001000
00010000
00001000
00020000
00000000
00030000
00000000
,
00022000
00000000
00000000
00033000
,
00001000
00010000
00000100
00001000
00000100
00000010
00000001
00000000
,
00000010
00000001
00000100
00000010
00001000
00000010
00000100
00000000
,
00000001
00000110
00001000
00000110
,
00000001
00000100
00000010
00000100
00001000
00010000
00001000
00000000
,
00200000
00000000
00310000
00010000
02000000
00000000
03100000
00100000
,
10000000
00000000
01000000
00000000
00100000
00000000
00001000
00010000
00000000
00000000
00000000
00000000
00000000
00000000
00010000
00000000
,
00000100
00001000
00000100
00000010
00000001
00000100
00000010
00001000
,
00000002
00000203
00000320
00002030
00003200
00020300
00032000
00003000
,
00010000
00001000
01000000
00010000
01000000
00100000
10000000
00000000
,
00100000
10000000
01000000
00100000
00010000
00100000
01000000
00000000
,
10000000
01100000
00010000
01100000
,
10000000
01000000
00100000
01000000
00010000
00001000
00010000
00000000
,
00000020
00000000
00001030
00001000
00000200
00000000
00000310
00000010
,
00000001
00000000
00000100
00000000
00000010
00000000
00010000
00001000
00000000
00000000
00000000
00000000
00000000
00000000
00001000
00000000
,
01000000
00010000
01000000
00100000
10000000
01000000
00100000
00010000
,
20000000
32000000
03200000
00320000
02030000
03002000
00023000
00030000
,
00001000
00000010
00000010
00000000
00000001
00000001
00000000
00001000
,
00000000
00002002
00000000
00000000
,
00003003
00000000
00000000
00000000
,
00000000
00000000
00000000
00000000
;
#NOTES:
     dance-double:
     :
     Hard:
     14:
     :
00000000
00000000
00000000
00000000
,
00000000
00000000
00000000
00000000
,
00000000
00000000
00000000
00000000
,
00000000
00000000
00000000
00000000
,
00000000
00000000
00000000
00000000
,
00000000
00000000
00000000
00000000
,
00002000
00023000
00230000
00320000
00032000
00023000
02030000
03020000
,
00031000
00000000
00000000
00000000
00011000
00000000
00000000
00000000
00001000
00010000
00000000
00010000
00001000
00000000
00000000
00000000
,
00020000
00032000
00003020
00002030
00023000
00032000
00003200
00002300
,
00013000
00000000
00000000
00000000
00011000
00000000
00000000
00001000
00010000
00000000
00000100
00000000
00001000
00000010
00001000
00000000
,
00000100
00000010
00000001
00000100
00001000
00010000
00100000
10000000
,
02000000
00000000
03010000
01000000
20000000
00000000
30100000
00010000
,
00001000
00000000
00011000
00001000
00100000
00001000
00010000
00001000
,
00000200
00000000
00000301
00000010
00002000
00000000
00003001
00000100
,
00001000
00000000
00000110
00000000
00000001
00000010
00001000
00010000
,
02000000
00000000
13000000
00100000
02000000
00000000
03010000
00100000
,
02000000
00000000
13000000
00100000
01000000
00010000
00100000
00001000
,
00020000
00000000
00000000
00000000
00030000
00000000
00001000
00010000
00002000
00000000
00000000
00000000
00003000
00000000
00000000
00000000
,
00001000
00000010
00000100
00010000
00001000
00000100
00000010
00010000
,
00001000
00100000
01000000
00010000
00001000
00010000
00100000
01000000
,
00001000
00010000
00000100
00000010
00001000
00010000
00001000
00000100
,
00000010
00000100
00001000
00010000
00100000
00000000
10000000
01000000
,
00110000
00000000
00000000
00010000
00000000
00000000
10010000
00000000
00000000
00000000
00000000
00000000
10000000
00000000
01000000
00000000
,
00010000
00000000
00000000
00001000
00000000
00000000
00000110
00000000
00000000
00000000
00000000
00000000
00000001
00000000
00000002
00000000
,
00000000
00000000
00000000
00000003
,
00000001
00000000
00000100
00000000
00001000
00010000
00000000
00100000
00000000
10000000
00100000
00000000
10000000
00000000
00000000
00000000
,
10000000
00000000
01000000
00000000
00010000
00000000
00001000
00010000
00000000
00000000
00001000
00000000
00000100
00000000
00000001
00000000
,
00000010
00000000
00001000
00000000
00000001
00000000
00000100
00001000
00000000
00000000
00000001
00000000
00000100
00000000
00001000
00000000
,
00010000
00100000
00010000
00001000
00000010
00001000
00010000
01000000
,
00010000
00000000
00001000
00020000
00000000
00000000
00000000
00000000
00031000
00000000
00000010
00000000
00000001
00000000
00000100
00000000
,
00001000
00001000
00010000
00100000
10000000
10000000
01000000
00010000
,
00001000
00000000
00100000
00000000
00001000
00000000
00000010
00000002
00000000
00000000
00000000
00000000
00000003
00000000
00001000
00000000
,
00000001
00000000
00000100
00000010
00000100
00000000
00000001
00000000
00000010
00000000
00001000
00000000
00010000
00000000
00001000
00010000
,
00002000
00023000
00032000
00003200
00002300
00023000
00032000
00003200
,
00000301
00000000
00000010
00000000
00001000
00000000
00010000
00001000
00000000
00000000
00010000
00000000
00100000
00000000
10000000
00000000
,
01000000
00000000
00010000
00000000
10000000
00000000
00100000
00010000
00000000
00000000
10000000
00000000
00100000
00000000
00010000
00000000
,
00001000
00000100
00001000
00010000
01000000
00010000
00001000
00000010
,
00001000
00000000
00010000
00002000
00000000
00000000
00000000
00000000
00013000
00000000
01000000
00000000
10000000
00000000
00100000
00000000
,
00010000
00010000
00001000
00000100
00000001
00000001
00000010
00001000
,
00010000
00000000
00000100
00000000
00010000
00000000
01000000
20000000
00000000
00000000
00000000
00000000
30000000
00000000
00010000
00000000
,
10000000
00000000
00100000
01000000
00100000
00000000
10000000
00000000
01000000
00000000
00010000
00000000
00001000
00000000
00010000
00001000
,
00020000
00000000
00000000
00000000
00000000
00030000
00010000
00001000
,
00000010
00000000
00000001
00000000
00000100
00000000
00000010
00001000
00000000
00000000
00000000
00000000
00000010
00000000
00000100
00000000
,
00000001
00000000
00000010
00000000
00001000
00000000
00010000
00001000
00000000
00000000
00000000
00000000
00000000
00000000
00001000
00000000
,
00010000
00100000
01000000
00001000
00010000
00100000
01000000
10000000
,
01000000
00000000
00010000
20000000
00000000
00000000
00000000
00000000
30000000
00000000
00000000
00000000
10000000
00000000
01000000
00000000
,
00010000
00000000
00010000
00001000
00000010
00000000
00000010
00000001
,
00000100
00000000
00000010
00000000
00001000
00000000
00000100
00010000
00000000
00000000
00000000
00000000
00000000
00000000
00010000
00000000
,
00002000
00000000
00000000
00000000
01003000
00000000
00010000
00000000
00100000
00000000
00010000
00000000
01000000
00000000
00100000
10000000
,
00100000
00100000
01100000
00000000
01000000
01000000
01010000
00000000
,
00010000
00000000
00010000
00000000
00110000
00000000
00000000
00000000
00100000
00001000
00000000
00010000
00001000
00000000
00010000
00000000
,
00001000
00101000
00001000
01001000
00010000
00010010
00010000
00010100
,
00001000
00000000
01001000
00000000
00010000
00000000
00010100
00000000
00001000
00010000
00001000
00010000
00002000
00000000
00000000
00000000
,
00013000
00000000
00001000
00000000
00000010
00000000
00000001
00002000
00000000
00000000
00000000
00000000
00003000
00000000
00000000
00000000
,
00000001
00000000
00000010
00000000
00001000
00000000
00010000
00001000
00000000
00000100
00000000
00000010
00001000
00000000
00000010
00010000
,
00000010
00000000
00010000
00000000
00001000
00000000
00100000
00010000
00100000
00010000
00000000
00100000
01000000
00000000
10000000
00000000
,
00100000
00010000
00001000
00010000
01000000
00100000
00010000
01000000
,
00100000
00000000
00010000
00002000
00000000
00000000
00000000
00000000
00003000
00000000
00000000
00000000
00001000
00000000
00010000
00000000
,
00010100
00000100
00001000
00000010
00000110
00000100
00000001
00000010
,
00001000
00000000
00000001
00000000
00000100
00000000
00001000
00000100
00001000
00000100
00000000
00010000
00001000
00000000
00010000
00000000
,
00001000
00000000
01000000
00000000
00100000
00000000
00010000
00000000
00001000
00000000
00010000
00000000
00100000
00000000
01000000
00001000
,
00020000
00032000
00023000
02030000
03020000
00032000
00023000
00230000
,
10300000
00000000
00100000
00000000
00010000
00000000
00001000
00010000
00000000
01000000
00000000
00100000
00010000
00000000
00100000
00001000
,
00100000
00000000
00001000
00000000
00010000
00000000
00000010
00001000
00000010
00001000
00000000
00000010
00000100
00000000
00000001
00000000
,
00000010
00001000
00010000
00001000
00000100
00000010
00001000
00000100
,
00000010
00000000
00001000
00020000
00000000
00000000
00000000
00000000
00030000
00000000
00000000
00000000
00010000
00000000
00001000
00000000
,
01001000
01000000
00010000
00100000
01100000
01000000
10000000
00100000
,
00010000
00000000
10000000
00000000
01000000
00000000
00010000
01000000
00010000
01000000
00000000
00001000
00010000
00000000
00001000
00000000
,
00010000
00000000
00000100
00000000
00000010
00000000
00001000
00000000
00010000
00000000
00001000
00000000
00000010
00000000
00000100
00010000
,
00002000
00023000
00032000
00003200
00002300
00023000
00032000
00003020
,
00000031
00000000
00000100
00000010
00000100
00000000
00001000
00000000
00010000
00001000
00010000
00000000
00100000
00000000
01000000
00000000
,
00000000
20020000
00000000
00000000
,
30030000
00000000
00000000
00000000
,
00000000
00000000
00000000
00000000
;
