
//----- song ID: sett -----//
#TITLE:Settin' the Scene;
#ARTIST:U1 night style;
#BANNER:Settin' the Scene.png;
#BACKGROUND:Settin' the Scene-bg.png;
#CDTITLE:./CDTitles/DDR HOTTEST PARTY2.png;
#MUSIC:Settin' the Scene.ogg;
#SAMPLESTART:76.364;
#SAMPLELENGTH:15;
#BPMS:0=110;
#STAGE:17;
#NOTES:
     dance-single:
     :
     Beginner:
     1:
     :
0000
0000
0000
0000
,
0000
0000
0000
0000
,
0000
0000
0000
0000
,
0001
0000
0000
0000
,
1000
0000
0000
0000
,
0001
0000
0000
0000
,
1000
0000
0000
0000
,
0010
0000
0000
0000
,
0100
0000
0000
0000
,
0010
0000
0000
0000
,
0100
0000
0000
0000
,
0001
0000
0000
0000
,
0001
0000
0000
0000
,
1000
0000
0000
0000
,
1000
0000
0000
0000
,
0010
0000
0000
0000
,
0010
0000
0000
0000
,
0100
0000
0000
0000
,
0100
0000
0000
0000
,
0002
0000
0000
0003
,
0000
0000
0000
0000
,
2000
0000
0000
3000
,
0000
0000
0000
0000
,
0020
0000
0000
0030
,
0000
0000
0000
0000
,
0200
0000
0000
0300
,
0000
0000
0000
0000
,
0001
0000
0001
0000
,
0001
0000
0000
0000
,
1000
0000
1000
0000
,
1000
0000
0000
0000
,
0010
0000
0000
0000
,
0100
0000
0000
0000
,
0001
0000
0000
0000
,
1000
0000
0000
0000
,
0010
0000
0000
0000
,
0010
0000
0000
0000
,
0100
0000
0000
0000
,
0100
0000
0000
0000
,
0001
0000
0000
0000
,
0001
0000
0000
0000
,
1000
0000
0000
0000
,
1000
0000
0000
0000
,
0100
0000
0000
0000
,
0000
0000
0000
0000
;
#NOTES:
     dance-single:
     :
     Easy:
     4:
     :
0000
0000
0000
0000
,
0000
0000
0000
0000
,
0000
0000
0000
0000
,
1000
0000
0001
0000
,
1000
0000
0000
0000
,
0010
0000
0100
0000
,
0010
0000
0000
0000
,
1000
0000
0010
0000
,
0100
0000
0000
0000
,
0001
0000
0010
0000
,
0100
0000
0000
0000
,
1000
0000
0100
0000
,
0001
0000
0100
0000
,
1000
0000
0010
0000
,
0001
0000
0010
0000
,
1000
0000
0001
0000
,
0100
0000
0010
0000
,
1000
0000
0001
0000
,
1000
0000
0100
0100
,
0020
0000
0000
0030
,
0002
0000
0000
0003
,
0200
0000
0000
0300
,
0020
0000
0000
0030
,
2000
0000
0000
3000
,
0200
0000
0000
0300
,
0020
0000
0000
0030
,
0002
0000
0000
0003
,
1000
0001
1000
0000
,
0010
0100
0010
0000
,
1000
0100
0010
0001
,
0100
0000
0010
0000
,
1000
0100
1000
0000
,
0001
0100
0001
0000
,
0010
0100
0010
0000
,
0100
0010
0100
0010
,
0100
0000
1000
0000
,
2000
0000
0000
3000
,
0010
0000
0100
0000
,
0200
0000
0000
0300
,
0001
0000
0010
0000
,
0020
0000
0000
0030
,
0001
0000
0001
0000
,
0002
0000
0000
0003
,
0100
0000
0000
0000
,
0000
0000
0000
0000
;
#NOTES:
     dance-single:
     :
     Medium:
     9:
     :
0000
0000
0000
0000
,
0000
0000
0000
0000
,
0000
0000
0000
0000
,
0010
1000
0010
0000
0001
0010
0001
0000
,
0100
1000
0100
0000
0001
0000
0000
0000
,
0100
0001
0100
0000
1000
0100
1000
0000
,
0001
0010
0100
1000
,
0010
1000
0010
0000
0010
0001
0010
0000
,
0010
1000
0010
0000
1000
0000
0001
0000
,
0100
1000
0100
0000
0100
0001
0100
0000
,
0001
0010
0100
1000
,
0001
0000
1000
0000
0001
0100
1000
0000
,
0100
0000
0001
0000
1000
0100
0001
0000
,
0100
0000
1000
0000
0010
0100
0001
0000
,
0010
0000
0100
0000
1000
0010
0100
0000
,
0001
0000
1000
0000
0001
0010
1000
0000
,
0010
0000
0001
0000
1000
0010
0001
0000
,
0010
0000
0100
0000
0001
0100
0010
1000
,
0001
0010
0100
1001
,
0020
0001
0001
0031
,
0002
1000
1000
1003
,
2000
0100
0100
3100
,
0200
0010
0010
0310
,
0001
0100
0001
0101
,
0100
0010
0100
0110
,
0010
1000
0010
1010
,
1000
0100
1000
1100
,
0001
0000
0010
0000
0100
1000
0010
0000
,
0100
0000
0001
0000
0010
0001
0100
0000
,
0010
0000
1000
0000
0100
1000
0010
0000
,
1000
0100
0001
1001
,
0010
1000
0010
0000
1000
0100
1000
0000
,
0001
0100
0001
0000
0010
0001
0010
0000
,
0100
0010
0100
0000
1000
0001
1000
0000
,
0001
0100
1000
1001
,
0001
0100
1000
0000
0001
0010
1000
0000
,
0001
0100
1000
0100
0001
1000
0001
0000
,
0010
0001
0010
0000
0100
1000
0100
0000
,
1000
0100
0001
1001
,
1000
0100
0001
0000
1000
0010
0001
0000
,
1000
0100
0001
0100
1000
0001
1000
0000
,
0010
1000
0010
0000
0100
0001
0100
0000
,
0001
0100
1000
1001
,
0100
0000
0000
0000
,
0000
0000
0000
0000
;
#NOTES:
     dance-single:
     :
     Hard:
     12:
     :
0000
0000
0000
0000
,
0000
0000
0000
0000
,
0000
0000
0000
0000
,
0100
0000
0001
0100
0001
0100
0000
0000
0010
0100
0010
0100
0000
0000
1000
0100
,
1000
0100
0000
0000
0010
0100
0010
0100
0000
0000
0000
0000
1000
0000
0100
0000
,
0010
0000
0001
0010
0001
0010
0000
0000
1000
0010
1000
0010
0000
0000
0000
0000
,
0001
1000
0000
0000
1000
0100
0000
0000
0100
0010
0000
0000
0010
0001
0000
0000
,
0100
0000
0001
0100
0001
0100
0000
0000
0010
0100
0010
0100
0000
0000
1000
0100
,
1000
0100
0000
0000
0010
0100
0010
0100
0000
0000
0000
0000
0001
0000
0100
0000
,
0010
0000
1000
0010
1000
0010
0000
0000
0100
0001
0100
0001
0000
0000
0000
0000
,
0001
1000
0000
0000
1000
0010
0000
0000
0010
0100
0000
0000
0100
0001
0000
0000
,
1000
0000
0100
0000
0001
0000
0100
0000
1000
0000
0001
1000
0000
0000
0001
0000
,
0100
0000
1000
0000
0100
0000
0001
0000
0100
0000
0001
1000
0000
0000
0001
0000
,
1000
0000
0001
0000
0010
0000
1000
0000
0010
0000
0001
1000
0000
0000
0001
0000
,
1000
0000
0010
0000
0001
0000
0010
0000
1000
0000
0001
1000
0000
0000
0000
0001
,
0000
1000
0000
0100
1000
0000
0100
0000
0001
0000
0100
1000
0000
0001
0000
0100
,
0000
1000
0000
0100
0001
0000
0010
0000
1000
0000
0010
0001
0000
1000
0000
0000
,
0001
0100
0000
1000
0100
0000
0010
0000
0001
0000
0010
0000
1000
0000
0001
0000
,
1001
0000
0010
0000
1000
0001
1100
0000
,
0001
1000
0010
0100
0001
0010
0100
1000
,
0002
0000
1000
0000
0103
0100
0100
0001
,
1000
0001
0100
0010
1000
0100
0010
0001
,
2000
0000
0001
0000
3010
0010
0010
1000
,
0001
0010
1000
0010
0001
0100
1000
0100
,
0002
0000
0100
0000
1003
1000
1000
0010
,
1000
0100
0001
0100
1000
0010
0001
0010
,
2000
0000
0010
0000
3001
0001
0001
0001
,
1000
0000
0010
1000
0010
1000
0000
0000
1000
0100
1000
0100
0000
0000
0100
0001
,
0100
0001
0000
0000
0001
0010
0001
0010
0000
0000
1000
0000
0001
0000
0100
0000
,
0010
0000
1000
0100
1000
0100
0000
0000
0100
0001
0100
0001
0000
0000
0000
0000
,
1000
0010
0000
0000
0010
0001
0000
0000
0001
0100
0000
0000
0100
1000
0000
0000
,
1000
0100
0001
0100
1000
0001
1001
0000
,
0001
0100
1000
0100
0001
1000
1001
0000
,
1000
0010
0100
1000
0100
0001
0010
0100
,
1000
0000
0000
0001
0100
0000
0000
0100
1000
0000
1000
0000
1000
0000
1000
0000
,
0001
0100
1000
0100
0001
1000
0010
0001
,
0010
1000
0001
1000
0010
0100
1001
0000
,
1000
0100
0001
0100
1000
0001
0010
1000
,
0010
0100
0000
0000
0100
1000
0000
0000
1000
0001
0000
0000
0001
0100
0000
0000
,
0001
0100
1000
0001
0010
1000
0001
0100
,
1000
0001
0010
1000
0001
0100
1001
0000
,
1000
0100
0001
1000
0010
0001
1000
0100
,
0010
0100
0000
0000
0100
1000
0000
0000
1000
0010
0000
0000
0010
0001
0000
0000
,
0100
0000
0000
0000
,
0000
0000
0000
0000
;
#NOTES:
     dance-double:
     :
     Easy:
     3:
     :
00000000
00000000
00000000
00000000
,
00000000
00000000
00000000
00000000
,
00000000
00000000
00000000
00000000
,
00000001
00000000
00000100
00000000
,
00000001
00000000
00000000
00000000
,
00000010
00000000
00001000
00000000
,
00000010
00000000
00000000
00000000
,
00010000
00000000
00001000
00000000
,
00010000
00000000
00000000
00000000
,
00100000
00000000
00010000
00000000
,
00100000
00000000
00000000
00000000
,
10000000
00000000
01000000
00000000
,
00010000
00000000
01000000
00000000
,
00100000
00000000
00001000
00000000
,
00010000
00000000
00000010
00000000
,
00001000
00000000
00000001
00000000
,
00000100
00000000
00001000
00000000
,
00000001
00000000
00001000
00000000
,
00000001
00000000
00000100
00000100
,
00002000
00000000
00000000
00003000
,
00200000
00000000
00000000
00300000
,
00002000
00000000
00000000
00003000
,
02000000
00000000
00000000
03000000
,
00020000
00000000
00000000
00030000
,
20000000
00000000
00000000
30000000
,
02000000
00000000
00000000
03000000
,
00020000
00000000
00000000
00030000
,
00001000
00010000
00001000
00000000
,
00000100
00001000
00000100
00000000
,
00000010
00000100
00000010
00000100
,
00000010
00000000
00001000
00000000
,
00000001
00000010
00000001
00000000
,
00001000
00000100
00001000
00000000
,
00010000
00001000
00010000
00000000
,
00001000
00100000
00010000
10000000
,
01000000
00000000
10000000
00000000
,
00020000
00000000
00000000
00030000
,
01000000
00000000
00100000
00000000
,
00200000
00000000
00000000
00300000
,
01000000
00000000
00001000
00000000
,
00020000
00000000
00000000
00030000
,
00001000
00000000
00000100
00000000
,
00002000
00000000
00000000
00003000
,
00000100
00000000
00000000
00000000
,
00000000
00000000
00000000
00000000
;
#NOTES:
     dance-double:
     :
     Medium:
     8:
     :
00000000
00000000
00000000
00000000
,
00000000
00000000
00000000
00000000
,
00000000
00000000
00000000
00000000
,
00100000
00000000
00100000
00000000
00001000
00010000
00001000
00000000
,
01000000
00000000
01000000
00000000
00010000
00100000
00010000
00000000
,
10000000
00000000
10000000
00000000
00010000
01000000
00010000
00000000
,
00100000
00001000
00010000
00000100
,
00001000
00000000
00000010
00000000
00000100
00000001
00000100
00000000
,
00000010
00000000
00001000
00000000
00000100
00010000
00000100
00000000
,
00100000
00000000
00010000
00000000
10000000
01000000
10000000
00000000
,
01000000
00100000
00001000
00010000
,
00000010
00000000
00000100
00000000
00000001
00001000
00000100
00000000
,
00010000
00000000
00001000
00000000
00100000
00010000
01000000
00000000
,
00010000
00000000
01000000
00000000
10000000
01000000
00010000
00000000
,
00100000
00000000
01000000
00000000
00010000
01000000
10000000
00000000
,
00010000
00100000
00110000
00011000
,
00000100
00001000
00001100
00000110
,
00000001
00001000
00000010
00000100
,
00000010
00000000
00000110
00001001
,
00002000
00000100
00000000
00003100
,
00020000
00001000
00000000
00031000
,
00200000
00010000
00000000
00310000
,
02000000
00100000
00000000
03100000
,
10000000
01000000
10000000
11000000
,
01000000
00100000
01000000
01100000
,
00100000
00010000
00100000
00110000
,
00010000
00010000
00010000
00011000
,
00001000
00000000
00010000
00000000
00001000
00010000
00000100
00000000
,
00001000
00000000
00000010
00000000
00000100
00000001
00001000
00000000
,
00000010
00000000
00001000
00000000
00000001
00000010
00000100
00000000
,
00010000
00001000
00100000
01000000
,
00100000
00010000
00100000
00000000
01000000
10000000
01000000
00000000
,
10000000
00100000
10000000
00000000
00100000
00010000
00100000
00000000
,
00010000
00001000
00010000
00000000
00000100
00001000
00000100
00000000
,
00000010
00001000
00010000
00011000
,
00000100
00000000
00001000
00000000
00000010
00001000
00000010
00000000
,
00001000
00000010
00010000
00001000
00100000
00010000
10000000
00000000
,
00100000
00000000
01000000
00000000
00010000
01000000
00010000
00000000
,
01000000
00001000
00010000
00001100
,
00001000
00000000
00000001
00000000
00000100
00000010
00000100
00000000
,
00000010
00001000
00000100
00010000
00001000
00100000
00010000
00000000
,
00100000
00000000
01000000
00000000
10000000
01000000
10000000
00000000
,
01000000
00010000
00001000
00000010
,
00000100
00000000
00000000
00000000
,
00000000
00000000
00000000
00000000
;
#NOTES:
     dance-double:
     :
     Hard:
     11:
     :
00000000
00000000
00000000
00000000
,
00000000
00000000
00000000
00000000
,
00000000
00000000
00000000
00000000
,
00000001
00000000
00001000
00000100
00001000
00000100
00000000
00000000
00000100
00000001
00000100
00000001
00000000
00000000
00000001
00000010
,
00000001
00000010
00000000
00000000
00000010
00001000
00000010
00001000
00000000
00000000
00000000
00000000
00010000
00000000
00001000
00000000
,
00100000
00000000
00001000
00010000
00001000
00010000
00000000
00000000
00010000
00100000
00010000
00100000
00000000
00000000
00000000
00000000
,
00100000
10000000
00000000
00000000
10000000
01000000
00000000
00000000
01000000
00010000
00000000
00000000
00010000
00100000
00000000
00000000
,
00001000
00000000
00010000
00001000
00010000
00001000
00000000
00000000
00001000
00000010
00001000
00000010
00000000
00000000
00000010
00000001
,
00000010
00000001
00000000
00000000
00000001
00000100
00000001
00000100
00000000
00000000
00000000
00000000
00001000
00000000
00000100
00000000
,
00010000
00000000
00000100
00010000
00000100
00010000
00000000
00000000
00001000
00100000
00001000
00100000
00000000
00000000
00000000
00000000
,
00010000
01000000
00000000
00000000
01000000
10000000
00000000
00000000
10000000
00100000
00000000
00000000
00100000
00010000
00000000
00000000
,
00010000
01000000
10000000
01000000
00010000
10000000
10010000
00000000
,
10000000
01000000
00010000
00001000
00000010
00000001
00001001
00000000
,
00001000
00000100
00000001
00000100
00001000
00000001
00001001
00000000
,
00000001
00000100
00001000
00010000
00100000
10000000
10010000
00000000
,
10000000
01000000
01100000
00000000
00100000
00010000
10010000
00000000
,
10000000
00100000
00010000
00001000
00000100
00000010
00001010
00000000
,
00001000
00000100
00000000
00000001
00000100
00000000
00001000
00000000
00000100
00000000
00000010
00000000
00000001
00000000
00000010
00000000
,
00000110
00000000
00010100
00000000
00001000
00100000
00110000
00000000
,
00010000
10000000
00100000
01000000
00010000
00100000
01000000
10000000
,
00020000
00000000
00100000
00000000
10000000
00000000
01030000
00010000
,
00100000
00001000
00010000
00000100
00001000
00000010
00000100
00000001
,
00002000
00000000
00000010
00000000
00000001
00000000
00003100
00001000
,
00000001
00000100
00001000
00000100
00000010
00001000
00000100
00010000
,
00002000
00000000
00010000
00000000
00000100
00000000
00013000
00001000
,
00100000
00010000
10000000
01000000
00010000
01000000
00100000
00001000
,
00020000
00000000
00001000
00000000
01000000
00000000
00031000
00010000
,
00000100
00000000
00001000
00000100
00001000
00000100
00000000
00000000
00001000
00000010
00001000
00000010
00000000
00000000
00000100
00000010
,
00000100
00000010
00000000
00000000
00000100
00000001
00000100
00000001
00000000
00000000
00001000
00000000
00000010
00000000
00000100
00000000
,
00001000
00000000
00010000
00001000
00010000
00001000
00000000
00000000
00100000
00010000
00100000
00010000
00000000
00000000
00000000
00000000
,
01000000
00010000
00000000
00000000
00010000
00100000
00000000
00000000
00100000
10000000
00000000
00000000
10000000
00010000
00000000
00000000
,
00010000
01000000
10000000
01000000
00010000
10000000
10010000
00000000
,
10000000
01000000
00010000
00001000
00000010
00000001
00001001
00000000
,
00001000
00000100
00000001
00000100
00001000
00000001
00001001
00000000
,
00000001
00000000
00000000
00001000
00000100
00000000
00000000
00010000
00001000
00000000
00001000
00000000
00001000
00000000
00001000
00000000
,
00100000
00010000
00100000
10000000
00100000
00010000
01000000
10000000
,
01000000
00010000
01000000
00100000
00010000
00001000
00011000
00000000
,
00000010
00001000
00000010
00000001
00000010
00001000
00000100
00000001
,
00000100
00001000
00000000
00000000
00000100
00000001
00000000
00000000
00000100
00001000
00000000
00000000
00000100
00000001
00000000
00000000
,
00000100
00001000
00000010
00000100
00001000
00010000
00001000
01000000
,
00010000
00100000
10000000
00100000
01000000
00010000
00011000
00000000
,
00000100
00001000
00000010
00000001
00001000
00000100
00000001
00000010
,
00000100
00001000
00000000
00000000
00001000
00010000
00000000
00000000
00010000
00100000
00000000
00000000
00100000
10000000
00000000
00000000
,
01000000
00000000
00000000
00000000
,
00000000
00000000
00000000
00000000
;
