
//----- song ID: senk -----//
#TITLE:千客万来☆無問題!;
#ARTIST:ここなつ Produced by uma;
#TITLETRANSLIT:Senkyakubanrai moumantai!;
#ARTISTTRANSLIT:CocoNatsu Produced by uma;
#BANNER:Senkyakubanrai moumantai!.png;
#BACKGROUND:Senkyakubanrai moumantai!-bg.png;
#CDTITLE:./CDTitles/SDVX III GRAVITY WARS.png;
#MUSIC:Senkyakubanrai moumantai!.ogg;
#SAMPLESTART:61.376;
#SAMPLELENGTH:15;
#BPMS:0=168;
#BGSTAGE:17;
#NOTES:
     dance-single:
     :
     Beginner:
     3:
     :
0000
0000
0000
0000
,
0000
0000
0000
0000
,
0000
0000
0000
0000
,
0000
0000
0000
0000
,
0000
0000
0000
0000
,
1000
0000
0000
0000
,
1000
0000
0000
0000
,
1000
0000
0000
0000
,
0000
0000
0000
0000
,
0001
0000
0000
0000
,
0001
0000
0000
0000
,
0010
0000
0000
0000
,
0000
0000
0000
0000
,
0001
0000
0000
0000
,
0001
0000
0000
0000
,
0100
0000
0000
0000
,
0000
0000
0000
0000
,
0001
0000
0001
0000
,
0010
0000
0000
0000
,
0001
0000
0000
0000
,
0000
0000
0000
0000
,
1000
0000
1000
0000
,
0010
0000
0000
0000
,
1000
0000
0000
0000
,
0000
0000
0000
0000
,
0001
0000
0001
0000
,
0100
0000
0000
0000
,
0010
0000
0000
0000
,
0000
0000
0000
0000
,
1000
0000
1000
0000
,
0100
0000
0000
0000
,
0010
0000
0000
0000
,
0000
0000
0000
0000
,
0001
0000
0000
0000
,
0100
0000
0000
0000
,
0010
0000
0001
0000
,
0010
0000
0000
0000
,
0001
0000
0000
0000
,
0010
0000
0000
0000
,
0100
0000
0001
0000
,
0100
0000
0000
0000
,
1001
0000
0000
0000
,
0000
0000
0000
0000
,
1000
0000
0000
0000
,
0100
0000
0000
0000
,
0001
0000
0001
0000
,
0001
0000
0000
0000
,
0001
0000
0000
0000
,
0010
0000
0000
0000
,
1000
0000
1000
0000
,
1000
0000
0000
0000
,
0010
0000
0000
0000
,
0100
0000
0000
0000
,
0010
0000
0100
0000
,
0010
0000
0000
0000
,
0100
0000
0000
0000
,
0010
0000
0000
0000
,
0001
0000
1000
0000
,
0001
0000
0000
0000
,
1001
0000
0000
0000
,
0000
0000
0000
0000
,
1001
0000
0000
0000
,
0000
0000
0000
0000
,
0001
0000
0000
0000
,
0010
0000
0000
0000
,
1000
0000
0000
0000
,
1000
0000
0000
0000
,
1001
0000
0000
0000
,
0000
0000
0000
0000
,
1000
0000
0100
0000
,
0010
0000
0000
0000
,
0001
0000
0000
0000
,
0000
0000
0000
0000
,
0001
0000
0100
0000
,
0010
0000
0000
0000
,
1000
0000
0000
0000
,
0000
0000
0000
0000
,
1000
0000
0100
0000
,
0001
0000
0000
0000
,
0001
0000
0000
0000
,
1001
0000
0000
0000
,
0001
0000
0010
0000
,
1000
0000
0000
0000
,
0001
0000
0000
0000
,
1001
0000
0000
0000
,
1000
0000
0000
0000
,
0010
0000
0000
0000
,
0100
0000
0100
0000
,
0010
0000
0000
0000
,
0001
0000
0000
0000
,
0010
0000
0000
0000
,
0100
0000
0100
0000
,
0000
0000
0000
1001
,
0000
0000
0000
0000
;
#NOTES:
     dance-single:
     :
     Easy:
     6:
     :
0000
0000
0000
0000
,
0000
0000
0000
0000
,
0000
0000
0000
0000
,
0000
0000
0000
0000
,
0000
0000
0000
0000
,
1000
0010
1000
0000
,
1000
0100
1000
0000
,
0001
0010
0001
0100
,
0002
0000
0000
0003
,
0001
0001
0100
0000
,
0001
0001
0010
0000
,
1001
0000
0110
0000
,
1001
0000
0000
0000
,
1000
1000
0010
0000
,
1000
1000
0100
0000
,
1001
0000
0110
0000
,
1001
0000
0000
0000
,
1000
0100
0010
0000
,
0010
0100
1000
0000
,
1000
0100
1000
0010
,
2000
0000
0000
3000
,
0001
0100
0010
0000
,
0010
0100
0001
0000
,
0001
0100
0001
0010
,
0002
0000
0000
0003
,
1000
1000
0010
0000
,
0010
0100
0010
0000
,
1000
0100
1000
0010
,
0100
0000
0110
0000
,
0001
0001
0010
0000
,
0010
0100
0010
0000
,
0001
0100
0001
0010
,
0100
0000
0110
0000
,
1000
0010
1000
0000
,
0010
0010
0100
0000
,
0010
1000
0010
0000
,
1000
0100
1000
0000
,
1000
0100
1000
0000
,
0100
0100
0010
0000
,
0100
1000
0100
0000
,
1000
0010
1000
0000
,
2000
0000
0000
0000
,
3000
0000
0000
0000
,
1000
0100
0010
0001
,
1000
0000
1001
0000
,
0001
1000
0010
0000
,
1000
0001
0010
0000
,
0001
0010
0100
1000
,
0001
0000
1001
0000
,
1000
0001
0100
0000
,
0001
1000
0100
0000
,
1000
0100
1000
0001
,
0010
0010
0001
0000
,
1000
1000
0010
0010
,
1000
0001
0010
0000
,
0001
0010
0001
1000
,
0100
0100
1000
0000
,
0001
0100
0010
1000
,
0010
0100
0110
0000
,
0110
0000
1000
0000
,
0110
0000
1000
0000
,
2000
0000
0000
3000
,
0200
0000
0000
0300
,
1000
0010
1000
0000
,
0010
1000
0010
0000
,
0100
0010
0100
0000
,
1001
0000
0000
0000
,
1001
0000
0000
0000
,
0000
0000
0000
0000
,
0001
0100
0010
1000
,
0001
1000
1001
0000
,
1000
0010
0100
0010
,
1000
1000
1000
0000
,
1000
0100
0010
0001
,
1000
0001
1001
0000
,
0001
0010
0100
0010
,
0001
0001
0001
0000
,
1000
1000
0001
0001
,
1001
0000
0110
0000
,
1000
1000
0010
0010
,
1000
0100
0010
0000
,
0001
0001
1000
1000
,
1001
0000
0110
0000
,
1000
1000
0001
0001
,
0100
0010
1001
0000
,
0001
0100
0001
0000
,
0001
0010
0001
0000
,
1000
0000
0010
0000
,
0100
0100
0110
0000
,
1000
0001
0100
0000
,
0001
1000
0010
0000
,
1001
0000
0110
0000
,
0000
1000
0001
1001
,
0000
0000
0000
0000
;
#NOTES:
     dance-single:
     :
     Medium:
     12:
     :
0000
0000
0000
0000
,
0000
0000
0000
0000
,
0000
0000
0000
0000
,
0000
0000
0000
0000
,
0000
0000
0000
0000
,
1000
0010
1000
0000
0001
0010
0001
0000
,
1000
0001
1000
0001
2000
0000
3000
0000
,
0000
0001
0100
0000
0001
1000
0010
0000
,
0100
0000
0000
0100
0000
0000
0200
0000
0000
0000
0000
0000
0300
0000
0000
0000
,
0001
0100
0010
1000
0001
0100
0010
0000
,
1010
0101
2002
3003
,
1000
0100
0001
0000
1000
0010
0001
0000
,
1000
0100
0001
0100
2000
0000
3001
0000
,
1000
0100
0010
0001
1000
0100
0010
0000
,
0011
1100
2002
3003
,
0001
0100
1000
0000
0001
0010
1000
0000
,
0001
0000
0000
0100
0000
0000
0001
0000
2002
0000
0000
0000
3003
0000
0000
0000
,
1000
0100
0010
0000
0001
0100
0010
0000
,
1000
0001
0100
0001
0010
0001
1000
0000
,
0000
0001
0100
0000
0001
0010
0001
0000
,
0100
0010
1000
0020
0000
1000
1030
0000
,
0001
0010
0100
0000
1000
0010
0100
0000
,
0001
1000
0010
1000
0100
1000
0001
0000
,
1000
0010
0100
0000
0010
1000
0100
0000
,
0011
0000
1001
0000
1000
0001
1000
0000
,
0001
0000
0000
0001
0100
0000
0000
0000
0010
0000
0000
0010
1000
0000
0000
0000
,
0001
0010
1000
0020
0000
0100
0130
0000
,
1000
0100
0000
0100
0010
0001
0100
0001
,
0010
0100
1000
0001
0000
0010
0011
0000
,
1000
0000
0000
1000
0010
0000
0000
0000
0100
0000
0000
0100
0001
0000
0000
0000
,
1000
0100
0001
0200
0000
0010
0310
0000
,
0001
0010
0100
0000
0010
0100
1000
0000
,
0001
0000
0000
1000
0000
0000
2002
0000
0000
0000
0000
0000
3003
0000
0000
0000
,
1000
0010
0100
0010
1000
0010
0100
0000
,
0100
1000
0100
0010
0100
0001
0100
0000
,
0001
0010
0100
0010
0001
0010
0100
0000
,
0100
0001
0100
0010
0100
1000
0100
0000
,
1000
0001
0010
0100
0001
0100
0010
0000
,
0010
0001
0100
0010
1000
0100
0010
0000
,
0001
1000
0010
0100
1000
0100
0010
0000
,
0010
1000
0100
0010
0001
0100
0010
0000
,
0220
0000
0000
0000
,
0330
0000
0000
0000
,
0011
0000
0101
0000
1010
0000
1100
0100
,
0001
1000
0010
0001
2000
0000
3000
0000
,
1000
0000
0100
0010
0000
0000
0000
0000
0001
0000
0100
0010
0000
0000
0000
0000
,
1000
0010
0100
0001
1000
0000
1001
0000
,
0011
0000
1100
0000
1000
0100
0010
0001
,
1000
0100
0001
0100
1000
0000
0000
0000
,
0001
0000
0100
0001
0000
0000
0000
0000
1000
0000
0010
1000
0000
0000
0000
0000
,
0001
0010
0100
1000
0010
0000
1001
0000
,
1010
0000
1100
0000
0011
0000
0101
0100
,
1000
0001
0010
1000
0002
0000
0003
0000
,
0001
0000
0100
0010
0000
0000
0000
0000
1000
0000
0100
0010
0000
0000
0000
0000
,
0001
0010
0100
1000
0001
0000
1001
0000
,
1010
0000
0101
0000
0001
0100
0010
1000
,
0001
0100
1000
0100
0001
0000
0000
0000
,
1000
0000
0100
1000
0000
0000
0000
0000
0001
0000
0010
0001
0000
0000
0000
0000
,
1000
0010
0100
0001
0010
0000
1001
0000
,
0001
0000
0000
0010
0100
0000
0000
0100
,
1000
0000
0000
1000
0001
0100
0001
0000
,
1000
0000
0000
1000
0010
0000
0000
0010
,
0100
0000
0001
1000
0001
0000
0110
0000
,
1001
0000
0000
0001
0100
0000
0000
1000
,
0100
0000
0000
0001
0010
0100
1000
0000
,
0001
0000
0000
0010
1000
0000
0000
0010
,
0001
0000
1000
0100
0010
0000
0000
0000
,
2002
0000
0000
0000
,
0000
0000
0000
3003
,
1010
0000
0101
0000
0001
0100
0010
1000
,
0100
0010
0100
0010
0200
0000
0300
0000
,
1000
0000
0100
0010
0000
0000
0010
0000
0001
0000
0100
0010
0000
0000
0010
0000
,
1000
0001
0100
0010
2000
0000
3000
0000
,
1001
0000
0110
0000
0001
1000
0100
0000
,
0010
0001
0100
0000
0110
0000
1001
1000
,
0010
0000
0100
0010
0000
0000
0010
0000
1000
0000
0100
0010
0000
0000
0010
0000
,
0000
0010
0001
1000
0002
0000
0003
0000
,
0011
0000
1100
0000
1000
0100
0010
0001
,
0100
0010
0100
0010
0200
0000
0300
0000
,
0001
0000
0100
0010
0000
0000
0010
0000
1000
0000
0100
0010
0000
0000
0010
0000
,
0001
1000
0100
0010
0002
0000
0003
0000
,
1001
0000
0110
0000
1000
0001
0100
0000
,
0010
1000
0100
0000
0110
0000
1001
0001
,
0010
0000
0100
0010
0000
0000
0010
0000
0001
0000
0100
0010
0000
0000
0000
0000
,
0010
1000
0001
0000
2002
0000
3003
0000
,
0001
1000
0100
0000
0010
0001
0100
0000
,
0010
1000
0100
0010
0001
0000
1001
0000
,
0001
0000
0100
0001
0000
0000
0001
0000
1000
0000
0100
0000
1000
0000
0000
0000
,
0001
0100
1000
0100
0002
0000
0003
0000
,
1000
0001
0100
0000
0010
1000
0100
0000
,
0010
0001
0100
0010
1000
0000
1001
0000
,
1000
0000
0100
0000
1000
0000
0001
0010
0001
0000
0100
0000
0010
0000
0100
0000
,
0000
0010
0100
0001
2000
0000
3001
0000
,
0000
0000
0000
0000
;
#NOTES:
     dance-single:
     :
     Hard:
     16:
     :
0000
0000
0000
0000
,
0000
0000
0000
0000
,
0000
0000
0000
0000
,
0000
0000
0000
0000
,
0000
0000
0000
0000
,
1000
0000
0010
0100
0010
0000
0100
0001
0100
0000
0001
1000
0001
0000
1000
0000
,
0100
0010
0001
0010
0100
0000
1000
0000
0002
0000
0100
0000
0103
0000
0000
0000
,
0000
0001
0100
1000
0001
0010
1000
0001
,
0010
0000
0000
0010
0000
0000
0100
0000
1000
0100
0010
0001
1000
0000
0000
0000
,
0001
0000
0010
0100
1000
0000
0010
0100
0001
1000
0000
1000
0001
0000
0100
0000
,
0010
0000
1000
0100
1000
0000
0010
0000
0100
0000
0001
0000
1001
0000
0000
0000
,
0001
0010
0001
0010
0000
0001
0100
0000
0010
1000
0010
0000
0100
0010
0100
0000
,
1000
0000
0100
0000
0001
0000
0010
0100
1000
0000
0001
0000
1001
0000
0000
0000
,
1000
0000
0100
0010
0001
0000
0100
0010
1000
0001
0000
0001
1000
0000
0010
0000
,
0100
0001
0100
0001
0010
0000
0001
0100
0010
0000
1000
0000
1001
0000
0000
0000
,
1000
0100
1000
0000
0100
0000
0100
1000
0010
0000
0100
0001
0100
0000
0010
0000
,
1000
0100
0000
0010
0001
0000
0100
0000
0220
0000
0000
0000
0330
0000
0000
0000
,
1000
0010
0100
0010
1000
0100
0010
0001
,
0100
0000
0010
0000
1000
0000
0001
0000
0100
0000
0001
1000
0001
0000
0100
0000
,
0010
1000
0100
1000
0010
0100
0001
1000
,
0001
0000
0100
0000
1000
0000
0100
0000
0001
0100
0010
0000
1000
0000
0000
0000
,
0001
0100
0010
0100
0001
0010
0100
1000
,
0010
0000
0100
0000
0001
0000
1000
0000
0010
0000
1000
0001
1000
0000
0010
0000
,
0100
0001
0010
0001
0100
0010
1000
0001
,
1000
0000
0000
0000
1001
0000
0000
0000
1000
0100
1000
0100
0010
0001
0010
0001
,
1000
0000
0010
0100
0020
0000
0000
0000
1030
0100
0000
0100
0010
0000
0001
0000
,
1000
0100
0000
0100
0010
0000
0001
0000
1000
0000
0010
0100
0010
0000
0000
0000
,
1000
0000
0100
0010
0001
0000
0100
0000
0001
0010
0000
0010
0100
0000
1000
0000
,
0001
0000
0010
0000
1000
0000
0010
0000
0001
0000
1000
0100
0010
0000
0000
0000
,
0001
0000
0010
0100
0020
0000
0000
0000
0031
0100
0000
0100
0010
0000
1000
0000
,
0001
0100
0000
0100
0010
0000
1000
0000
0001
0000
0010
0100
0010
0000
0000
0000
,
0001
0000
0100
0010
1000
0000
0000
0000
1000
0000
0010
0100
0001
0000
0000
0000
,
0010
0000
0000
0110
0000
0000
2001
0000
0000
0000
0010
0000
0010
0000
0000
0000
,
3010
0000
0100
0001
0100
0000
0001
0000
0010
0000
0100
1000
0100
0000
1000
0000
,
0010
0000
0100
0001
0100
0000
0001
0000
1000
0000
0010
0000
1000
0000
0000
0000
,
0001
0000
0100
0001
0100
0000
0001
0000
0010
0000
0100
1000
0100
0000
1000
0000
,
0010
0000
0100
0001
0100
0000
0001
0000
1000
0000
0100
0000
1000
0000
0000
0000
,
0001
0000
1000
0001
1000
0000
0010
0000
0100
0000
0001
1000
0001
0000
0010
0000
,
0100
0000
1000
0001
1000
0000
0010
0000
0100
0000
0001
1000
0001
0000
0000
0000
,
0001
0000
0010
0100
1000
0000
0100
0000
0010
0000
0001
0100
0010
0000
1000
0000
,
0001
0000
1000
0001
0000
1000
0001
0000
0010
0000
0100
0000
0110
0000
0000
0000
,
2002
0000
0000
3003
,
0001
0010
0001
1000
0100
1000
0001
0100
0001
1000
0010
0100
,
0001
0000
0010
0000
0001
0000
0100
0000
0001
0000
0100
0010
1000
0000
0000
0000
,
0002
0000
0203
0000
0302
0000
0023
0000
0130
0000
1000
0100
0010
0000
0000
0000
,
0001
0000
1000
0010
0000
1000
0010
0000
0100
0000
0001
0010
0000
0001
0010
0000
,
0110
0000
0000
0000
1001
0000
0000
0000
0001
0010
0100
1000
0001
0010
0100
1000
,
0001
0000
0100
0010
1000
0000
0100
0010
0002
0000
0203
0000
2300
0000
3200
0000
,
0301
0000
0001
0000
0010
0000
0010
0000
0100
0000
0000
0000
1001
0000
1000
0100
,
0010
0000
0001
0100
0000
0100
0010
0000
1000
0000
0100
0000
0001
0000
0100
0000
,
0010
0001
0100
0000
0010
1000
0100
0000
0010
0001
0100
0000
0010
1000
0100
0000
,
1000
0000
0100
0000
1000
0000
0010
0000
1000
0000
0010
0100
0001
0000
0000
0000
,
2000
0000
3020
0000
2030
0000
3200
0000
0310
0000
0001
0010
0100
0000
0000
0000
,
1000
0000
0001
0100
0000
0001
0100
0000
0010
0000
1000
0100
0000
1000
0100
0000
,
0110
0000
0000
0000
1001
0000
0000
0000
1000
0100
0010
0001
1000
0100
0010
0001
,
1000
0000
0010
0100
0001
0000
0010
0100
2000
0000
3020
0000
0032
0000
0023
0000
,
1030
0000
1000
0000
0100
0000
0100
0000
0010
0000
0000
0000
1001
0000
0001
0010
,
0100
0000
1000
0020
0000
0000
0030
0000
1000
0000
0001
0020
0000
0000
0030
0000
,
0001
0100
0010
1000
0002
0000
1003
0000
,
0001
0100
0010
0000
1000
0100
0010
0000
,
0001
0000
0100
0010
1000
0000
0100
0010
0001
0000
1000
0000
1001
0000
0000
0000
,
1000
0010
0100
0000
0001
0010
0100
0000
,
1000
0010
1000
0100
1000
0000
0110
0000
,
1000
0010
0100
0000
0001
0010
0100
0000
,
1000
0000
0010
0100
0001
0000
0010
0100
1000
0000
0001
0000
1001
0000
0000
0000
,
0001
0100
0010
0000
1000
0100
0010
0000
,
0001
0010
0100
1000
0001
0000
0000
0000
,
2002
0000
0000
0000
,
0000
0000
0000
3003
,
1000
0000
0010
0000
0001
0000
0010
0000
1000
0010
1000
0010
0000
1000
0100
0000
,
0010
0100
1000
0000
0001
0100
0010
0000
1000
0001
1000
0001
1000
0000
0001
0010
,
0100
0000
1000
0010
0000
1000
0100
1000
0100
0000
0010
0001
0000
0100
0001
0100
,
0001
0000
0010
0000
1000
0000
0010
0000
0001
0010
0100
1000
0100
0010
0001
1000
,
0100
0000
0010
0001
1000
0000
0010
1000
0001
0000
0101
0000
1000
0000
1100
0000
,
0001
0000
0101
0000
0100
0000
0010
0000
1010
0000
1000
0010
0100
0000
0001
0010
,
0001
0000
0010
0100
0000
1000
0010
1000
0010
0000
1000
0100
0000
0010
0001
0010
,
0001
0000
1000
0000
0100
0000
0010
0000
0001
0100
0010
0000
1000
0010
0100
0000
,
0101
0001
0101
0000
1010
1000
1010
0000
,
1000
0000
0100
1000
0001
0000
0010
0000
0002
0000
1000
0000
1003
0000
0001
0100
,
0001
0000
0010
0001
0000
0010
0100
1000
0100
0000
1000
0010
0000
1000
0010
0100
,
0001
0000
0100
0000
1000
0000
0100
0000
0001
1000
0010
0100
0001
1000
0010
0100
,
0001
0000
0010
0001
1000
0000
0010
1000
0001
0000
0100
0000
1000
0000
0100
0000
,
0001
0000
0010
0000
1000
0000
0010
0000
0001
0000
1000
0100
0010
0000
0001
0100
,
0010
0000
1000
0010
0000
1000
0100
1000
0100
0000
0010
0001
0000
0100
0001
0100
,
0001
1000
0010
0100
0110
0000
1001
0000
,
1000
0000
0010
0100
0010
0000
1000
0001
1000
0001
0000
0001
1000
0000
0100
0000
,
0010
0000
0001
0100
0001
0000
0010
0000
0100
0000
1000
0000
1010
0000
0000
0000
,
0010
1000
0010
1000
0000
0001
0100
0000
0001
0010
0001
0000
0010
0100
1000
0000
,
0001
0000
0010
0000
0100
0000
1000
0010
1000
0000
0100
0000
0110
0000
0000
0000
,
0001
0000
0100
0010
0100
0000
0001
1000
0001
1000
0000
1000
0001
0000
0010
0000
,
0100
1000
0100
1000
0001
0000
1000
0100
0010
0000
0000
0000
0011
0000
0000
0000
,
0001
0000
0100
0000
0010
0000
0010
1000
0010
0000
0100
0000
1000
0000
0001
0000
,
0000
0001
0010
1000
1010
0000
1001
0000
,
0000
0000
0000
0000
;
#NOTES:
     dance-double:
     :
     Easy:
     6:
     :
00000000
00000000
00000000
00000000
,
00000000
00000000
00000000
00000000
,
00000000
00000000
00000000
00000000
,
00000000
00000000
00000000
00000000
,
00000000
00000000
00000000
00000000
,
00000001
00000001
00000100
00000000
,
00000010
00000010
00001000
00000000
,
00000010
00010000
00001000
00010000
,
00002000
00000000
00000000
00003000
,
00001000
00010000
00001000
00000000
,
00001000
00100000
00010000
00000000
,
00010000
01000000
00100000
10000000
,
00010000
00000000
10010000
00000000
,
10000000
00010000
10000000
00000000
,
10000000
01000000
00100000
00000000
,
00100000
00001000
00010000
00000000
,
00011000
00000000
00000000
00000000
,
00010000
00000000
00001000
00000000
,
00010000
00000100
00001000
00000000
,
00000010
00000000
00000100
00000000
,
00000002
00000000
00000000
00000003
,
00000001
00000000
00000100
00000000
,
00000010
00001000
00000010
00000000
,
00001000
00000000
00000100
00000000
,
00020000
00000000
00000000
00030000
,
00010000
00000000
00001000
00000000
,
00010000
00001000
01000000
00000000
,
00010000
00100000
00010000
10000000
,
00010000
00000000
10010000
00000000
,
10000000
00000000
00100000
00000000
,
01000000
00010000
01000000
00000000
,
00010000
00100000
00010000
01000000
,
00002000
00000000
00000000
00003000
,
00001000
00000000
00010000
00000000
,
00000100
00001000
00000010
00000000
,
00000100
00000000
00000001
00000000
,
00000010
00000100
00000010
00000000
,
00000001
00000000
00001000
00000000
,
00000010
00001000
00000100
00000000
,
00010000
00001000
00010000
00000000
,
00001000
00100000
00010000
00000000
,
02000000
00000000
00000000
00000000
,
03000000
00000000
00000000
00000000
,
10010000
00000000
01100000
00000000
,
10000000
01000000
00100000
00000000
,
00001000
00001000
00010000
00000000
,
00001000
00010000
00001000
00000000
,
00011000
00000000
00011000
00000000
,
00010000
00000010
00001000
00000000
,
00000010
00001000
00000100
00000010
,
00000002
00000000
00000000
00000003
,
00001001
00000000
00000110
00000000
,
00000001
00000100
00000010
00000000
,
00010000
00010000
00001000
00000000
,
00010000
00001000
00010000
00000000
,
00011000
00000000
00011000
00000000
,
00001000
00100000
00010000
00000000
,
00100000
00010000
01000000
00100000
,
20000000
00000000
00000000
30000000
,
10000000
00000000
01000000
00000000
,
00010000
00010000
00010000
00000000
,
00001000
00000000
00000010
00000000
,
00000001
00000001
00000001
00000000
,
00000001
00000000
00000100
00000000
,
00001000
00001000
00001000
00000000
,
00010000
00000000
00100000
00000000
,
10000000
10000000
10000000
00000000
,
10010000
00000000
00000000
00000000
,
00000000
00000000
00000000
00000000
,
10000000
00100000
10000000
01000000
,
00100000
00010000
00100000
00000000
,
00001000
00001000
00010000
00010000
,
00001000
00010000
00011000
00000000
,
00010000
00000100
00001000
00000100
,
00000010
00000001
00001000
00000000
,
00000001
00000001
00000100
00000100
,
00001000
00000100
00000001
00000000
,
00000001
00000010
00000100
00001000
,
00000100
00010000
00011000
00000000
,
00001000
00000000
00010000
00000000
,
00100000
00010000
00001000
00000000
,
00001000
00001000
01000000
01000000
,
00010000
00100000
01100000
00000000
,
10000000
00000000
00100000
00000000
,
00010000
00100000
10000000
00000000
,
10000000
01000000
00100000
00000000
,
00010000
01000000
00100000
00000000
,
10000000
00000000
00100000
00000000
,
00010000
00001000
00011000
00000000
,
00010000
00000010
00001000
00000000
,
00000100
00001000
00000010
00000000
,
00000100
00000000
00000001
00000000
,
00000000
00000100
00000010
00000110
,
00000000
00000000
00000000
00000000
;
#NOTES:
     dance-double:
     :
     Medium:
     12:
     :
00000000
00000000
00000000
00000000
,
00000000
00000000
00000000
00000000
,
00000000
00000000
00000000
00000000
,
00000000
00000000
00000000
00000000
,
00000000
00000000
00000000
00000000
,
00000001
00000100
00000001
00000000
00001000
00000100
00001000
00000000
,
00000100
00010000
00000100
00010000
00002000
00000000
00003000
00000000
,
00000000
00001000
00010000
00000000
00001000
00100000
00010000
00000000
,
01000000
00000000
00000000
01000000
00000000
00000000
02000000
00000000
00000000
00000000
00000000
00000000
03000000
00000000
00000000
00000000
,
00010000
01000000
00100000
00000000
10000000
01000000
00100000
00000000
,
00110000
00101000
00022000
00033000
,
00010000
00000100
00001000
00000000
00001000
00000100
00000010
00000000
,
00000001
00000010
00001000
00000010
00000002
00000000
00000003
00000000
,
00001000
00000100
00000010
00000000
00000001
00000100
00000010
00000000
,
00001010
00010010
00022000
00033000
,
00001000
01000000
00010000
00000000
00010000
01000000
00100000
00000000
,
10000000
00000000
00000000
01000000
00000000
00000000
00100000
00000000
00020000
00000000
00000000
00000000
00030000
00000000
00000000
00000000
,
10000000
01000000
10000000
00000000
00010000
00100000
00010000
00000000
,
01000000
00010000
01000000
00001000
00010000
00000000
00011000
00000000
,
00001000
00010000
00001000
00000000
00010000
00000010
00010000
00000000
,
00000010
00001000
00000010
00000200
00000000
00000001
00000301
00000000
,
00000001
00000100
00000001
00000000
00001000
00000010
00001000
00000000
,
00000100
00001000
00000100
00010000
00001000
00000000
00011000
00000000
,
00010000
00001000
00010000
00000000
00001000
00100000
00001000
00000000
,
00100000
00010000
00100000
01000000
10000000
00000000
10010000
00000000
,
10000000
01000000
00100000
00000000
00001000
00010000
00100000
00000000
,
01000000
00010000
00100000
00001000
00010000
00000000
00011000
00000000
,
00001000
00010000
00000100
00000000
00000010
00000001
00001000
00000000
,
00000010
00000100
00001000
00000100
00000010
00000000
00000110
00000000
,
00000001
00000100
00000010
00000000
00010000
00001000
00000010
00000000
,
00000100
00001000
00000010
00010000
00001000
00000000
00011000
00000000
,
00010000
00001000
01000000
00000000
00100000
10000000
00010000
00000000
,
00100000
00000000
00000000
01000000
00000000
00000000
02200000
00000000
00000000
00000000
00000000
00000000
03300000
00000000
00000000
00000000
,
10000000
00100000
10000000
00100000
01000000
00010000
01000000
00010000
,
00100000
00001000
00100000
00010000
00100000
00001000
00010000
00000000
,
00001000
00010000
00001000
00010000
00000100
00001000
00000100
00001000
,
00000010
00001000
00000100
00001000
00000010
00000100
00000001
00000000
,
00000001
00000010
00000001
00000010
00000100
00001000
00000100
00001000
,
00000010
00010000
00000010
00001000
00000010
00010000
00001000
00000000
,
00010000
00001000
00010000
00001000
01000000
00010000
01000000
00010000
,
00100000
00010000
01000000
00010000
00100000
01000000
10000000
00000000
,
20020000
00000000
00000000
00000000
,
30030000
00000000
00000000
00000000
,
10100000
11000000
00110000
01010000
,
10000000
01000000
00010000
00001000
00020000
00000000
00030000
00000000
,
00010000
00000000
00000100
00001000
00000000
00000000
00000000
00000000
00000010
00000000
00001000
00000100
00000000
00000000
00000000
00000000
,
00001000
00000100
00000001
00000100
00002000
00000000
00003000
00000000
,
00000011
00000101
00001010
00001100
,
00000001
00000100
00001000
00010000
00002000
00000000
00003000
00000000
,
00001000
00000000
01000000
00010000
00000000
00000000
00000000
00000000
00100000
00000000
00010000
01000000
00000000
00000000
00000000
00000000
,
00010000
01000000
10000000
01000000
00020000
00000000
00030000
00000000
,
10000000
01000000
01100000
00000000
00010000
01000000
01100000
00000000
,
10000000
01000000
00100000
00001000
00020000
00000000
00030000
00000000
,
00010000
00000100
00001000
00000100
00000001
00000100
00001000
00000100
,
00010000
00000000
00011000
00000000
00001000
00010000
00000010
00001000
,
00000001
00000010
00000110
00000000
00001000
00000010
00000110
00000000
,
00000001
00000010
00000100
00010000
00002000
00000000
00003000
00000000
,
00001000
00100000
00010000
00100000
10000000
00100000
00010000
00100000
,
00001000
00000000
00011000
00000000
00010000
00001000
01000000
00010000
,
10000000
00000000
00000000
10000000
01000000
00000000
00000000
01000000
,
00100000
00000000
00000000
00100000
00001000
00010000
00001000
00000000
,
00010000
00000000
00000000
00010000
00000100
00000000
00000000
00000100
,
00001000
00000000
00000010
00000100
00000010
00000000
00000110
00000000
,
00001001
00000000
00000000
00000001
00000100
00000000
00000000
00000100
,
00000010
00000000
00000000
00000010
00010000
00001000
00010000
00000000
,
00001000
00000000
00000000
00001000
00100000
00000000
00000000
00100000
,
00010000
00100000
01000000
00000000
10000000
00000000
00000000
00000000
,
20020000
00000000
00000000
00000000
,
00000000
00000000
00000000
30030000
,
00110000
00000000
11000000
00000000
10000000
00100000
10000000
00100000
,
01000000
00010000
01000000
00001000
00020000
00000000
00030000
00000000
,
00010000
00000000
00000100
00001000
00000000
00000000
00001000
00000000
00000010
00000000
00000100
00000001
00000000
00000000
00000001
00000000
,
00000010
00001000
00000010
00000001
00002000
00000000
00003000
00000000
,
00000011
00000000
00001100
00000000
00000001
00000010
00000100
00001000
,
00000010
00000100
00000010
00000000
00000220
00000000
00000330
00000000
,
00000010
00000000
00010000
00000010
00000000
00000000
00010000
00000000
00001000
00000000
00010000
00001000
00000000
00000000
01000000
00000000
,
00000000
01000000
00010000
00100000
00020000
00000000
00030000
00000000
,
00110000
00000000
11000000
00000000
10000000
01000000
00100000
00010000
,
01000000
00100000
01000000
00010000
02000000
00000000
03000000
00000000
,
00010000
00000000
01000000
00010000
00000000
00000000
00010000
00000000
00100000
00000000
00001000
00010000
00000000
00000000
00010000
00000000
,
00001000
00010000
00000010
00001000
00000020
00000000
00000030
00000000
,
00001000
00000010
00000100
00000000
00000001
00000010
00000001
00000100
,
00000000
00000010
00001000
00000010
00000200
00000000
00000300
00000000
,
00000100
00000000
00000001
00001000
00000000
00000000
00001000
00000000
00000100
00000000
00010000
00001000
00000000
00000000
00000000
00000000
,
00001000
00010000
00100000
01000000
00020000
00000000
00030000
00000000
,
00010000
00100000
01000000
00000000
10000000
00100000
01000000
00000000
,
00010000
10000000
01000000
00010000
00001000
00000000
00011000
00000000
,
00010000
00000000
00000000
00000100
00000000
00000000
00000100
00000000
00001000
00000000
00000010
00000000
00001000
00000000
00000000
00000000
,
00000001
00000100
00001000
00000100
00000002
00000000
00000003
00000000
,
00001000
00000010
00000100
00000000
00000001
00000010
00000100
00000000
,
00001000
00000001
00000100
00001000
00010000
00000000
00011000
00000000
,
00001000
01000000
00010000
00100000
00010000
01000000
00100000
10000000
,
00000000
10000000
01000000
00010000
00002000
00000000
00013000
00000000
,
00000000
00000000
00000000
00000000
;
#NOTES:
     dance-double:
     :
     Hard:
     16:
     :
00000000
00000000
00000000
00000000
,
00000000
00000000
00000000
00000000
,
00000000
00000000
00000000
00000000
,
00000000
00000000
00000000
00000000
,
00000000
00000000
00000000
00000000
,
00000001
00000000
00000010
00000100
00000010
00000000
00000100
00001000
00000100
00000000
00010000
00000100
00010000
00000000
00001000
00000000
,
00100000
00010000
01000000
00100000
20000000
00010000
30010000
00000000
,
00000000
10000000
01000000
00010000
00001000
00000010
00000001
00001000
,
00000100
00000000
00000000
00000100
00000000
00000000
00000010
00000000
00000001
00000010
00000100
00001000
00000001
00000000
00000000
00000000
,
00001000
00000000
00000010
00000100
00000010
00000000
00001000
00000100
00001000
00000100
00000000
00000100
00010000
00000000
00001000
00000000
,
00100000
00000000
00010000
01000000
00010000
00000000
00100000
01000000
00100000
00000000
00010000
00000000
10010000
00000000
00000000
00000000
,
10000000
01000000
10000000
01000000
00000000
00100000
00010000
00000000
00100000
00001000
00100000
00000000
00001000
00000000
00010000
00000000
,
00000010
00000100
00001000
00010000
00001000
00000100
00000010
00000000
,
00001000
00000000
00000100
00000010
00000100
00000000
00001000
00000001
00001000
00000001
00000000
00000001
00000010
00000000
00001000
00000000
,
00010000
00000000
01000000
00000000
00100000
00010000
01000000
00000000
00100000
00000000
10000000
00000000
10010000
00000000
00000000
00000000
,
00010000
00100000
00010000
00000000
01000000
00000000
01000000
00100000
01000000
00000000
00100000
10000000
00100000
00000000
01000000
00000000
,
00010000
00100000
00000000
00100000
00001000
00000000
00010000
00000000
00022000
00000000
00000000
00000000
00033000
00000000
00000000
00000000
,
00001000
00010000
00001000
00010000
00000100
00001000
00000100
00000000
,
00001000
00000000
00000100
00000000
00000010
00000000
00000001
00000000
00001000
00000000
00000001
00001000
00000001
00000000
00000000
00000000
,
00001000
00000010
00000100
00000001
00001000
00000100
00000010
00000001
,
00000100
00000000
00000010
00000000
00001000
00000000
00000100
00000000
00010000
00001000
00010000
00000000
00001000
00000000
00000000
00000000
,
00010000
00001000
00010000
00001000
00100000
00010000
00100000
00000000
,
00010000
00000000
01000000
00000000
00010000
00000000
01000000
00000000
00100000
00000000
01000000
00100000
01000000
00000000
00000000
00000000
,
00010000
01000000
10000000
00000000
10000000
01000000
00010000
00000000
,
10010000
00000000
00000000
00000000
01100000
00000000
00000000
00000000
10000000
00100000
10000000
00100000
01000000
00010000
01000000
00010000
,
01000000
00000000
00010000
00100000
00020000
00000000
00000000
00000000
00130000
00001000
00000000
00001000
00010000
00000000
00000100
00000000
,
00001000
00000010
00000000
00000010
00010000
00000000
00001000
00000000
00010000
00000000
00000100
00000000
00001000
00000000
00000000
00000000
,
00000010
00000000
00001000
00000100
00000010
00000000
00000001
00000000
00001000
00000010
00000000
00000010
00000100
00000000
00000001
00000000
,
00000010
00000000
00001000
00000000
00000010
00000000
00000100
00000000
00010000
00000000
00001000
00010000
00001000
00000000
00010000
00000000
,
00000100
00000000
00001000
00000010
00002000
00000000
00000000
00000000
00003010
00010000
00000000
00010000
00001000
00000000
01000000
00000000
,
00010000
00100000
00000000
00100000
00001000
00000000
00010000
00000000
00001000
00000000
01000000
00000000
00010000
00000000
00000000
00000000
,
00100000
00000000
00010000
01000000
00100000
00000000
10000000
00000000
00010000
00000000
00100000
01000000
10000000
00000000
00010000
00000000
,
00100000
00000000
00000000
01100000
00000000
00000000
20020000
00000000
00000000
00000000
00000000
00000000
30030000
00000000
00000000
00000000
,
10000000
00000000
01000000
00100000
01000000
00000000
00100000
00000000
00010000
00000000
00100000
00001000
00100000
00000000
00001000
00000000
,
00010000
00000000
00001000
00010000
00001000
00000000
00010000
00000000
00000100
00000000
00001000
00000000
00000010
00000000
00000000
00000000
,
00001000
00000000
00000001
00000100
00000001
00000000
00000010
00000000
00000001
00000000
00000100
00000010
00000100
00000000
00001000
00000000
,
00010000
00000000
00001000
00100000
00001000
00000000
00010000
00000000
00001000
00000000
00010000
00000000
01000000
00000000
00000000
00000000
,
00100000
00000000
00010000
10000000
00010000
00000000
01000000
00000000
00100000
00000000
10000000
00100000
10000000
00000000
01000000
00000000
,
00010000
00000000
00001000
00010000
00001000
00000000
00000010
00000000
00000001
00000000
00000010
00000100
00000010
00000000
00000000
00000000
,
00000001
00000000
00001000
00000100
00001000
00000000
00000010
00000000
00000100
00000000
00001000
00010000
00001000
00000000
00010000
00000000
,
00100000
00000000
10000000
00100000
00000000
10000000
00100000
00000000
01000000
00000000
00010000
00000000
10000000
00000000
00000000
00000000
,
20020000
00000000
00000000
30030000
,
10000000
01000000
10000000
00010000
00100000
00010000
00100000
00001000
00010000
00000100
00001000
00000001
,
00000100
00000000
00000010
00000000
00001000
00000000
00000100
00000000
00000010
00000000
00000001
00001000
00000001
00000000
00000000
00000000
,
00000002
00000000
00000203
00000000
00002300
00000000
00023000
00000000
00130000
00000000
10000000
00100000
01000000
00000000
00000000
00000000
,
00010000
00000000
10000000
01000000
00000000
10000000
01000000
00000000
00010000
00000000
01000000
00100000
00000000
01000000
00100000
00000000
,
00010000
00000000
10000000
00000000
00100000
00000000
00010000
00000000
00001000
00010000
00001000
00010000
00000010
00001000
00000010
00001000
,
00000010
00000000
00000100
00000010
00001000
00000000
00000100
00000010
00000002
00000000
00000203
00000000
00002300
00000000
00003200
00000000
,
00000301
00000000
00000001
00000000
00000010
00000000
00000010
00000000
00000110
00000000
00000000
00000000
00001001
00000000
00001000
00000100
,
00000010
00000000
00000001
00001000
00000000
00001000
00000100
00000000
00010000
00000000
00001000
00000000
00100000
00000000
00010000
00000000
,
01000000
00010000
10000000
00000000
01000000
10000000
00010000
00000000
00100000
00010000
10000000
00000000
00100000
10000000
00010000
00000000
,
00100000
00000000
01000000
00000000
01100000
00000000
00000000
00000000
01000000
00000000
10000000
00010000
10000000
00000000
00000000
00000000
,
20000000
00000000
30200000
00000000
00320000
00000000
00032000
00000000
00003100
00000000
00000001
00000100
00000010
00000000
00000000
00000000
,
00001000
00000000
00000001
00000010
00000000
00000001
00000010
00000000
00001000
00000000
00000010
00000100
00000000
00000010
00000100
00000000
,
00001000
00000000
00000001
00000000
00000100
00000000
00001000
00000000
00010000
00001000
00010000
00001000
01000000
00010000
01000000
00010000
,
01000000
00000000
00100000
01000000
00010000
00000000
00100000
01000000
20000000
00000000
30200000
00000000
00320000
00000000
00230000
00000000
,
10300000
00000000
10000000
00000000
01000000
00000000
01000000
00000000
01100000
00000000
00000000
00000000
10010000
00000000
00010000
00100000
,
01000000
00000000
10000000
00010000
00000000
00000000
00100000
00001000
00100000
00000000
00001000
00010000
00000000
00000000
00000000
00000000
,
00000100
00001000
00000010
00000100
00000002
00000000
00001003
00000000
,
00000001
00000000
00000001
00000010
00000100
00000000
00000100
00010000
,
00001000
00000000
00001000
01000000
00001000
00100000
00010000
01000000
,
00100000
00000000
00100000
10000000
00010000
00000000
00010000
00100000
,
01000000
00010000
01000000
10000000
00010000
00000000
10010000
00000000
,
10000000
00000000
10000000
00100000
01000000
00000000
01000000
00001000
,
00010000
00000000
00010000
00000100
00010000
00000010
00001000
00000100
,
00000010
00000000
00000010
00000001
00001000
00000000
00001000
00000010
,
00000100
00001000
00000100
00000001
00001000
00000000
00000000
00000000
,
00002002
00000000
00000000
00000000
,
00000000
00000000
00000000
00003003
,
00000001
00000000
00000100
00000000
00000010
00000000
00001000
00000000
00000010
00010000
00000010
00010000
00000000
00001000
00010000
00000000
,
00001000
00000000
00100000
00000000
00010000
00000000
01000000
00000000
00001000
00010000
00001000
00010000
00001000
00000000
00000000
00000000
,
00010000
00000000
00100000
01000000
00000000
00100000
10000000
00100000
10000000
00000000
01000000
00100000
00000000
01000000
00010000
01000000
,
00010000
00000000
00001000
00000000
00100000
00000000
00001000
00000000
00010000
00000100
00010000
00000100
00001000
00000100
00001000
00000100
,
00001000
00000000
00000010
00000100
00000001
00000000
00000100
00000010
00001000
00000000
00000001
00000000
00000010
00000000
00001000
00000000
,
00000001
00000000
00000100
00000000
00001000
00000000
00000100
00000000
00010000
00000000
00001000
00010000
00001000
00000000
01000000
00010000
,
01000000
00000000
00010000
00100000
00000000
01000000
10000000
01000000
10000000
00000000
00010000
01000000
00000000
00010000
00100000
00010000
,
00100000
00000000
00001000
00000000
00010000
00000000
00000010
00000000
00001000
00000010
00001000
00000000
00000001
00000100
00000001
00000000
,
00000100
00001000
00010000
00000000
00100000
01000000
00001000
00000000
,
00010000
00000000
00001000
00000000
00000010
00000000
00001000
00000000
00020000
00000000
00001000
00000000
00031000
00000000
00010000
00001000
,
00010000
00000000
00001000
01000000
00000000
00010000
00100000
00010000
00100000
00000000
01000000
10000000
00000000
00100000
10000000
00100000
,
10000000
00000000
00100000
00000000
00010000
00000000
00001000
00000000
00010000
00000010
00010000
00000010
00001000
00000100
00001000
00000100
,
00001000
00000000
00000010
00000000
00000001
00000000
00001000
00000000
00000100
00000000
00000010
00010000
00001000
00000000
00011000
00000000
,
00000000
00000000
00001000
00000000
00010000
00000000
00100000
00000000
10000000
00000000
01000000
00100000
00010000
00000000
10000000
00100000
,
01000000
00000000
00010000
01000000
00000000
00001000
00010000
00001000
00010000
00000000
00000100
00001000
00000000
00000010
00001000
00000010
,
00001000
00000100
00000010
00000001
00002002
00000000
00003003
00000000
,
00000001
00000000
00001000
00000010
00001000
00000000
00000100
00001000
00000100
00001000
00000000
00001000
00000100
00000000
00010000
00000000
,
00001000
00000000
01000000
00010000
01000000
00000000
00010000
00000000
00100000
00000000
01000000
00000000
01100000
00000000
00000000
00000000
,
10000000
00100000
10000000
00100000
00000000
10000000
01000000
00000000
00100000
01000000
00100000
00000000
00001000
00010000
00001000
00000000
,
00010000
00000000
00000010
00000000
00001000
00000000
00000010
00000100
00000010
00000000
00001000
00000000
00001001
00000000
00000000
00000000
,
00000001
00000000
00001000
00000001
00001000
00000000
00000100
00000010
00000100
00000010
00000000
00000010
00000001
00000000
00000100
00000000
,
00000010
00001000
00000010
00000000
00010000
00000000
00001000
00010000
00001000
00000000
00000000
00000000
00011000
00000000
00000000
00000000
,
00001000
00000000
00100000
00000000
00010000
00000000
01000000
00100000
01000000
00000000
00010000
00000000
00100000
00000000
01000000
00000000
,
00000000
10000000
01000000
00010000
00001000
00000000
00011000
00000000
,
00000000
00000000
00000000
00000000
;
