
//----- song ID: sect -----//
#TITLE:Sector;
#ARTIST:RYOQUCHA;
#BANNER:Sector.png;
#BACKGROUND:Sector-bg.png;
#CDTITLE:./CDTitles/DDR A3.png;
#MUSIC:Sector.ogg;
#SAMPLESTART:63.001;
#SAMPLELENGTH:15;
#BPMS:0=160,68=140,68.875=100,69.5=80,70=160,75=80,86.75=160,87.25=140,88.125=120,88.875=100,89.5=80,106=160,201=145.861,201.229=120.968,201.417=93.501,201.563=79.787,201.688=81.522,201.750=160;
#STOPS:201.688=0.141,201.75=0.094;
#STAGE:15;
#NOTES:
     dance-single:
     :
     Beginner:
     5:
     :
0000
0000
0000
0000
,
0000
0000
0000
0000
,
0000
0000
0000
0000
,
0000
0000
0000
0000
,
0000
0000
0000
0000
,
0000
0000
0000
0000
,
0110
0000
0000
0000
,
0000
0000
0000
0000
,
0001
0000
1000
0000
,
0010
0010
0010
0000
,
0000
1001
0000
0000
,
0001
0001
0001
0000
,
0100
0100
0100
0000
,
0010
0010
0010
0000
,
1000
1000
1000
0000
,
0001
0001
0001
0000
,
0100
0100
0100
0000
,
0020
0000
0030
0000
,
0000
0000
0000
1001
,
0000
1000
1000
0010
,
0010
0100
0100
0001
,
0001
2002
0000
0000
,
0000
0000
3003
0000
,
0000
0000
0000
0000
,
0000
0000
0000
0000
,
0000
0000
0000
0000
,
0000
0000
0001
0000
,
0000
0000
1000
0000
,
1000
0000
0010
0000
,
0010
0000
0100
0000
,
0100
0000
0001
0000
,
0001
0000
0001
0000
,
0001
0000
1000
0000
,
1000
0000
0010
0010
,
0010
0000
0000
0000
,
1000
0000
0001
0000
,
0100
0000
0010
0000
,
1000
0000
0001
0000
,
0100
0000
0010
0000
,
0100
0000
0001
0000
,
0010
0000
0100
0000
,
1000
0000
1001
0000
,
0000
0000
0100
0000
,
0100
0000
0100
0000
,
0000
0000
0010
0000
,
0010
0000
0010
0000
,
0000
0000
0100
0000
,
0100
0000
0100
0000
,
0000
0000
0010
0000
,
0020
0000
0000
0000
,
0000
0000
0030
0000
,
0000
1000
1000
1000
,
0000
0001
0001
0001
,
0000
0100
0100
0100
,
0000
0010
0010
0010
,
0000
1000
0000
0001
,
0000
0100
0010
0010
,
0000
0200
0000
0300
,
0110
0000
1001
0000
,
0000
0001
0001
0001
,
0000
1000
1000
1000
,
0000
0001
0000
0100
,
0000
0020
0000
0030
,
0000
0000
0000
0000
,
0000
1000
1000
0001
,
0001
0100
0010
0010
,
0000
0000
1001
0000
,
0000
0000
0000
0000
;
#NOTES:
     dance-single:
     :
     Easy:
     8:
     :
0000
0000
0000
0000
,
0000
0000
0000
0000
,
0000
0000
0000
0000
,
0000
0000
0000
0000
,
0000
0000
0000
0000
,
0000
0000
0000
0000
,
2002
0000
0000
0000
,
0000
0000
0000
3003
,
0001
0000
0000
0001
0000
0000
0000
0000
1000
0000
0000
1000
0000
0000
0000
0000
,
0010
0110
2002
3003
,
0100
1001
0001
0100
,
0010
1000
0001
1000
,
0010
0010
0010
0000
1000
0000
0001
0000
,
0010
0000
0100
0000
1000
0001
1000
0001
,
1000
0100
0010
0001
,
0100
0000
0000
0000
0010
0000
0000
0010
0000
0000
0010
0000
0000
0000
0000
0000
,
0100
0001
1000
0100
,
0220
0000
0030
0300
,
0000
0000
0010
1001
,
0001
0000
1000
0100
0010
0001
0010
0100
,
1000
0000
0001
0100
0010
0000
1000
0001
,
0100
0000
0001
0010
0100
2000
0000
0000
,
0000
0000
3000
0000
,
0000
0001
0000
0010
,
0000
0100
0000
1000
,
0000
0010
0000
0100
,
0000
0000
0001
0001
,
0001
0001
1000
1000
,
1000
1000
0010
0010
,
0100
0100
0001
0001
,
1000
1000
0001
0010
,
0001
0100
0010
1000
,
0100
1000
0010
0110
,
1000
1001
0110
0110
,
0110
1001
0000
1000
,
0010
0100
0010
0000
1000
0000
0001
0000
,
0010
0100
1000
0000
0001
0000
0101
0000
,
1000
1100
0001
0101
,
1000
1100
0000
0001
,
0100
0010
0100
0000
0001
0000
1000
0000
,
0100
0010
0001
0000
1000
0000
1100
0000
,
0001
0000
0000
0000
0101
0000
0000
0000
1000
0000
0000
0100
0000
0000
0010
0000
,
0000
0001
0000
0000
1000
0000
0000
0000
0000
0000
0000
0000
1001
0000
0000
0000
,
0000
0001
0000
0100
,
0000
0010
2000
0010
,
0001
3100
0002
0010
,
1000
0103
0010
1001
,
0000
1000
0000
0010
,
0000
0100
0002
0013
,
2000
3010
2002
0000
,
0000
0000
0000
0000
0000
0000
0000
0003
3000
0000
0000
0000
0001
0000
0000
0000
,
0010
0000
0100
0000
1000
0000
0001
0100
,
0010
1000
0001
0010
,
0100
0000
0010
0000
0001
0000
1000
0001
,
1000
0001
0010
0010
0010
0000
0100
0000
,
1000
0000
0001
0000
0100
0000
0001
1000
,
0000
0000
0010
0010
0010
0000
0100
0000
,
0001
2000
0000
3000
,
0110
0000
1001
0001
,
1000
0010
0100
0101
,
0011
1000
0010
0100
,
0001
1000
0000
0100
0000
0010
0000
0001
,
1000
0001
0200
0000
0000
0000
0310
0000
,
0000
1000
0000
0000
0001
0000
0000
0100
,
0000
0100
0010
0010
0010
0000
1000
0000
,
0001
0000
0000
0000
1000
0000
0000
0100
0000
0000
0010
0000
0000
0001
0000
0000
,
1000
0010
0100
0000
0020
0000
0000
0000
,
0000
0000
0000
0000
,
0030
0000
0000
0000
,
0000
0000
0000
0000
;
#NOTES:
     dance-single:
     :
     Medium:
     12:
     :
0000
0000
0000
0000
,
0000
0000
0000
0000
,
0000
0000
0000
0000
,
0000
0000
0000
0000
,
0000
0000
0000
0000
,
0000
0000
0000
0000
,
1001
0000
0001
0100
0010
0100
0001
0010
,
0100
1000
0010
0100
0010
1000
0100
0010
,
0001
0000
0000
1000
0000
0000
0001
0000
0100
0000
0000
0010
0000
0000
0100
0000
,
0101
1100
2002
3003
,
0000
0100
1001
0000
0001
0010
0100
1000
,
0010
1000
0001
0010
0100
1000
0010
1000
,
0001
0001
0100
0010
0100
0001
1000
0100
,
1000
0001
0100
0010
1000
0100
0001
0100
,
1000
0010
0100
0001
1000
0100
1000
0001
,
0100
0000
0001
0000
0011
0000
0000
0011
0000
0000
0011
0000
0100
0000
1000
0000
,
0001
0100
0100
0010
1000
0100
1000
0010
,
0200
0000
0301
2000
,
0000
0000
0000
0000
3100
0000
2002
3003
,
0001
1000
0010
0100
0010
1000
0100
0010
0001
0010
0100
1000
0001
0100
0001
0010
,
0001
1000
0100
1000
0010
0000
0100
0001
0010
0001
1000
0010
1000
0100
0010
0001
,
0100
0001
1000
0100
0010
0001
1000
1000
0010
0100
0001
2002
0000
0000
0000
0000
,
0000
0000
3003
0002
,
0003
0020
0030
0200
,
0300
2000
3000
0020
,
0030
0200
0300
0002
,
0003
0000
1000
1000
,
0001
0001
0100
0100
,
0001
0001
0010
0010
,
0100
0100
1000
1000
,
0001
0000
0001
0000
1000
0100
1000
0100
,
1000
0010
1000
0010
0100
0001
0100
0001
,
0010
0001
0010
0001
1000
0010
0100
0001
,
0010
0001
0100
0010
1010
0000
0101
0000
,
0001
0010
0100
1000
0000
1000
0001
0100
,
0001
0010
0000
0100
1000
0000
0002
0000
0100
0000
2003
0000
0010
0000
3002
0000
,
0100
1003
0010
0000
0102
0000
1003
0000
,
2100
3001
0102
1003
,
1000
0010
0100
0001
0000
0001
1000
0100
,
1000
0010
0000
0100
0001
0000
2000
0000
0100
0000
3002
0000
0010
0000
2003
0000
,
0100
3001
0010
0000
2100
0000
3001
0000
,
0102
0000
0000
0000
1003
0000
0000
0000
1100
0000
0000
0101
0000
0000
1100
0000
,
0000
0011
0000
0000
1001
0000
0000
0000
0010
0000
0000
0000
0101
0000
0000
0000
,
0200
0001
0320
1000
,
0230
0000
0000
0000
0301
0000
0000
0000
1000
0000
0000
0010
0000
0000
1000
0000
,
0100
0000
0000
0010
0000
0000
0100
0000
1000
0000
0000
0001
0000
0000
1000
0000
,
0010
0100
0001
0000
0011
0000
1100
0000
,
0200
1000
0320
0001
,
0230
0000
0000
0000
1300
0000
0000
0000
0001
0000
0000
0100
0000
0000
0001
0000
,
1000
0000
0000
0100
0000
0000
1000
0000
2002
0000
0000
0000
0000
0000
0000
0000
,
0000
0000
0000
0000
3003
0000
0000
0100
1001
0000
0000
0000
1000
0000
0100
0000
,
1000
0010
0100
0001
1000
0100
0010
0001
,
0010
0100
1000
0001
0100
0010
0100
0001
,
1000
0000
0100
0000
0010
0000
0001
0000
1000
0000
0010
0100
0000
0010
0100
0000
,
0001
1000
0100
0000
0010
0001
1000
0100
,
1000
0010
0100
0001
0010
0100
1000
0020
,
0000
0130
0001
1000
0100
1000
0010
0100
,
0001
1000
0200
0000
0000
0000
0300
0000
,
1001
0000
0000
0100
1001
0000
0001
0100
,
0010
0100
0001
0010
0100
1000
0100
0010
,
0001
1000
0010
0100
0010
1000
0100
1000
,
0001
0000
0100
0010
0000
0100
0010
0000
1000
0000
0001
0000
1000
0000
0010
0000
,
0001
0010
1000
1000
0001
0001
1001
0000
,
1000
0010
0000
0010
0100
0000
0100
0002
,
0000
0013
0100
1000
0010
1000
0100
0010
,
0001
0000
1000
0000
0001
0100
0000
0001
0100
0000
0010
1000
0000
0001
0010
0000
,
0100
1000
0001
0000
2002
0000
0000
0000
,
0000
0000
0000
0000
,
3003
0000
0000
0000
,
0000
0000
0000
0000
;
#NOTES:
     dance-single:
     :
     Hard:
     16:
     :
0000
0000
0000
0000
,
0000
0000
0000
0000
,
0000
0000
0000
0000
,
0000
0000
0000
0000
,
0000
0000
0000
0000
,
0000
0000
0000
0000
,
1001
0000
0000
0000
0001
1000
0001
1000
0001
1000
0001
1000
0001
1000
0001
1000
,
0001
1000
0001
1000
0001
1000
0001
1000
0001
1000
0001
1000
0001
1000
0001
1000
,
0001
0000
0000
0011
0000
0000
0010
0100
1000
0000
0000
1010
0000
0000
0010
0100
,
0001
1000
2002
3003
,
0000
0000
0100
0000
1001
0000
0000
0000
0001
0100
0010
1000
0000
0010
0100
0000
,
0001
0000
1000
0000
0100
0000
0010
0001
0000
1000
0010
0000
0100
0001
1000
0001
,
0010
0000
0010
0000
0001
1000
0001
1000
0000
0010
0100
0001
1000
0100
0010
0100
,
2000
0000
0010
0000
3002
0000
0100
0000
1003
0100
0010
0001
0010
0100
1000
0001
,
0100
0000
0010
0000
1000
0100
0000
1000
0010
0100
0001
1000
0000
0001
1000
0000
,
0010
1000
0001
0000
0011
0000
0000
1001
0000
0000
1100
0000
1000
0000
0001
0000
,
0100
0010
0000
0010
1000
0000
0001
0010
0100
0010
0001
0000
0100
0000
0010
0000
,
0220
0000
0330
2002
,
0000
0000
0000
0000
0000
0000
0000
0000
3003
0000
0000
0000
0000
0000
0000
0000
0110
0000
0000
0000
0000
0000
0000
0000
1001
0000
0000
0000
0001
1000
0001
0000
,
1000
0010
0000
0100
0000
0010
0000
0100
0001
0000
0010
0000
0100
0000
1000
0000
0001
0000
0000
0100
0000
0000
0010
0000
0110
0000
0000
1000
0000
0001
0100
0000
,
0010
0000
0000
0100
0000
0000
0001
0000
1000
0000
0100
0000
0010
0000
0001
0000
1000
0000
0000
0010
0000
0000
0100
0000
0001
1000
0001
1000
0001
0000
0010
0000
,
0100
0000
0000
1000
0000
0000
1000
0000
0010
0000
0000
0000
0100
0000
0100
0000
0100
0000
0000
0001
0000
0000
2002
0000
0000
0000
0000
0000
0000
0000
0000
0000
,
0000
0000
0000
0000
0000
0000
0000
0000
3003
0000
0000
0000
0001
0100
0000
0010
,
0000
1000
0000
0000
0001
0100
0000
0010
0000
1000
0000
0000
0001
0010
0000
0100
,
0000
1000
0001
0000
0100
0010
0000
0200
0000
0000
0300
0000
0001
0010
0000
0100
,
0000
1000
0000
0000
0000
0001
0010
0100
1000
0001
0000
0100
0000
0010
0200
0000
,
0000
0300
0001
0001
,
1000
0000
0000
0000
1000
0000
0000
0000
0001
1000
0001
0000
0010
0000
0100
0000
,
1000
0001
1000
0001
0100
0010
1000
0001
0010
0000
0000
0100
0000
0000
1000
0000
,
0001
0000
0000
0100
0000
0000
0001
0000
1000
0000
0000
0010
0000
0000
1000
0000
,
0001
0000
0010
0000
0100
0000
1000
0000
0010
0000
0010
0100
0010
0000
1000
0000
,
0001
0100
0010
0100
0001
0010
0001
0100
,
0010
0000
1000
0000
0100
0000
1000
0000
0001
1000
0001
0100
0010
0100
0001
1000
,
0001
0010
0100
0010
0001
1000
0010
0000
1001
0000
0000
0000
0101
0000
0000
0000
,
1100
0000
0001
0000
1000
0000
1001
0000
0000
0000
1000
0010
0100
0000
0001
0000
,
1000
0100
0000
0010
0001
0000
0200
0000
0010
0000
0302
0000
1000
0000
0203
0000
,
0010
0000
0302
0000
1000
0000
0103
0000
0101
0000
0000
1100
0000
0000
1001
0000
,
0011
0000
0000
1010
0000
0000
1001
0000
0110
0000
0000
1001
0000
0000
0110
0000
,
0001
0010
0100
1000
0100
0010
0001
0000
0000
0000
0001
1000
0100
0000
1000
0000
,
0001
0100
0000
0010
1000
0000
0200
0000
0010
0000
2300
0000
0001
0000
3200
0000
,
0010
0000
2300
0000
0001
0000
3100
0000
1100
0000
0000
0101
0000
0000
1001
0000
,
1010
0000
0000
0011
0000
0000
1001
0000
1010
0000
0000
0110
0000
0000
0101
0000
,
1000
0100
0010
0001
0010
0100
1000
0001
0100
0000
0000
0001
0010
0000
0100
0000
,
1000
0010
0000
0100
0001
0000
2000
0000
0010
0000
3200
0000
0010
0000
2300
0000
,
3002
0000
0100
0000
0023
0000
0100
0000
0031
0000
0000
1000
0000
0000
0001
0000
,
0100
0000
0000
0010
0000
0000
0100
0000
0001
0000
0000
0010
0000
0000
0001
0000
,
1000
0000
0010
0000
0100
0000
0001
0000
1000
0000
0100
1000
0010
0000
1000
0000
,
0001
0010
0000
0100
1000
0000
0002
0000
0010
0000
0203
0000
0010
0000
0302
0000
,
2003
0000
0100
0000
3020
0000
0100
0000
1030
0000
0000
0001
0000
0000
0100
0000
,
0010
0000
0000
1000
0000
0000
0001
0000
2002
0000
0000
0000
0000
0000
0000
0000
,
0000
0000
0000
0000
3003
0000
0000
0100
1001
0000
0000
0000
0001
0100
0000
0001
,
0010
0100
1000
0000
0001
0100
0010
0000
0100
0001
1000
0100
0010
0000
0001
0100
,
0000
0010
0000
0100
0001
0000
1000
0100
1000
0000
0001
0010
0000
0100
0000
0010
,
0001
0000
1000
0010
0000
0100
0000
0010
1000
0000
0001
0100
0000
0001
0010
0100
,
1000
0100
0010
0001
1000
0000
0010
0000
0100
0001
1000
0100
1000
0010
0000
0100
,
0001
0000
1000
0000
0010
0100
0010
1000
0001
0000
1000
0100
0010
0000
0002
0000
,
0000
0000
0103
0000
0010
0000
1000
0000
0001
0000
1000
0100
1000
0001
0100
0001
,
0010
0100
1000
0001
0100
0000
0001
0000
0010
0000
0100
0000
1000
0000
0001
0000
,
1001
0000
0000
0000
0010
0000
0100
0000
1001
0000
0001
0010
0100
1000
0000
0001
,
0100
0010
0100
0010
0000
1000
0001
0000
0010
0000
0001
0100
0000
0010
1000
0000
,
0001
0010
0001
0010
0100
1000
0001
0100
0010
0000
1000
0001
0000
0100
0000
0001
,
1000
0000
0001
0010
0000
0100
1000
0000
0010
0000
1000
0100
0010
0001
1000
0001
,
0100
0010
0100
0001
1000
0100
1000
0100
1000
0100
1000
0000
1001
0000
0000
0000
,
0001
0100
0010
0010
0100
0001
0001
0020
,
0000
0000
0130
0000
1000
0001
0100
0000
0010
0100
0000
0001
0000
1000
0100
0000
,
1000
0001
0100
0000
0001
0010
0000
0001
0100
0000
0010
1000
0000
0100
1000
0010
,
0100
0001
0010
0100
1000
0000
0000
0000
2002
0000
0000
0000
0000
0000
0000
0000
,
0000
0000
0000
0000
,
3003
0000
0000
0000
,
0000
0000
0000
0000
;
#NOTES:
     dance-double:
     :
     Easy:
     8:
     :
00000000
00000000
00000000
00000000
,
00000000
00000000
00000000
00000000
,
00000000
00000000
00000000
00000000
,
00000000
00000000
00000000
00000000
,
00000000
00000000
00000000
00000000
,
00000000
00000000
00000000
00000000
,
00022000
00000000
00000000
00000000
,
00000000
00000000
00000000
00033000
,
00001000
00000000
00000000
00001000
00000000
00000000
00000000
00000000
00010000
00000000
00000000
00010000
00000000
00000000
00000000
00000000
,
00010000
00000010
00000220
00000330
,
00000000
00001001
00000001
00000100
,
00001000
00010000
01000000
10000000
,
00100000
00100000
00100000
00000000
10000000
00000000
01000000
00000000
,
00100000
00000000
00001000
00000000
00010000
00001000
00010000
00001000
,
00010000
00000100
00001000
00000010
,
00001000
00000000
00000000
00000000
00000001
00000000
00000000
00000001
00000000
00000000
00000001
00000000
00000000
00000000
00000000
00000000
,
00000010
00000100
00010000
00001000
,
00020000
00000000
00030000
00002000
,
00000000
00000000
00013000
00011000
,
00010000
00000000
00001000
01000000
00100000
00000000
10000000
01000000
,
00010000
00000000
00001000
00010000
00000100
00000000
00000010
00000001
,
00000100
00000000
00000000
00000000
00000010
00000000
00010000
00000000
00001000
00000000
00010000
00002000
00000000
00000000
00000000
00000000
,
00000000
00000000
00003000
00010000
,
00000000
01000000
00000000
10000000
,
00000000
00100000
00000000
00010000
,
00000000
00001000
00000000
00000200
,
00000300
00000000
00000001
00000001
,
00001000
00001000
00000010
00000010
,
00000100
00000100
00000001
00000011
,
00001000
00001100
00010000
00011000
,
00100000
00110000
10000000
10000000
,
00010000
00010000
01000000
01000000
,
00100000
00100000
10000000
01000000
,
00010000
00001000
00011000
00011000
,
00011000
00000000
00000000
00000000
00000000
00001000
00010000
00000000
,
00000100
00000000
00000010
00000000
00000001
00001000
00000001
00000000
,
00000100
00001000
00010000
00011000
,
00000010
00001010
00010000
00011000
,
00000010
00000000
00001010
00000000
00000000
00010000
00001000
00000000
,
01000000
00000000
00100000
00000000
10000000
00010000
10000000
00000000
,
01000000
00010000
00001000
00011000
,
00100000
00000000
00000000
00000000
00110000
00000000
00000000
00000000
00001000
00000000
00000000
00010000
00000000
00000000
00001000
00000000
,
00000000
01000000
00000000
00000000
00100000
00000000
00000000
00000000
00000000
00000000
00000000
00000000
10010000
00000000
00000000
00000000
,
00000000
10000000
00000000
01000000
,
00000000
00100000
00002000
00010000
,
00203000
00010000
00302000
00010000
,
00203000
00010000
00301000
00000000
,
00010000
00000000
00000100
00000000
,
00001000
00000000
00000020
00001000
,
00020030
00031000
00022000
00000000
,
00000000
00000000
00000000
00000000
00000000
00000000
00000000
00030000
00003000
00000000
00000000
00000000
00010000
00000000
00000000
00000000
,
00000100
00000000
00000010
00000000
00000001
00000000
00001000
00000010
,
00000100
00000001
00000010
00000100
,
00010000
00000000
00001000
00000000
01000000
00010000
01000000
00010000
,
00100000
11000000
01000000
00100000
,
00001000
00000000
00010000
00000000
00000100
00000000
00001000
00000020
,
00000000
00000030
00000100
00000001
00001000
00000000
00000001
00000000
,
00000100
00002000
00000000
00003000
,
00011000
00000000
01100000
10000000
,
00010000
01000000
00100000
00010000
,
00001000
00000000
00010000
00001000
00010000
00000000
00000100
00000000
,
00000010
00000001
00000000
00000001
00001000
00000000
00000010
00000000
,
00010000
00000000
00001000
00001000
00001000
00001000
00001000
00000000
,
00000000
00000000
00000000
00000000
,
00000000
00000000
00001000
00010000
00001000
00000000
01000000
00000000
,
00010000
00000000
00000000
00000000
00100000
00000000
00000000
00100000
00000000
00000000
00100000
00000000
00000000
00100000
00000000
00000000
,
00100000
00001000
00020000
00000000
,
00000000
00000000
00000000
00000000
,
00030000
00000000
00000000
00000000
,
00000000
00000000
00000000
00000000
;
#NOTES:
     dance-double:
     :
     Medium:
     12:
     :
00000000
00000000
00000000
00000000
,
00000000
00000000
00000000
00000000
,
00000000
00000000
00000000
00000000
,
00000000
00000000
00000000
00000000
,
00000000
00000000
00000000
00000000
,
00000000
00000000
00000000
00000000
,
00001000
00010000
00000100
00001000
00000010
00010000
00001000
01000000
,
00010000
00100000
00001000
00010000
00000100
00001000
00000010
00010000
,
00001000
00000000
00000000
01000000
00000000
00000000
00010000
00000000
00100000
00000000
00000000
00001000
00000000
00000000
00010000
00000000
,
00000100
00001000
00002002
00003003
,
00000000
00000100
00001001
00000000
00000001
00000100
00000010
00001000
,
00000100
00010000
00001000
00010000
00001000
01000000
00010000
00100000
,
00001000
00010000
00001000
01000000
00100000
10000000
00010000
00100000
,
01000000
10000000
01000000
00010000
00001000
00010000
00001000
00000100
,
00000001
00000000
00000010
00000100
00001000
00000001
00000100
00000010
,
00001000
00000000
00000010
00000000
00010000
00000000
00000000
00011000
00000000
00000000
00011000
00000000
00000000
00000000
00000000
00000000
,
00001000
00010000
00100000
01000000
00010000
10000000
01000000
00100000
,
00020000
00000000
00130000
00002000
,
00000000
00000000
00000000
00000000
00013000
00000000
00022000
00033000
,
00010000
00001000
00000010
00000000
00000100
00010000
00001000
00000000
00000100
00000010
00010000
00000000
00001000
00010000
00000100
00000000
,
00000010
00001000
00010000
00000000
00001000
00010000
00100000
00000000
01000000
00001000
00010000
00000000
01000000
00100000
00001000
00000000
,
00010000
00000000
00001000
00000000
01000000
00000000
00000000
00000000
00100000
00000000
00010000
00000000
00001000
00000000
00001000
00000000
00100000
00000000
00000000
01000000
00000000
00000000
20000000
00000000
00000000
00000000
00000000
00000000
00000000
00000000
00000000
00000000
,
00000000
00000000
30000000
00200000
,
00300000
02000000
03000000
00002000
,
00003000
00020000
00030000
00002000
,
00003000
00000020
00000030
00000200
,
00000300
00000000
00001000
00001000
,
00000001
00000001
00000010
00000010
,
00000100
00000000
00000000
00000000
00000100
00000000
00000000
00000000
00010000
00000000
00000000
00001000
00000000
00000000
00010000
00000000
,
00000010
00000000
00000000
00001000
00000000
00000000
00000010
00000000
00010000
00000000
00000000
00001000
00000000
00000000
00010000
00000000
,
00001000
00000000
01000000
00000000
01000000
00010000
01000000
00010000
,
10000000
01000000
10000000
01000000
00010000
00001000
00010000
00001000
,
00000100
00000001
00000100
00000001
00000010
00000100
00001000
00000010
,
00010000
00001000
01000000
00100000
10100000
00000000
10010000
00000000
,
00010000
00100000
01000000
10000000
00000000
10000000
00100000
01000000
,
00010000
01000000
00000000
00010000
01000000
00000000
00002000
00000000
00010000
00000000
00203000
00000000
00010000
00000000
00302000
00000000
,
00010000
00103000
00001000
00000000
00012000
00000000
01003000
00000000
,
02010000
03001000
00021000
00030100
,
00001200
00000000
00010300
00001000
00000000
00001000
00010000
00000100
,
00001000
00000100
00000000
00001000
00000100
00000000
00020000
00000000
00001000
00000000
00030020
00000000
00001000
00000000
00020030
00000000
,
00001000
00030010
00010000
00000000
00012000
00000000
01003000
00000000
,
02010000
00000000
00000000
00000000
03001000
00000000
00000000
00000000
00011000
00000000
00000000
00010100
00000000
00000000
00001100
00000000
,
00000000
00000011
00000000
00000000
00001001
00000000
00000000
00000000
00000110
00000000
00000000
00000000
00000001
00000000
00000000
00000000
,
00000200
00000001
00000320
00001000
,
00000230
00000000
00000000
00000000
00000301
00000000
00000000
00000000
00000001
00000000
00000000
00000100
00000000
00000000
00001000
00000000
,
00010000
00000000
00000000
01000000
00000000
00000000
10000000
00000000
00100000
00000000
00000000
00010000
00000000
00000000
00001000
00000000
,
00010000
01000000
10000000
00010000
01000000
00000000
01100000
00000000
,
00200000
10000000
02300000
00010000
,
03200000
00000000
00000000
00000000
10300000
00000000
00000000
00000000
10000000
00000000
00000000
01000000
00000000
00000000
00010000
00000000
,
00001000
00000000
00000000
00000100
00000000
00000000
00000010
00000000
00020000
00000000
00000000
00000000
00002000
00000000
00000000
00000000
,
00000000
00000000
00000000
00000000
00000000
00000000
00000000
00030000
00003000
00000000
00000000
00000000
00010000
00000000
00001000
00000000
,
00010000
00000100
00000010
00000001
00001000
00000010
00000100
00000001
,
00000100
00001000
00010000
00100000
00010000
00001000
00100000
00010000
,
10000000
01000000
00100000
00010000
01000000
00100000
00010000
00001000
,
00010000
00001000
00000010
00000000
00000001
00000010
00000100
00001000
,
00000010
00010000
00001000
01000000
00100000
10000000
00010000
00200000
,
00000000
00300000
00010000
00010000
00010000
01000000
00100000
10000000
,
01000000
00100000
00002000
00000000
00000000
00000000
00000000
00000000
,
00003010
00000000
00000000
00000100
00001001
00000000
00000001
00000100
,
00001000
00010000
00001000
00100000
01000000
10000000
00100000
10000000
,
01000000
00010000
00001000
00010000
00000010
00000100
00000010
00001000
,
00000010
00010000
00000010
00001000
00000010
00000100
00000010
00000100
,
00001000
00010000
01000000
10000000
10000000
10000000
00100000
00000000
,
01000000
00010000
00000000
00100000
00001000
00000000
00010000
00002000
,
00000000
00013000
00000100
00000010
00000001
00000100
00001000
00010000
,
00001000
00000000
00000000
00000000
00100000
00010000
00000000
00100000
00010000
00000000
10000000
00100000
00000000
01000000
00010000
00000000
,
00100000
00001000
00010000
00000000
00022000
00000000
00000000
00000000
,
00000000
00000000
00000000
00000000
,
00033000
00000000
00000000
00000000
,
00000000
00000000
00000000
00000000
;
#NOTES:
     dance-double:
     :
     Hard:
     16:
     :
00000000
00000000
00000000
00000000
,
00000000
00000000
00000000
00000000
,
00000000
00000000
00000000
00000000
,
00000000
00000000
00000000
00000000
,
00000000
00000000
00000000
00000000
,
00000000
00000000
00000000
00000000
,
00011000
00000000
00000000
00000000
00001000
00010000
00001000
00010000
00001000
00010000
00001000
00010000
00001000
00010000
00001000
00010000
,
00001000
00010000
00001000
00010000
00001000
00010000
00001000
00010000
00001000
00010000
00001000
00010000
00001000
00010000
00001000
00010000
,
00001000
00000000
00000000
01000000
00000000
00000000
00010000
00100000
01000000
00000000
00000000
11000000
00000000
00000000
00100000
00001000
,
00010000
00001000
00022000
00033000
,
00000000
00000000
01000000
00000000
10010000
00000000
00000000
00000000
10000000
01000000
00100000
00010000
00000000
00100000
00001000
00000000
,
00010000
00000000
00000100
00000000
00000010
00000000
00000001
00001000
00000000
00000010
00010000
00000000
00001000
00010000
00001000
01000000
,
00010000
00000000
00100000
00000000
00100000
00000000
00010000
10000000
00010000
10000000
00000000
00100000
01000000
00010000
10000000
01000000
,
00200000
00000000
00010000
00000000
00302000
00000000
00010000
00000000
00103000
00010000
00100000
00001000
00010000
00000100
00001000
00000100
,
00000010
00000000
00000001
00000000
00001000
00000010
00000000
00010000
00001000
00010000
00001000
01000000
00000000
00100000
10000000
00000000
,
00010000
01000000
00000000
00000000
01100000
00000000
00000000
01001000
00000000
00000000
01100000
00000000
01000000
00000000
00010000
00100000
,
01000000
00000000
10000000
00000000
00010000
00000000
01000000
00001000
00000000
00001000
00010000
00000000
00000100
00001000
00000001
00000100
,
00000020
00000000
00000130
00002002
,
00000000
00000000
00000000
00000000
00000000
00000000
00000000
00000000
00000000
00000000
00000000
00000000
00000000
00000000
00000000
00000000
00003003
00000000
00000000
00000000
00000000
00000000
00000000
00000000
00001001
00000000
00000000
00000000
00000001
00001000
00000001
00000000
,
00000010
00000001
00000000
00000100
00000000
00001000
00000000
00010000
00001000
00000000
00010000
00000000
01000000
00000000
10000000
00000000
00100000
00000000
00000000
01000000
00000000
00000000
00100000
00000000
10000000
00000000
00000000
00010000
00000000
00100000
00001000
00000000
,
00010000
00000000
00000000
00000100
00000000
00000000
00001000
00000100
00000001
00000000
00000000
00000000
00000100
00000000
00000000
00000000
00010000
00001000
00000000
00100000
00010000
00000000
10000000
00000000
00100000
01000000
00100000
01000000
00100000
00000000
00010000
00000000
,
00001000
00000000
00000000
00010000
00000000
00000000
00000100
00000000
00010000
00000000
00001000
00000000
00010000
00000000
00010000
00000000
01000000
00000000
00000000
10000000
00000000
00000000
00200000
00000000
00000000
00000000
00000000
00000000
00000000
00000000
00000000
00000000
,
00000000
00000000
00000000
00000000
00000000
00000000
00000000
00000000
00300000
00000000
00000000
00000000
10000000
01000000
00000000
00100000
,
00000000
00010000
00000000
00000000
10000000
01000000
00000000
00100000
00000000
00010000
00000000
00000000
01000000
00100000
00000000
00010000
,
00000000
00001000
00010000
00000000
00010000
00000100
00000000
00001000
00000000
00000000
00000000
00000000
00000001
00000100
00000000
00000010
,
00000000
00001000
00000000
00000000
00000000
00000001
00000010
00000100
00001000
00000010
00000000
00010000
00000000
00001000
00000200
00000000
,
00000000
00000300
00000001
00000001
,
00001000
00000000
00000000
00000000
00001000
00000000
00000000
00000000
00000001
00000010
00000001
00000000
00001000
00000000
00000001
00000000
,
00000100
00000000
00001000
00000000
00010000
00000000
01000000
00000000
10000000
00000000
00000000
00100000
00000000
00000000
00010000
00000000
,
00001000
00000000
00000000
00010000
00000000
00000000
01000000
00000000
00100000
00000000
00000000
00001000
00000000
00000000
00000010
00000000
,
00000100
00010000
00001000
00010000
01000000
10000000
00100000
01000000
,
00001000
00010000
00000100
00001000
00000010
00010000
00001000
01000000
,
00010000
00000000
00100000
00000000
00001000
00000000
00010000
00000000
00000100
00001000
00000001
00001000
00000010
00010000
00001000
00010000
,
00001000
01000000
00010000
10000000
00010000
00100000
00001000
00010000
00001000
00000000
00000000
00000000
00001000
00000000
00000000
00000000
,
00001000
00000000
01000000
00000000
00100000
00000000
10000000
00000000
00000000
00000000
10000000
01000000
00010000
00000000
00001000
00000000
,
00010000
00000100
00000000
00000010
00000001
00000000
00000200
00000000
00000010
00000000
00000302
00000000
00001000
00000000
00000203
00000000
,
00000010
00000000
00000302
00000000
00001000
00000000
00000103
00000000
00000101
00000000
00000000
00001001
00000000
00000000
00001100
00000000
,
00010100
00000000
00000000
00011000
00000000
00000000
00101000
00000000
00011000
00000000
00000000
00010010
00000000
00000000
00001010
00000000
,
00000001
00001000
00000001
00000100
00000010
00000100
00000001
00001000
00000001
00000000
00000100
00001000
00010000
00000000
00100000
00000000
,
10000000
01000000
00000000
00100000
00010000
00000000
02000000
00000000
00100000
00000000
03020000
00000000
10000000
00000000
02030000
00000000
,
00100000
00000000
03020000
00000000
10000000
00000000
01030000
00000000
01010000
00000000
00000000
01001000
00000000
00000000
00011000
00000000
,
00101000
00000000
00000000
00011000
00000000
00000000
01001000
00000000
01010000
00000000
00000000
01100000
00000000
00000000
10100000
00000000
,
10000000
00010000
01000000
00100000
01000000
00010000
10000000
00000000
00000000
00000000
10000000
01000000
00100000
00000000
00001000
00000000
,
00010000
00000010
00000000
00001000
00000100
00000000
00010000
00000000
00000200
00000000
00001000
00000000
00020300
00000000
00001000
00000000
,
00030020
00000000
00001000
00000000
00020030
00000000
00001000
00000000
00030100
00000000
00000000
00000010
00000000
00000000
00001000
00000000
,
00010000
00000000
00000000
01000000
00000000
00000000
10000000
00000000
00100000
00000000
00000000
00010000
00000000
00000000
00001000
00000000
,
00010000
00000100
00000010
00000001
00001000
00000010
00000100
00000001
00001000
00000000
00000001
00000100
00000010
00000000
00010000
00000000
,
00001000
00100000
00000000
00010000
01000000
00000000
00001000
00000000
02000000
00000000
00010000
00000000
03002000
00000000
00010000
00000000
,
00203000
00000000
00010000
00000000
00302000
00000000
00010000
00000000
01003000
00000000
00000000
00100000
00000000
00000000
00010000
00000000
,
00001000
00000000
00000000
00000100
00000000
00000000
00002002
00000000
00000000
00000000
00000000
00000000
00000000
00000000
00000000
00000000
,
00000000
00000000
00000000
00000000
00000000
00000000
00003003
00000100
00001001
00000000
00000000
00000000
00000001
00000100
00000000
00000001
,
00000010
00000100
00001000
00000000
00000010
00010000
00001000
00000000
00010000
00001000
00100000
00001000
00010000
00000000
00001000
00010000
,
00000000
00100000
00000000
10000000
01000000
00000000
00100000
00001000
00010000
00000000
00001000
00000010
00000000
00000001
00000000
00000100
,
00001000
00000000
00010000
00100000
00000000
10000000
00000000
01000000
00010000
00000000
00001000
00000010
00000000
00000001
00000010
00000100
,
00001000
00000001
00001000
00000010
00000100
00000000
00000001
00000000
00000010
00000100
00001000
00000010
00010000
00001000
00000000
00100000
,
00010000
00000000
10000000
00000000
00010000
01000000
00100000
10000000
00010000
00000000
10000000
01000000
00100000
00000000
00002000
00000000
,
00000000
00000000
00013000
00000000
00000100
00000000
00000010
00000000
00000001
00000000
00001000
00000100
00001000
00000001
00000100
00000001
,
00000010
00000100
00001000
00000001
00000100
00000000
00000001
00000000
00000010
00000000
00001000
00000000
00010000
00000000
01000000
00000000
,
00110000
00000000
00000000
00000000
00000000
00000000
01000000
00000000
10010000
00000000
00000000
00000000
10000000
01000000
00000000
00100000
,
00010000
00100000
00001000
00010000
00000000
00000100
00001000
00000000
00000001
00000000
00000100
00000010
00000000
00010000
00001000
00000000
,
01000000
00100000
10000000
00010000
00100000
01000000
10000000
00010000
01000000
00000000
00100000
10000000
00000000
01000000
00000000
00010000
,
00001000
00000000
00000010
00000001
00000000
00000001
00000100
00000000
00001000
00000000
00010000
00001000
01000000
00010000
00100000
00001000
,
00010000
00000100
00001000
00000010
00010000
00001000
00010000
00001000
00010000
00001000
00010000
00000000
00011000
00000000
00000000
00000000
,
00001000
01000000
00100000
00100000
10000000
01000000
00010000
00002000
,
00000000
00000000
00013000
00000000
00000100
00000010
00000001
00000000
00000100
00000010
00000000
00001000
00000000
00000001
00000010
00000000
,
00000100
00001000
00000010
00000000
00010000
00001000
00000000
01000000
00010000
00000000
10000000
01000000
00000000
00100000
00010000
00000000
,
10000000
01000000
00010000
00001000
00000010
00000000
00000000
00000000
00002002
00000000
00000000
00000000
00000000
00000000
00000000
00000000
,
00000000
00000000
00000000
00000000
,
00003003
00000000
00000000
00000000
,
00000000
00000000
00000000
00000000
;
