
//----- song ID: sayh -----//
#TITLE:サヨナラ・ヘヴン;
#ARTIST:猫叉Master;
#TITLETRANSLIT:Sayonara heaven;
#ARTISTTRANSLIT:Nekomata Master;
#BANNER:Sayonara heaven.png;
#BACKGROUND:Sayonara heaven-bg.png;
#CDTITLE:./CDTitles/pnm 11 CS.png;
#MUSIC:Sayonara heaven.ogg;
#SAMPLESTART:72.975;
#SAMPLELENGTH:15;
#BPMS:0=111;
#NOTES:
     dance-single:
     :
     Beginner:
     1:
     :
0000
0000
0000
0000
,
0000
0000
0000
0000
,
0000
0000
0000
0000
,
0000
0000
0000
0000
,
0000
0000
0000
0000
,
0000
0000
0000
0000
,
0001
0000
0000
0000
,
0001
0000
0000
0000
,
0001
0000
0000
0000
,
0100
0000
0000
0000
,
0000
0000
0000
0000
,
0010
0000
0000
0000
,
0010
0000
0000
0000
,
1000
0000
0000
0000
,
0000
0000
0000
0000
,
1000
0000
0000
0000
,
1000
0000
0000
0000
,
0100
0000
0000
0000
,
0100
0000
0000
0000
,
0010
0000
0000
0000
,
0000
0000
0000
0000
,
0001
0000
0000
0000
,
0001
0000
0000
0000
,
0010
0000
0000
0000
,
0000
0000
0000
0000
,
0002
0000
0000
0000
,
0003
0000
0000
0000
,
0001
0000
0000
0000
,
0000
0000
0000
0000
,
2000
0000
0000
0000
,
3000
0000
0000
0000
,
1000
0000
0000
0000
,
0000
0000
0000
0000
,
0000
0000
0000
0000
,
1000
0000
0000
0000
,
0010
0000
0000
0000
,
1000
0000
0000
0000
,
0000
0000
0000
0000
,
1000
0000
0000
0000
,
0100
0000
0000
0000
,
1000
0000
0000
0000
,
0000
0000
0000
0000
,
0001
0000
0000
0000
,
0010
0000
0000
0000
,
0001
0000
0000
0000
,
0000
0000
0000
0000
,
0001
0000
0000
0000
,
0100
0000
0000
0000
,
0001
0000
0000
0000
,
0002
0000
0000
0000
,
0003
0000
0000
0000
,
0010
0000
0000
0000
,
0010
0000
0000
0000
,
0200
0000
0000
0000
,
0300
0000
0000
0000
,
1000
0000
0000
0000
,
1000
0000
0000
1000
,
0000
0000
0000
0000
;
#NOTES:
     dance-single:
     :
     Easy:
     3:
     :
0000
0000
0000
0000
,
0000
0000
0000
0000
,
0000
0000
0000
0000
,
0000
0000
0000
0000
,
0000
0000
0000
0000
,
0000
0000
0000
0000
,
0001
0010
0001
0000
,
0100
0001
0100
0000
,
0010
1000
0010
0000
,
1000
1000
0010
0000
,
1000
1000
0100
0000
,
1000
0000
0100
0000
,
1000
0000
0000
0000
,
0001
0001
0100
0000
,
0001
0001
0010
0000
,
0001
0000
0100
0000
,
0001
0000
0000
0000
,
1000
0000
0100
0000
,
0010
0001
0010
0000
,
0002
0000
0000
0003
,
2000
0000
0000
3000
,
0001
0000
0100
0000
,
0010
1000
0010
0000
,
2000
0000
0000
3000
,
0002
0000
0000
0003
,
1001
0000
0000
0000
,
0110
0000
0000
0000
,
1001
0000
0110
0000
,
1001
0000
0000
0000
,
0110
0000
0000
0000
,
1001
0000
0000
0000
,
0110
0000
1001
0000
,
0220
0000
0000
0000
,
0330
0000
0000
0000
,
0001
0001
0100
0100
,
0001
0000
0000
0000
,
0010
0000
0000
0000
,
0100
0000
0000
0000
,
1000
1000
0100
0100
,
1000
0000
0000
0000
,
0010
0000
0000
0000
,
0100
0000
0000
0000
,
0001
0001
1000
1000
,
0001
0000
0000
0000
,
0010
0000
0000
0000
,
0100
0000
0000
0000
,
0010
0010
0100
0100
,
0010
0000
0000
0000
,
0001
0000
0000
0000
,
2000
0000
0000
0000
,
3000
0000
0000
0000
,
0002
0000
0000
0000
,
0003
0000
0000
0000
,
0100
0000
0010
0000
,
0100
0010
0100
0000
,
0001
0000
1000
0000
,
0001
1000
0001
0001
,
0000
0000
0000
0000
;
#NOTES:
     dance-single:
     :
     Medium:
     9:
     :
0000
0000
0000
0000
,
0000
0000
0000
0000
,
0000
0000
0000
0000
,
0000
0000
0000
0000
,
0000
0000
0000
0000
,
0000
0000
0000
0000
,
0001
0000
0000
0001
0100
0000
0000
0000
0001
0000
0000
0001
0100
0000
0000
0000
,
0001
0000
0000
0001
0010
0000
0000
0000
0001
0000
0000
0000
0000
0000
0000
0000
,
1000
0000
0000
1000
0100
0000
0000
0000
1000
0000
0010
0000
1000
0000
0000
0000
,
0001
0100
0010
0000
1000
0100
0010
0000
,
0002
0100
2003
3100
,
0010
1000
0100
0000
0010
0001
0100
0000
,
0001
0010
0001
0010
0100
1000
0100
0000
,
1000
0010
0100
0000
0001
0010
0100
0000
,
2000
0010
3002
0013
,
0100
0001
0010
0000
0100
1000
0010
0000
,
1000
0100
0010
0001
0010
0000
1001
0000
,
1000
0000
0000
1000
0000
0000
1000
0000
0200
0000
0000
0000
0320
0000
0000
0000
,
0031
0100
0001
0010
0002
0000
0003
0000
,
0011
0000
0000
0000
1010
0000
0000
0000
0010
0000
0000
1000
0000
0000
0100
0000
,
0010
0000
0000
0001
0000
0000
0100
0000
0220
0000
0000
0000
0330
0000
0000
0000
,
0001
0000
0000
0001
0000
0000
0001
0000
0020
0000
0000
0000
0230
0000
0000
0000
,
1300
0010
1000
0100
2000
0000
3000
0000
,
1100
0000
0000
0000
0101
0000
0000
0000
0100
0000
0000
0001
0000
0000
0010
0000
,
0100
0000
0000
1000
0000
0000
0010
0000
0220
0000
0000
0000
0330
0000
0000
0000
,
0001
0000
0000
0100
0000
0000
0001
0000
0020
0000
0000
0000
0030
0000
0000
0000
,
0100
0000
0000
1000
0000
0000
0100
0000
0020
0000
0000
0000
0030
0000
0000
0000
,
0001
0000
0000
0100
0000
0000
0001
0000
1000
0000
0100
0000
1000
0000
0000
0000
,
0002
0023
0230
2300
,
3001
0000
0000
0010
0000
0000
0001
0000
0200
0000
0000
0000
0300
0000
0000
0000
,
0010
0000
0000
1000
0000
0000
0010
0000
0200
0000
0000
0000
0300
0000
0000
0000
,
0001
0000
0000
0010
0000
0000
0001
0000
1000
0000
0010
0000
1000
0000
0000
0000
,
0002
0203
0320
2030
,
3001
0000
0001
0000
1000
0000
1000
0000
0000
1001
0000
0000
,
0001
0000
0000
0100
0010
0000
0000
0000
0100
0000
0000
0010
1000
0000
0000
0000
,
0001
0000
0000
0100
0010
0000
0000
0000
1000
0000
0000
0000
0000
0000
0000
0000
,
1000
0000
0000
0100
0010
0000
0000
0000
0100
0000
0010
0000
0001
0000
0000
0000
,
1000
0100
0010
0001
1000
0000
0000
0000
,
0001
0000
0000
0010
0100
0000
0000
0000
0010
0000
0000
0100
1000
0000
0000
0000
,
0001
0000
0000
0010
0100
0000
0000
0000
1000
0000
0000
0000
0000
0000
0000
0000
,
1000
0000
0000
0010
0100
0000
0000
0000
0010
0000
0100
0000
0001
0000
0000
0000
,
1000
0010
0100
0001
1000
0000
0000
0000
,
0001
0000
0000
0010
0100
0000
0000
0000
1000
0000
0000
0010
0100
0000
0000
0000
,
0001
0000
0000
0010
0100
0000
1000
0000
0001
0000
0000
0000
0000
0000
0000
0000
,
1000
0000
0000
0100
0010
0000
0000
0000
0001
0000
0100
0000
0010
0000
0000
0000
,
1000
0010
0100
0001
1000
0000
0000
0000
,
0001
0000
0000
0100
0000
0000
0001
0000
0010
0000
0000
0100
0000
0000
0010
0000
,
0100
0000
0000
1000
0000
0000
0010
0000
2000
0000
0000
0000
3001
0000
0000
0000
,
0001
0100
0001
0100
0010
1000
0010
1000
,
0001
0000
0000
0001
0100
0000
0001
0000
0010
0000
0001
0000
1000
0000
0000
0000
,
0100
0000
0000
0100
1000
0000
0010
0000
0100
0000
0010
0000
1000
0000
0000
0000
,
0001
0000
0000
0001
1000
0000
0100
0000
0010
0000
0001
0000
0100
0000
0000
0000
,
0001
0100
1000
0100
0001
0100
0010
0000
,
1000
0000
0000
1000
0010
0000
1000
0000
0100
0000
1000
0000
0001
0000
0000
0000
,
0010
0000
0000
0010
0001
0000
0100
0000
0010
0000
0100
0000
0001
0000
0000
0000
,
1000
0000
0000
1000
0001
0000
0010
0000
0100
0000
1000
0000
0010
0000
0000
0000
,
1000
0010
0001
0010
1000
0000
1001
0000
,
0000
0000
0000
0000
;
#NOTES:
     dance-single:
     :
     Hard:
     13:
     :
0000
0000
0000
0000
,
0000
0000
0000
0000
,
0000
0000
0000
0000
,
0000
0000
0000
0000
,
0000
0000
0000
0000
,
0000
0000
0000
0000
,
0001
0000
0000
0010
0001
0000
1000
0000
0100
0000
0000
1000
0010
0000
1000
0000
,
0001
0000
0000
0100
0010
0000
0100
0000
0010
0000
0000
0000
0100
0000
0001
0000
,
1000
0000
0000
0001
0010
0000
0001
0000
0100
0000
0010
0000
1000
0000
0001
0000
,
1000
0000
0001
0100
0001
0000
0010
0000
0100
0000
1000
0001
1000
0000
0010
0000
,
0100
0000
0010
1000
0010
0000
1000
0000
0200
0000
0010
0000
0320
0000
0001
0000
,
0031
0000
1000
0100
1000
0000
0001
0000
0100
0000
0010
1000
0010
0000
1000
0000
,
0001
0010
1000
0010
0001
1000
0100
0010
,
0001
0000
0100
0010
1000
0000
0010
0000
0100
0000
0001
0010
0100
0000
1000
0000
,
0100
0000
1000
0001
0100
0000
0010
0000
2000
0000
0001
0000
3002
0000
1000
0000
,
1003
0000
0010
0100
0001
0000
1000
0000
0001
0000
0010
0100
1000
0000
0001
0000
,
0100
0000
0100
0000
0010
0000
0010
0000
0110
0000
0000
1000
0001
0000
0001
0100
,
0001
0000
0010
0001
0000
0010
0001
0000
0200
0000
0010
0000
0310
0000
1000
0000
,
0100
0000
0001
0000
0100
0000
1000
0000
0001
0000
0100
0010
2000
0000
0010
0000
,
3010
0000
0000
0010
0100
0000
0001
0000
1000
0000
0001
0100
0001
0000
0010
0000
,
0100
0000
1000
0001
1000
0000
0100
0000
0110
0000
0000
0001
1000
0000
1000
0001
,
1000
0000
0010
1000
0000
0010
1000
0000
0200
0000
0010
0000
0310
0000
0001
0000
,
0100
0000
1000
0000
0100
0000
0001
0000
1000
0000
0100
0010
0002
0000
0010
0000
,
0013
0000
0000
0010
0100
0000
1000
0000
0001
0000
1000
0100
1000
0000
0010
0000
,
0100
0000
0001
1000
0001
0000
0100
0000
0110
0000
0000
1000
0001
0000
0000
0010
,
0001
0000
0100
0001
0000
0100
0001
0000
0010
0000
0011
0000
0011
0000
0001
0010
,
0100
0000
1000
0010
0000
1000
0010
0000
1000
0000
1010
0000
1010
0000
0001
0100
,
1000
0000
0100
0010
0000
0100
0010
0000
2000
0000
0100
0000
3002
0000
0100
0000
,
0023
0000
0000
0000
1000
0000
0000
0000
0100
0000
0000
0000
0031
0000
0000
0001
,
1000
0000
0010
1000
0000
0010
1000
0000
0100
0000
1100
0000
1100
0000
1000
0100
,
0010
0000
0001
0100
0000
0001
0100
0000
0001
0000
0101
0000
0101
0000
1000
0010
,
0001
0000
0010
0100
0000
0010
0100
0000
0002
0000
0010
0000
2003
0000
0010
0000
,
3200
0001
0010
1300
,
0001
0000
0000
0000
1000
0000
0000
0000
0001
0000
0000
0000
0000
0000
0000
0000
1000
0000
0000
0000
0001
0000
0000
0000
1001
0000
0000
0000
0000
0000
0000
0000
0000
1000
0000
0000
0001
0000
0000
0000
0000
0000
0001
0000
0000
0000
0000
0000
,
1000
0000
0000
0001
0100
0001
0100
0000
0010
0000
0000
1000
0100
1000
0100
0000
,
0010
0000
0000
0001
0100
0001
0100
0000
0010
0000
0000
0000
0010
0000
1000
0000
,
0001
0000
0000
1000
0100
1000
0100
0000
0001
0000
0100
0000
1000
0000
0010
0000
,
1010
1000
1001
0001
0101
0000
0001
0010
,
0001
0000
0000
1000
0010
1000
0010
0000
0100
0000
0000
0001
0010
0001
0010
0000
,
0100
0000
0000
1000
0010
1000
0010
0000
0100
0000
0000
0000
0100
0000
0001
0000
,
1000
0000
0000
0001
0010
0001
0010
0000
1000
0000
0010
0000
0001
0000
0100
0000
,
0101
0001
1001
1000
1010
0000
0010
1000
,
0001
0000
0000
1000
0100
0010
0001
0000
1000
0000
0000
0001
0010
0100
1000
0000
,
0001
0000
0000
1000
0100
0010
0001
0000
1000
0000
0000
0000
0010
0000
0100
0000
,
0001
0000
0000
1000
0100
0010
0001
0000
1000
0000
0100
0000
0001
0000
0100
0000
,
1100
0100
0110
0010
0011
0000
1000
0001
,
1000
0010
0100
0010
0000
1000
0001
0000
0010
0001
0010
0100
0000
0010
0001
0000
,
0100
0001
1000
0010
0000
1000
0001
0000
1000
0010
1000
0010
0100
0001
0100
0000
,
0001
0000
0000
0100
0010
1000
0100
0000
0110
0000
0010
0000
0011
0000
0001
0000
,
1001
0000
1000
0100
1000
0000
0001
0000
0100
0000
0010
1000
0010
0000
0100
0000
,
0001
0000
0010
0100
0010
0000
0001
0000
1000
0000
0100
0010
0001
0000
0100
0000
,
0010
0000
1000
0001
1000
0000
0001
0000
0100
0000
0010
1000
0010
0000
0100
0000
,
0001
0000
0010
0001
0010
0000
0100
0000
1000
0000
0001
0000
0010
0000
0100
0000
,
1000
0000
0010
1000
0100
0000
0010
0000
0001
0000
0100
0001
0010
0000
0100
0000
,
1000
0000
0001
0100
0010
0000
1000
0000
0001
0000
0100
0001
1000
0000
0100
0000
,
0010
0000
0001
0100
0001
0000
0010
0000
0100
0000
1000
0010
1000
0000
0001
0000
,
1000
0000
0100
0000
0001
0000
0100
0000
1000
0000
0000
1000
0001
0000
0000
0000
,
0000
0000
0000
0000
;
#NOTES:
     dance-double:
     :
     Easy:
     3:
     :
00000000
00000000
00000000
00000000
,
00000000
00000000
00000000
00000000
,
00000000
00000000
00000000
00000000
,
00000000
00000000
00000000
00000000
,
00000000
00000000
00000000
00000000
,
00000000
00000000
00000000
00000000
,
00001000
00010000
00001000
00000000
,
00010000
00001000
00010000
00000000
,
00001000
00010000
00000100
00000000
,
00001000
00000000
00000010
00000000
,
00000100
00000001
00000100
00000000
,
00000010
00000000
00001000
00000000
,
00000100
00000000
00000000
00000000
,
00010000
00000000
00001000
00000000
,
00010000
00001000
00100000
00000000
,
00010000
00000000
01000000
00000000
,
00010000
00000000
00000000
00000000
,
10000000
00000000
01000000
00000000
,
00100000
00010000
00100000
00000000
,
00002000
00000000
00000000
00003000
,
00020000
00000000
00000000
00030000
,
00001000
00000000
00010000
00000000
,
00000100
00001000
00000100
00000000
,
00000020
00000000
00000000
00000030
,
00000002
00000000
00000000
00000003
,
00001001
00000000
00000000
00000000
,
00000001
00000000
00000100
00000000
,
00001000
00000000
00000000
00000000
,
00010000
00000000
00000000
00000000
,
00011000
00000000
00000000
00000000
,
00010000
00000000
00100000
00000000
,
10000000
00000000
00000000
00000000
,
00010000
00000000
00000000
00000000
,
10010000
00000000
00000000
00000000
,
10000000
01000000
10000000
00000000
,
00010000
00100000
00010000
00000000
,
00100000
00001000
00010000
00000000
,
00011000
00000000
00000000
00000000
,
00001000
00010000
00001000
00000000
,
00010000
00000100
00001000
00000000
,
00000100
00000010
00000100
00000000
,
00000110
00000000
00000000
00000000
,
00000001
00000100
00000010
00000000
,
00000100
00000010
00010000
00000000
,
00001000
00010000
00100000
00000000
,
10000000
00000000
00000000
00000000
,
10000000
01000000
00100000
00000000
,
01000000
00100000
00001000
00000000
,
00010000
00001000
00010000
00000000
,
00011000
00000000
00000000
00000000
,
00000000
00000000
00000000
00000000
,
00001000
00000000
00010000
00000000
,
00000010
00001000
00000010
00000000
,
00000100
00000000
00000001
00000000
,
00001000
00000010
00001000
00000000
,
00000010
00000000
00010000
00000000
,
00001000
00001000
00010000
00010000
,
00000000
00000000
00000000
00000000
;
#NOTES:
     dance-double:
     :
     Medium:
     9:
     :
00000000
00000000
00000000
00000000
,
00000000
00000000
00000000
00000000
,
00000000
00000000
00000000
00000000
,
00000000
00000000
00000000
00000000
,
00000000
00000000
00000000
00000000
,
00000000
00000000
00000000
00000000
,
00001000
00000000
00000000
00001000
00010000
00000000
00000000
00000000
00001000
00000000
00000000
00001000
00010000
00000000
00000000
00000000
,
00001000
00000000
00000000
00001000
00010000
00000000
00000000
00000000
00001000
00000000
00000000
00000000
00000000
00000000
00000000
00000000
,
00010000
00000000
00000000
00010000
00001000
00000000
00000000
00000000
00010000
00000000
00001000
00000000
00010000
00000000
00000000
00000000
,
00001000
00010000
00001000
00010000
00001000
00000010
00000001
00000000
,
00000100
00000010
00000100
00000000
00000010
00010000
00000010
00000000
,
00010000
00001000
00010000
00001000
00100000
00010000
00100000
00000000
,
01000000
10000000
00100000
00000000
01000000
00010000
00100000
00000000
,
01000000
10000000
01000000
10000000
01000000
00100000
01000000
00000000
,
00100000
00001000
00010000
00000000
00001000
00010000
00000010
00000000
,
00001000
00000100
00001000
00000100
00000010
00000001
00000010
00000000
,
00000001
00000100
00001000
00010000
00001000
00000000
00011000
00000000
,
00010000
00000000
00000000
00010000
00000000
00000000
00010000
00000000
00000200
00000000
00000000
00000000
00002300
00000000
00000000
00000000
,
00003010
00000100
00000001
00000100
00000020
00000000
00000030
00000000
,
00001010
00000000
00000000
00000000
00000101
00000000
00000000
00000000
00000100
00000000
00000000
00000001
00000000
00000000
00001000
00000000
,
00000100
00000000
00000000
00010000
00000000
00000000
00001000
00000000
00020000
00000000
00000000
00000000
00030000
00000000
00000000
00000000
,
00001000
00000000
00000000
00001000
00000000
00000000
00001000
00000000
02000000
00000000
00000000
00000000
03020000
00000000
00000000
00000000
,
00130000
01000000
10000000
01000000
00200000
00000000
00300000
00000000
,
00110000
00000000
00000000
00000000
11000000
00000000
00000000
00000000
01000000
00000000
00000000
10000000
00000000
00000000
00010000
00000000
,
01000000
00000000
00000000
00001000
00000000
00000000
00010000
00000000
00002000
00000000
00000000
00000000
00003000
00000000
00000000
00000000
,
00010000
00000000
00000000
00100000
00000000
00000000
00010000
00000000
00002000
00000000
00000000
00000000
00003000
00000000
00000000
00000000
,
00001000
00000000
00000000
00000010
00000000
00000000
00001000
00000000
00020000
00000000
00000000
00000000
00030000
00000000
00000000
00000000
,
00001000
00000000
00000000
00010000
00000000
00000000
01000000
00000000
20000000
00000000
00000000
00000000
30010000
00000000
00000000
00000000
,
20000000
32000000
03200000
00320000
,
00031000
00000000
00000000
00000100
00000000
00000000
00000010
00000000
00000002
00000000
00000000
00000000
00000003
00000000
00000000
00000000
,
00000001
00000000
00000000
00000100
00000000
00000000
00000010
00000000
00002000
00000000
00000000
00000000
00003000
00000000
00000000
00000000
,
00000001
00000000
00000000
00000100
00000000
00000000
00000010
00000000
00000100
00000000
00001000
00000000
00010000
00000000
00000000
00000000
,
00002000
02003000
03020000
00230000
,
01300000
00000000
01000000
00000000
00100000
00000000
00100000
00000000
00000000
10010000
00000000
00000000
,
10000000
00000000
00000000
01000000
00100000
00000000
00000000
00000000
00010000
00000000
00000000
01000000
00100000
00000000
00000000
00000000
,
10000000
00000000
00000000
01000000
00100000
00000000
00000000
00000000
00010000
00000000
00000000
00000000
00000000
00000000
00000000
00000000
,
10000000
00000000
00000000
01000000
00100000
00000000
00000000
00000000
00010000
00000000
01000000
00000000
00010000
00000000
00000000
00000000
,
00100000
00001000
00010000
00000100
00001000
00000000
00000000
00000000
,
00000001
00000000
00000000
00000100
00000010
00000000
00000000
00000000
00001000
00000000
00000000
00000100
00000010
00000000
00000000
00000000
,
00000001
00000000
00000000
00000100
00000010
00000000
00000000
00000000
00001000
00000000
00000000
00000000
00000000
00000000
00000000
00000000
,
00000001
00000000
00000000
00000100
00000010
00000000
00000000
00000000
00001000
00000000
00000100
00000000
00001000
00000000
00000000
00000000
,
00000010
00010000
00001000
01000000
00010000
00000000
00000000
00000000
,
10000000
00000000
00000000
00100000
01000000
00000000
00000000
00000000
00010000
00000000
00000000
00100000
01000000
00000000
00000000
00000000
,
10000000
00000000
00000000
00100000
01000000
00000000
00000000
00000000
00010000
00000000
00000000
00000000
00000000
00000000
00000000
00000000
,
10000000
00000000
00000000
00100000
01000000
00000000
00000000
00000000
00010000
00000000
00100000
00000000
00010000
00000000
00000000
00000000
,
01000000
00001000
00010000
00000010
00001000
00000000
00000000
00000000
,
00000001
00000000
00000000
00000010
00000000
00000000
00000100
00000000
00001000
00000000
00000000
00000010
00000000
00000000
00000100
00000000
,
00000001
00000000
00000000
00000010
00000000
00000000
00000100
00000000
00002000
00000000
00000000
00000000
00003001
00000000
00000000
00000000
,
00000001
00000100
00000001
00000100
00000010
00001000
00000010
00001000
,
00000100
00000000
00000000
00000100
00010000
00000000
00001000
00000000
00010000
00000000
00000000
00000000
01000000
00000000
00000000
00000000
,
10000000
00000000
00000000
10000000
00100000
00000000
01000000
00000000
00100000
00000000
00000000
00000000
00010000
00000000
00000000
00000000
,
00001000
00000000
00000000
00001000
00010000
00000000
00000010
00000000
00001000
00000000
00000000
00000000
00000001
00000000
00000000
00000000
,
00000010
00000001
00000100
00000000
00000010
00001000
00000100
00000000
,
00000010
00000000
00000000
00000010
00000001
00000000
00001000
00000000
00000100
00000000
00000000
00000000
00010000
00000000
00000000
00000000
,
00001000
00000000
00000000
00001000
01000000
00000000
00010000
00000000
00100000
00000000
00000000
00000000
01000000
00000000
00000000
00000000
,
10000000
00000000
00000000
10000000
00100000
00000000
01000000
00000000
00010000
00000000
01000000
00000000
00100000
00000000
00000000
00000000
,
00010000
00001000
00010000
00001000
00010000
00000000
00011000
00000000
,
00000000
00000000
00000000
00000000
;
#NOTES:
     dance-double:
     :
     Hard:
     13:
     :
00000000
00000000
00000000
00000000
,
00000000
00000000
00000000
00000000
,
00000000
00000000
00000000
00000000
,
00000000
00000000
00000000
00000000
,
00000000
00000000
00000000
00000000
,
00000000
00000000
00000000
00000000
,
00001000
00000000
00000000
00001000
00010000
00000000
00100000
00000000
00010000
00000000
00000000
00010000
00001000
00000000
00000010
00000000
,
00001000
00000000
00000000
00001000
00010000
00000000
00100000
00000000
00010000
00000000
00000000
00000000
00001000
00000000
00010000
00000000
,
00001000
00000000
00000000
00001000
00000100
00000000
00001000
00000000
00010000
00000000
01000000
00000000
10000000
00000000
00000000
00000000
,
00010000
00000000
10000000
01000000
10000000
00000000
00100000
00000000
01000000
00000000
00010000
00100000
00010000
00000000
01000000
00000000
,
00100000
00000000
00010000
00001000
00010000
00000000
00001000
00000000
00000010
00000000
00000100
00000000
00010000
00000000
00001000
00000000
,
00000010
00000000
00000001
00001000
00000001
00000000
00000100
00000000
00001000
00000000
00010000
00001000
00010000
00000000
00001000
00000000
,
00000010
00001000
00010000
01000000
00100000
00001000
00010000
00000100
,
00001000
00000000
00000001
00000100
00000001
00000000
00000010
00000000
00000100
00000000
00001000
00000010
00001000
00000000
00000100
00000000
,
00000010
00000000
00001000
00010000
00001000
00000000
00010000
00000000
00100000
00000000
01000000
00000000
00001000
00000000
00010000
00000000
,
00100000
00000000
10000000
00010000
10000000
00000000
01000000
00000000
00010000
00000000
00001000
00010000
00001000
00000000
00010000
00000000
,
00100000
00000000
00010000
00000000
00001000
00000000
00000100
00000000
00000010
00000000
00000000
00001000
00000001
00000000
00000001
00000100
,
00000001
00000000
00000010
00000001
00000000
00000010
00000001
00000000
00002000
00000000
00000001
00000000
00003001
00000000
00000000
00000000
,
00000001
00000000
00000100
00000000
00001000
00000000
00010000
00000000
00100000
00000000
10000000
00100000
10000000
00000000
01000000
00000000
,
01100000
00000000
00000000
00010000
10000000
00000000
01000000
00000000
00010000
00000000
00001000
00010000
00001000
00000000
00000010
00000000
,
00000001
00000000
00000100
00000010
00000100
00000000
00000001
00000000
00000010
00000000
00000100
00001000
00000100
00000000
00001000
00000010
,
00001000
00000000
00000001
00000100
00000000
00000001
00000100
00000000
00000020
00000000
00001000
00000000
00001030
00000000
00000000
00000000
,
00000001
00000000
00000010
00000000
00001000
00000000
00010000
00000000
01000000
00000000
10000000
01000000
10000000
00000000
00100000
00000000
,
01100000
00000000
00000000
00010000
10000000
00000000
00100000
00000000
00010000
00000000
00001000
00010000
00001000
00000000
00000100
00000000
,
00000001
00000000
00001000
00000100
00000010
00000000
00000001
00000000
00001001
00000000
00000000
00000001
00000100
00000000
00000000
00000010
,
00001000
00000000
00000100
00001000
00000000
00000100
00001000
00000000
00000100
00000000
00010000
00000000
00011000
00000000
00001000
01000000
,
00010000
00000000
00100000
01000000
00000000
00100000
01000000
00000000
10000000
00000000
00100000
00000000
10100000
00000000
10000000
01000000
,
00010000
00000000
00001000
00010000
00000000
00001000
00010000
00000000
00100000
00000000
00010000
00000000
00001000
00000000
00000010
00000000
,
00000002
00000023
00000230
00002300
,
00013000
00000000
00100000
01000000
00000000
00100000
01000000
00000000
00100000
00000000
00010000
00000000
00110000
00000000
10000000
00100000
,
01000000
00000000
00001000
00010000
00000000
00001000
00010000
00000000
00000010
00000000
00001000
00000000
00001010
00000000
00000100
00000001
,
00000010
00000000
00000001
00001000
00000000
00000001
00001000
00000000
00000001
00000000
00000100
00000000
00001000
00000000
00010000
00000000
,
02000000
03020000
00032000
00003200
,
00000301
00000000
00000000
00000000
00001000
00000000
00000000
00000000
00000001
00000000
00000000
00000000
00000000
00000000
00000000
00000000
00001000
00000000
00000000
00000000
00000001
00000000
00000000
00000000
00001001
00000000
00000000
00000000
00000000
00000000
00000000
00000000
00000000
00001000
00000000
00000000
00000001
00000000
00000000
00000000
00000000
00000000
00000001
00000000
00000000
00000000
00000000
00000000
,
00000100
00000000
00000000
00000010
00001000
00000010
00001000
00000000
00000100
00000000
00000000
00010000
00001000
00010000
00001000
00000000
,
00100000
00000000
00000000
00010000
01000000
00010000
01000000
00000000
00100000
00000000
00000000
00000000
10000000
00000000
01000000
00000000
,
00010000
00000000
00000000
01000000
00100000
01000000
00100000
00000000
00010000
00000000
10000000
00000000
01000000
00000000
00100000
00000000
,
00010000
00001000
00000100
00000010
00000110
00000000
00001000
00000001
,
00000010
00000000
00000000
00000100
00001000
00000100
00001000
00000000
00000010
00000000
00000000
00010000
00001000
00010000
00001000
00000000
,
01000000
00000000
00000000
00010000
00100000
00010000
00100000
00000000
01000000
00000000
00000000
00000000
10000000
00000000
00100000
00000000
,
00010000
00000000
00000000
00100000
01000000
00100000
01000000
00000000
00010000
00000000
10000000
00000000
00100000
00000000
01000000
00000000
,
00010000
00001000
00000010
00000100
00000110
00000000
00001000
00000001
,
00001000
00000000
00000000
00000001
00000100
00000010
00001000
00000000
00000100
00000000
00000000
00001000
00000100
00010000
00001000
00000000
,
00010000
00000000
00000000
00001000
01000000
00010000
00100000
00000000
00010000
00000000
00000000
00000000
10000000
00000000
01000000
00000000
,
10000000
00000000
00000000
00100000
10000000
00010000
01000000
00000000
00010000
00000000
00100000
00000000
01000000
00000000
00010000
00000000
,
00011000
00001000
00001010
00000010
00000011
00000000
00000001
00001000
,
00000010
00000100
00000010
00001000
00000000
00000100
00001000
00000000
00000100
00010000
00001000
00010000
00000000
00001000
01000000
00000000
,
00010000
01000000
00100000
01000000
00000000
00010000
00100000
00000000
01000000
10000000
01000000
10000000
00010000
00100000
00010000
00000000
,
10000000
00000000
00000000
10000000
01000000
00100000
00010000
00000000
01000000
00000000
00100000
00000000
00010000
00000000
00001000
00000000
,
00000010
00000000
00001000
00010000
00001000
00000000
00000100
00000000
00001000
00000000
00010000
00100000
00010000
00000000
00001000
00000000
,
00010000
00000000
01000000
00100000
01000000
00000000
00010000
00000000
00001000
00000000
00000010
00001000
00000010
00000000
00000100
00000000
,
00001000
00000000
00000010
00000100
00000010
00000000
00010000
00000000
00001000
00000000
01000000
00100000
01000000
00000000
00001000
00000000
,
00100000
01000000
00010000
00001000
00000010
00000100
00010000
00001000
,
00100000
00000000
00010000
01000000
00100000
00000000
01000000
00000000
00001000
00000000
00010000
00000010
00001000
00000000
00000100
00000000
,
00000010
00000000
00000100
00001000
00000010
00000000
00000100
00000000
00001000
00000000
00010000
00100000
00010000
00000000
00001000
00000000
,
00000010
00000000
00000100
00001000
00000010
00000000
00000100
00000000
00001000
00000000
00010000
00100000
01000000
00000000
00010000
00000000
,
10000000
00000000
01000000
00000000
00010000
00000000
00001000
00000000
00000010
00000000
00000000
00000001
00001000
00000000
00000000
00000000
,
00000000
00000000
00000000
00000000
;
