
//----- song ID: sash -----//
#TITLE:最速最高シャッターガール;
#ARTIST:ビートまりお(COOL&CREATE);
#TITLETRANSLIT:Saisoku saikou shutter girl;
#ARTISTTRANSLIT:beatMARIO(COOL&CREATE);
#BANNER:Saisoku saikou shutter girl.png;
#BACKGROUND:Saisoku saikou shutter girl-bg.png;
#CDTITLE:./CDTitles/SDVX III GRAVITY WARS.png;
#MUSIC:Saisoku saikou shutter girl.ogg;
#SAMPLESTART:36.375;
#SAMPLELENGTH:15;
#BPMS:0=160;
#NOTES:
     dance-single:
     :
     Beginner:
     4:
     :
0000
0000
0000
0000
,
0000
0000
0000
0000
,
0000
0000
0000
0000
,
0000
0000
0000
0000
,
0000
0000
0000
0000
,
0001
0000
0001
0000
,
0100
0000
0010
0000
,
0100
0000
0100
0000
,
1000
0000
0000
0000
,
1000
0000
0100
0000
,
0100
0000
0000
0000
,
0010
0000
0100
0000
,
0100
0000
0000
0000
,
0001
0000
0010
0000
,
0010
0000
0000
0000
,
0100
0000
0010
0000
,
0010
0000
0000
0000
,
1000
0000
0100
0000
,
1000
0000
0100
0000
,
0010
0000
0000
0000
,
0000
0000
0000
0000
,
0001
0000
0100
0000
,
0001
0000
0100
0000
,
0010
0000
0000
0000
,
0000
0000
0000
0000
,
1000
0000
1000
0000
,
0100
0000
0010
0000
,
0100
0000
1000
0000
,
0100
0000
0000
0000
,
1000
0000
1000
0000
,
0100
0000
0001
0000
,
1001
0000
0000
0000
,
0000
0000
0000
0000
,
0001
0000
0001
0000
,
0010
0000
0100
0000
,
0010
0000
0001
0000
,
0010
0000
0000
0000
,
0001
0000
0001
0000
,
0010
0000
1000
0000
,
1001
0000
0000
0000
,
0000
0000
0000
0000
,
0001
0000
0000
0000
,
0010
0000
0000
0000
,
0100
0000
0000
0000
,
0000
0000
0000
0000
,
1000
0000
0000
0000
,
0010
0000
0000
0000
,
0100
0000
0000
0000
,
0000
0000
0000
0000
,
1000
0000
0000
0000
,
0100
0000
0000
0000
,
0001
0000
0000
0000
,
0000
0000
0000
0000
,
0001
0000
0000
0000
,
0010
0000
0000
0000
,
1000
0000
0000
0000
,
0000
0000
0000
0000
,
0020
0000
0000
0000
,
0030
0000
0000
0000
,
0200
0000
0000
0000
,
0300
0000
0000
0000
,
0001
0000
0000
0000
,
1000
0000
0000
0000
,
2002
0000
0000
0000
,
3003
0000
0000
0000
,
0001
0000
0010
0000
,
0001
0000
0001
0000
,
0100
0000
0010
0000
,
0100
0000
0000
0000
,
1000
0000
0010
0000
,
1000
0000
1000
0000
,
0100
0000
0001
0000
,
0100
0000
0001
0000
,
0010
0000
0001
0000
,
0010
0010
0100
0000
,
0001
0000
0010
0000
,
0001
0000
0010
0000
,
1000
0000
0100
0000
,
0010
0010
0100
0000
,
1001
0000
0000
0000
,
0000
0000
0000
0000
;
#NOTES:
     dance-single:
     :
     Easy:
     7:
     :
0000
0000
0000
0000
,
0000
0000
0000
0000
,
0000
0000
0000
0000
,
0000
0000
0000
0000
,
0000
0000
0000
0000
,
1000
0000
0010
0000
0100
0010
0100
0000
,
0010
0010
1000
1000
,
0001
0000
0010
0000
0100
0010
0100
0000
,
0010
0010
0001
0001
,
1000
0100
0000
1000
0100
0000
0000
0000
,
0000
0010
0100
0000
0010
0000
0010
0000
,
0001
1000
0000
0001
1000
0000
0000
0000
,
0020
0030
0200
0300
,
0001
0100
0000
0001
0100
0000
0000
0000
,
0000
0010
0100
0000
0010
0000
0010
0000
,
1000
0001
0000
1000
0001
0000
0000
0000
,
0020
0030
0200
0300
,
1000
0000
0010
0000
0100
0001
0100
0000
,
0001
1000
0010
0100
,
0001
0000
0010
0000
0100
1000
0100
0000
,
1010
0000
0011
0000
,
0001
0000
0010
0000
0100
1000
0100
0000
,
1000
0001
0010
0100
,
1000
0000
0010
0000
0100
0001
0100
0000
,
1001
0000
0000
0000
,
1000
0000
0010
0000
0100
0001
1000
0000
,
0100
0000
0010
0000
0001
1000
0010
0000
,
0100
0100
0010
0010
,
0220
0000
0000
0330
,
0001
0000
0100
0000
0010
1000
0001
0000
,
0100
0000
0001
0000
0010
0100
0010
0000
,
0001
0001
1000
1000
,
2002
0000
0000
3003
,
1000
0000
0010
0000
0100
0001
0010
0000
,
0001
0000
1000
0000
0010
1000
0100
0000
,
0010
0010
0001
0001
,
0100
0101
0001
1000
,
0001
0000
0010
0000
0100
1000
0010
0000
,
0100
0001
0010
0000
0001
0000
1000
0000
,
2002
0000
0000
0000
,
3003
0000
0000
0000
,
0002
0000
0000
0000
,
0003
0000
0000
0000
,
0020
0000
0000
0000
,
0030
0000
0000
0000
,
0200
0000
0000
0000
,
0300
0000
0000
0000
,
2000
0000
0000
0000
,
3000
0000
0000
0000
,
1000
0100
0010
0010
,
0001
0100
0010
0010
,
1000
0010
0100
0001
,
2002
0000
0000
3003
,
2000
0000
3010
0000
,
0002
0000
0013
0000
,
0200
0300
0020
0030
,
0220
0000
0000
0330
,
1000
0010
1000
0010
,
0001
0010
0001
0010
,
1000
0100
1000
0100
,
0001
0100
0001
0100
,
1000
0010
0100
0001
,
1000
0100
0010
0001
,
1000
1000
0001
0001
,
2002
0000
0000
3003
,
1000
0000
0001
0000
0100
0010
1000
0000
,
0100
0001
0100
1000
,
0001
0000
0100
0000
0010
0100
0001
0000
,
0010
1000
0010
0001
,
1000
1100
1000
0001
,
0100
0101
0100
0010
,
1000
0100
1000
0000
0001
0100
0001
0000
,
0011
0000
1010
0000
,
1000
0010
1000
0000
0001
0010
0001
0000
,
0101
0000
1100
0000
,
0001
0100
0010
0000
0100
0010
1000
0000
,
1010
0000
0101
0000
,
1000
0100
0010
0000
0100
0010
0001
0000
,
0011
0000
1100
0000
,
1001
0000
0000
0000
,
0000
0000
0000
0000
;
#NOTES:
     dance-single:
     :
     Medium:
     12:
     :
0000
0000
0000
0000
,
0000
0000
0000
0000
,
0000
0000
0000
0000
,
0000
0000
0000
0000
,
0000
0000
0000
0000
,
1000
0100
0010
0001
1000
0100
0010
0001
,
1000
0100
0001
0100
1000
0010
1000
0000
,
0001
0100
0010
1000
0001
0100
0010
1000
,
0001
0100
1000
0100
0001
0010
0001
0000
,
1000
0100
1000
0100
0010
0001
0010
0001
,
1000
0000
0100
0000
0010
0000
0001
0000
0010
0000
0000
0100
0000
0000
0100
0000
,
1000
0001
0100
0010
0100
1000
0100
0001
,
1000
0010
0000
0010
0100
0000
1001
0000
,
0001
0100
0001
0100
0010
1000
0010
1000
,
0001
0000
0100
0000
0010
0000
1000
0000
0010
0000
0000
0100
0000
0000
0100
0000
,
0001
1000
0100
0010
0100
0001
0100
1000
,
0001
0010
0000
0010
0100
0000
1001
0000
,
1000
0100
0010
0100
1000
0001
0010
0100
,
0010
0000
0001
0000
1000
0000
0100
0000
0001
0000
0000
0100
0000
0000
1000
0000
,
0001
0010
0001
0100
0010
0100
0010
1000
,
0010
1000
0100
1000
0001
0010
0100
1000
,
0001
0010
0100
0010
0001
1000
0100
0010
,
0100
0000
1000
0000
0001
0000
0010
0000
1000
0000
0000
0010
0000
0000
0001
0000
,
1000
0100
1000
0010
0100
0010
0100
0001
,
1001
2000
3200
0320
,
0031
0000
0100
0000
1000
0000
0100
0000
0001
0000
0000
0001
0000
0000
0001
0000
,
1000
0000
0100
0000
0001
0000
0100
0000
1000
0000
0000
1000
0000
0000
1000
0000
,
0001
0000
0100
0000
0010
0000
1000
0000
0100
0000
0000
0100
0000
0000
0100
0000
,
0010
0001
0100
0010
1000
0001
0001
0001
,
0100
0000
0010
0000
1000
0000
0100
0000
0010
0000
0000
0010
0000
0000
0010
0000
,
0001
0000
0100
0000
0010
0000
1000
0000
0100
0000
0000
0100
0000
0000
0100
0000
,
1000
0000
0000
0010
0000
0000
1010
0000
1000
0000
0000
0001
0000
0000
0101
0000
,
0100
0001
0010
0001
1000
1000
0010
0010
,
1000
0000
0010
0000
0001
0000
0010
0000
1000
0000
0000
1000
0000
0000
1000
0000
,
0001
0000
0010
0000
1000
0000
0010
0000
0001
0000
0000
0001
0000
0000
0001
0000
,
1000
0000
0010
0000
0100
0000
0001
0000
0010
0000
0000
0010
0000
0000
0010
0000
,
0110
1100
1001
0101
,
0010
0000
0100
0000
0001
0000
0010
0000
0100
0000
0000
0100
0000
0000
0100
0000
,
1000
0000
0010
0000
0100
0000
0001
0000
0010
0000
0000
0010
0000
0000
0001
0000
,
2002
0000
0000
0000
,
3003
0000
0000
0000
,
2000
0000
0000
0000
,
3200
0000
0320
0000
,
0032
0000
0000
0000
,
0003
0000
0000
0002
,
2003
0000
0000
0000
,
3020
0000
0230
0000
,
0302
0000
2000
3003
,
2002
0000
0000
3003
,
1000
0000
0000
0000
0001
0000
0000
0000
0100
0000
0000
0010
0000
0000
0100
0000
,
0001
0000
0000
0000
1000
0000
0000
0000
0100
0000
0000
0010
0000
0000
0100
0000
,
0010
0000
0001
0000
0100
0000
0000
0000
0010
0000
0000
1000
0000
0000
0100
0000
,
1000
0001
0100
0000
0001
1000
0100
0000
,
0020
0001
0100
0031
,
0200
1000
0010
1300
,
2200
3300
0022
0033
,
2002
0000
0000
3003
,
1000
0100
1000
0000
0100
0010
0001
0000
,
0001
0100
0001
0000
0100
0010
1000
0000
,
0001
0010
0001
0000
1000
0010
0100
0001
,
0010
0100
0010
0000
0001
0100
0010
1000
,
0100
0010
0100
1000
0010
0100
0010
0000
,
1000
0001
0100
0001
0010
0100
1000
0000
,
0001
0100
0001
0100
0010
1000
0100
1000
,
0010
0100
0001
1000
0000
1000
0001
0000
,
1000
0100
0010
0001
1000
0010
0001
0010
,
1000
0001
0010
0100
1000
0100
0001
0100
,
1000
0010
0100
0001
0010
0100
1000
0010
,
0100
0001
0011
0000
0110
0000
1100
0000
,
0001
0010
1000
0010
0001
0100
1000
0100
,
0001
0010
0001
0100
0010
1000
0100
1000
,
0010
0010
0010
0000
0100
0100
0100
0000
,
1010
0101
0011
1100
,
1000
1000
1000
0000
0001
0001
0001
0000
,
0101
1010
0110
1001
,
1000
1000
1010
0000
0001
0001
0011
0000
,
0010
0001
0100
0010
0101
0000
1100
0000
,
0010
0010
0010
0000
0100
0100
0100
0000
,
1000
1000
0001
0001
0011
0000
1100
0000
,
1001
0000
0000
0000
,
0000
0000
0000
0000
;
#NOTES:
     dance-single:
     :
     Hard:
     16:
     :
0000
0000
0000
0000
,
0000
0000
0000
0000
,
0000
0000
0000
0000
,
0000
0000
0000
0000
,
0000
0000
0000
0000
,
0001
0000
0010
0000
0100
1000
0100
0000
1000
0000
0010
0100
0000
0100
0010
0000
,
1000
0000
0100
0000
0010
0001
0010
0000
0001
0000
0100
0010
0000
0010
0100
0000
,
0001
0000
0100
0000
0010
1000
0010
0000
1000
0000
0100
0010
0000
0010
0001
0000
,
1001
0000
0000
0000
0001
0010
0100
1000
0001
1000
0001
1000
0001
1000
0001
0000
,
1000
0000
0010
0000
0100
0010
0100
0000
0010
0000
1000
0001
0000
1000
0001
0000
,
1000
0000
0100
0010
0001
0000
0100
0000
0101
0000
0000
0110
0000
0000
1010
0000
,
1000
0010
0001
0010
1000
0000
1001
0000
,
0001
0010
0000
1000
0020
0000
0031
0000
,
0001
0000
0100
0000
0010
0100
0010
0000
0100
0000
0001
1000
0000
0001
1000
0000
,
0001
0000
0010
0100
1000
0000
0010
0000
1010
0000
0000
0110
0000
0000
0101
0000
,
0001
0100
1000
0100
0001
0000
1001
0000
,
1000
0100
0000
0001
0200
0000
1300
0000
,
0001
0000
0010
0100
0000
0010
0100
0000
1000
0000
0010
1000
0010
0100
0010
1000
,
0010
0000
1000
0100
0010
0000
0001
0000
0011
0000
0000
0101
0000
0000
1000
0000
,
1010
0000
0000
1100
0000
0000
0010
0000
2002
0000
0000
0000
3003
0000
0000
0000
,
0001
0000
0010
0100
1000
0000
0010
0000
1010
0000
0001
0000
0101
0000
0000
0000
,
1000
0000
0100
0010
0000
0100
0010
0000
0001
0000
0100
0001
0100
0010
0100
0001
,
0100
0000
0001
0010
0100
0000
1000
0000
1100
0000
0000
1010
0000
0000
0001
0000
,
0101
0000
0000
0011
0000
0000
0100
0000
2002
0000
0000
0000
0000
0000
0000
0000
,
3003
2000
3200
0320
,
0031
0100
0001
0100
0001
0010
0001
0010
0001
0000
1000
0001
0000
0100
0010
0000
,
1000
0100
1000
0100
1000
0010
1000
0010
1000
0000
0001
1000
0000
0010
0100
0000
,
0001
0010
0001
0010
0100
1000
0100
1000
0010
0000
1000
0100
0000
0010
0001
0000
,
1000
0000
0001
0010
0100
0000
1000
0010
0100
0000
0010
0000
0010
0000
0010
0000
,
1000
0100
1000
0100
1000
0001
1000
0001
1000
0000
0100
0010
0000
0001
0100
0000
,
0001
0010
0001
0010
0001
1000
0001
1000
0001
0000
0100
0010
0000
1000
0100
0000
,
1000
0000
0010
0100
0000
0001
0100
0000
0001
0000
0010
0100
0000
1000
0100
0000
,
1000
0000
1010
0000
0000
0000
1000
0100
0010
0001
0010
0000
0001
1000
0001
0000
,
1000
0100
0010
0100
1000
0100
0010
0100
1000
0000
0010
0100
0000
0010
0100
0000
,
0001
0010
0100
0010
0001
0010
0100
0010
0001
0000
0100
0010
0000
0100
0010
0000
,
1000
0001
0010
0001
1000
0001
0010
0001
1000
0000
0100
0010
0000
0001
1000
0000
,
1001
1010
1100
0011
,
0001
1000
0100
0010
0100
1000
0001
1000
0100
0000
0010
0001
0000
0100
0001
0000
,
0010
0000
0000
0000
0110
0000
0000
0000
1000
0000
0000
1000
0000
0000
0001
0000
,
2002
0000
0000
0000
,
3003
0000
0000
0000
,
0002
0000
0000
0003
,
0002
0000
0000
0000
0023
0000
0000
0000
1030
0000
0000
0010
0000
0000
0001
0000
,
0000
2000
0000
0000
0000
0000
0000
0000
0000
0000
0000
0000
0000
0000
0000
0000
,
3000
0000
0000
0000
0000
0000
0000
0000
0000
0000
0000
1000
0000
0000
0000
0000
,
0002
0000
0000
0003
,
0001
0000
0100
0000
0010
1000
0000
0010
,
0200
0000
0302
0000
,
2003
0000
0000
3000
,
0002
0000
0000
0000
0023
0000
0000
0000
0230
0000
0000
0001
0000
0000
1000
0000
,
2300
0000
0000
0000
3020
0000
0000
0000
0230
0000
0000
1000
0000
0000
0001
0000
,
0302
0000
0000
0000
0010
0000
0000
0000
0103
0000
0000
0010
0000
0000
1000
0000
,
2002
0000
3003
1000
,
0200
0010
1000
0320
,
0032
0000
0000
0000
0100
0000
0000
0000
1003
0000
0000
0100
0000
0000
0010
0000
,
0022
0000
0000
0000
,
0033
0002
0203
0320
,
2030
0000
0000
0000
0000
0000
3100
0000
0100
0000
0000
0001
0000
0000
0100
0000
,
1000
0000
0000
0000
0000
0000
0010
0000
0010
0000
0000
1000
0000
0000
0001
0000
,
0200
0000
0000
0000
,
0300
0200
0302
2003
,
3020
0000
0000
0000
0000
0000
0130
0000
0100
0000
0000
0001
0000
0000
1000
0000
,
0200
0000
0000
0000
0000
0000
1300
0000
1000
0000
0000
0001
0000
0000
0010
0000
,
0000
2002
0000
0000
0000
0000
0000
0000
0000
0000
0000
0000
0000
0000
0000
0000
,
0000
0000
3003
1001
0000
0001
0010
0100
,
1000
0010
1000
0000
0010
0000
0100
0001
0000
0010
0000
0001
1000
0001
1000
0000
,
0001
0100
0001
0000
0010
0000
0100
1000
0000
0010
0000
1000
0001
1000
0001
0000
,
1000
0001
0100
0000
0010
0000
0100
0001
0000
0010
0000
0100
1000
0010
1000
0000
,
0001
1000
0010
0000
0100
0000
0010
1000
0000
0100
0000
0010
0001
1000
0001
0000
,
1001
0000
1000
0010
0100
0010
1000
0000
0001
0010
0100
0010
0001
0000
1000
0000
,
0001
0010
0100
0000
1000
0010
0100
0000
0001
0100
0010
1000
0000
0100
0010
0000
,
0001
0100
0001
0100
0000
1000
0100
0000
0001
0010
0001
0010
0000
1000
0010
0000
,
0001
0100
0010
0100
0001
0010
0100
0010
0001
0100
0010
0100
0001
0010
0100
0000
,
1000
0010
1000
0010
0000
0001
0010
0000
1000
0100
1000
0100
0000
0001
0100
0000
,
1000
0010
0100
0010
1000
0100
0010
0100
1000
0010
0100
0010
1000
0100
0010
0000
,
0001
0010
0100
1000
0000
0010
0100
0000
0001
0010
0100
1000
0000
0010
0100
0000
,
0001
0010
0100
1000
0001
1000
0100
0010
0001
0100
0010
1000
0010
0100
0001
0000
,
1000
0100
0010
0001
0000
0100
0010
0000
1000
0100
0010
0001
0000
0100
0010
0000
,
1000
0100
0010
0001
0100
0001
0010
0100
1000
0000
0000
0000
0010
0000
0000
0000
,
1001
0000
0000
0000
,
0000
0000
0000
0000
;
#NOTES:
     dance-single:
     :
     Challenge:
     18:
     :
0000
0000
0000
0000
,
0000
0000
0000
0000
,
0000
0000
0000
0000
,
0000
0000
0000
0000
,
0000
0000
0000
0000
,
0001
0100
0001
0100
0010
1000
0010
0000
1000
0100
1000
0100
0010
0001
0010
0000
,
0001
1000
0001
0000
0100
0010
1000
0010
0000
0100
0001
0000
0020
0000
0032
0000
,
1003
0100
1000
0100
0010
0001
0010
0000
0001
0100
0001
0100
0010
1000
0010
0000
,
1000
0001
1000
0000
0100
0010
0001
0010
0002
0000
0203
0000
0320
0000
2030
0000
,
3001
0010
0100
1000
0100
0000
1000
0000
0010
1000
0001
0100
0001
0000
0010
0000
,
0001
0100
0010
0000
1000
0010
0100
0010
1000
0000
0001
0010
0100
0000
1000
0000
,
0001
0010
0100
0010
0001
1000
0100
0010
0001
0100
0010
0100
0001
1000
0010
1000
,
0100
0000
0110
0000
0001
0000
1000
0000
1001
0000
0001
0100
0010
1000
0001
0000
,
1000
0100
0010
0001
0010
0000
0001
0000
0100
0001
1000
0010
1000
0000
0100
0000
,
1000
0010
0100
0000
0001
0100
0010
0100
0001
0000
1000
0100
0010
0000
0001
0000
,
1000
0100
0010
0100
1000
0001
0010
0100
1000
0010
0100
0010
1000
0001
0100
0001
,
0010
0000
0110
0000
1000
0000
0001
0000
1001
0000
1000
0010
0100
0001
1000
0000
,
0001
0010
0001
0010
0100
1000
0001
0100
0001
0000
1000
0100
0010
0001
0100
0010
,
1000
0000
0001
0010
1000
0000
0001
0100
1000
0000
0001
0010
0100
1000
0010
0100
,
0001
1000
0001
1000
0100
1000
0010
1000
0100
0000
0010
0001
0100
0000
0001
0010
,
0100
0000
1000
0010
0100
0010
1000
0000
1010
0000
1000
0000
0011
0000
0001
0000
,
1000
0010
1000
0010
0100
0001
1000
0100
1000
0000
0001
0100
0010
1000
0100
0010
,
0001
0000
1000
0010
0001
0000
1000
0100
0001
0000
1000
0010
0100
0001
0010
0100
,
1000
0001
1000
0001
0100
0001
0010
0001
0100
0000
0010
1000
0100
0000
0010
0001
,
1000
0000
0000
0000
,
0001
0010
0100
0010
0001
0100
0010
0001
0010
1000
0001
0100
0010
1000
0010
0100
,
0001
0010
0100
0001
0100
0010
0001
1000
0100
0010
1000
0010
0100
1000
0001
0010
,
0100
1000
0100
1000
0001
0100
0010
0100
0001
0010
0100
1000
0010
0100
0001
0010
,
0100
1000
0100
1000
0001
0100
0001
0100
0010
0000
1010
0000
0110
0000
0101
0000
,
1000
0010
0100
0010
1000
0100
0010
1000
0010
0001
1000
0100
0010
0001
0010
0100
,
1000
0010
0100
1000
0100
0010
1000
0001
0100
0010
0001
0010
0100
0001
1000
0010
,
0100
0001
0100
0001
1000
0100
0010
0100
1000
0010
0100
0001
0010
0100
1000
0010
,
0100
0000
1001
0000
1000
0100
0010
0001
1000
0000
0002
0000
0023
0000
0230
0000
,
1300
0010
0100
0010
1000
0100
0010
0001
0100
0010
1000
0010
0100
0001
1000
0100
,
0010
0001
0010
0001
0100
0010
1000
0010
0100
0001
1000
0100
1000
0001
0100
0010
,
1000
0100
0010
1000
0010
0100
1000
0010
0100
1000
0100
0010
1000
0100
0010
0001
,
0100
0000
0001
0100
1000
0000
0001
0010
1000
0000
0001
0100
1000
0000
0001
0010
,
1000
0010
0100
0010
1000
0100
0010
0001
0100
1000
0100
0001
0100
1000
0100
0001
,
1000
0100
0010
0001
0100
0010
1000
0100
0010
0001
0010
1000
0010
0001
0010
1000
,
0020
0000
0000
0000
,
0030
0000
0000
0000
,
0002
0000
0000
0003
,
0200
0000
0000
0300
,
0020
0000
0000
0000
,
0030
0000
0000
0000
,
2000
0000
0000
3000
,
0200
0000
0000
0300
,
0020
0000
0000
0000
,
0030
0000
0000
0000
,
0002
0000
0000
0003
,
0200
0000
0000
0300
,
2000
0000
0000
0000
,
3000
0000
0000
0000
,
0002
0000
0000
0003
,
0020
0000
0000
0030
,
2000
0000
0000
0000
,
3000
0000
0000
0000
,
1000
0100
1000
0000
0100
0000
0010
0001
0000
0100
0000
0001
0010
0000
0100
0000
,
1000
0010
1000
0000
0010
0000
0100
0001
0000
0010
0000
0001
0100
0000
0010
0000
,
1000
0100
0010
0000
0001
0000
1000
0001
0000
0100
0000
0010
1000
0000
0001
0000
,
0100
0001
1000
0000
0100
0000
0010
0001
0000
0100
0000
0001
0010
0000
0100
0000
,
1000
0010
0001
0000
0010
0000
1000
0010
0000
0010
0000
0010
1000
0000
0001
0000
,
1000
0100
0001
0000
0100
0000
1000
0010
0000
0010
0000
0010
1000
0000
0001
0000
,
1000
0000
1000
0000
0200
0000
0000
0000
0010
0000
0000
0010
0000
0000
0310
0000
,
0001
0100
0001
1001
0000
2000
3200
0320
,
0031
0100
0001
0000
0010
0100
1000
0100
0000
1000
0000
0001
0100
0001
0100
0000
,
0010
1000
0010
0000
0100
0001
1000
0001
0000
0010
0000
0100
1000
0100
1000
0000
,
0001
0010
0100
0000
1000
0100
0010
0001
0000
0100
0010
1000
0001
0100
0010
0000
,
1010
0000
1000
0000
1001
0000
0001
0000
0101
0000
0100
0010
1000
0001
0100
0010
,
1001
0000
0000
0000
0000
0000
0000
0000
0001
0010
0100
1000
0001
0100
0010
1000
,
0001
0010
0001
0000
1000
0010
1000
0000
0001
0100
0001
0100
0000
1000
0100
0000
,
0001
0010
0100
1000
0010
0100
0001
0010
0100
1000
0010
0100
0001
0010
0100
1000
,
0001
0000
1000
0100
0010
0100
0001
0100
1000
0010
0001
0010
1000
0100
0010
0000
,
0001
0100
0010
1000
0100
0010
0001
0100
0010
1000
0100
0010
0001
0100
0010
1000
,
0001
0000
1000
0010
0100
0010
0001
0010
1000
0100
0001
0100
1000
0010
0100
0000
,
0001
0010
0100
0001
1000
0010
0100
1000
0010
0100
1000
0001
0010
0100
0001
0010
,
0100
1000
0001
0010
0001
1000
0100
0010
0001
0100
0010
1000
0100
0010
0001
0000
,
1000
0010
0100
1000
0001
0010
0100
0001
0010
0100
0001
1000
0010
0100
1000
0010
,
0100
0000
0110
0000
0010
1000
0100
0001
2000
0000
0000
0000
3001
0000
0000
0000
,
1001
0000
0000
0000
,
0000
0000
0000
0000
;
#NOTES:
     dance-double:
     :
     Easy:
     7:
     :
00000000
00000000
00000000
00000000
,
00000000
00000000
00000000
00000000
,
00000000
00000000
00000000
00000000
,
00000000
00000000
00000000
00000000
,
00000000
00000000
00000000
00000000
,
00001000
00000000
00010000
00000000
00001000
00010000
00001000
00000000
,
00000010
00000010
00000001
00000001
,
00000100
00000000
00000010
00000000
00000100
00000010
00000100
00000000
,
00001000
00001000
00010000
00010000
,
00100000
01000000
00000000
00100000
10000000
00000000
00000000
00000000
,
00000000
00010000
10000000
00000000
01000000
00000000
01000000
00000000
,
00100000
00001000
00000000
00010000
00001000
00000000
00000000
00000000
,
00022000
00000000
00000000
00033000
,
00010000
00000100
00000000
00001000
00000100
00000000
00000000
00000000
,
00000000
00000010
00000100
00000000
00000010
00000000
00000010
00000000
,
00000001
00001000
00000000
00000001
00001000
00000000
00000000
00000000
,
00002002
00000000
00000000
00003003
,
00000001
00000000
00000100
00000000
00000010
00001000
00000010
00000000
,
00001000
00010000
01000000
00100000
,
01000000
00000000
00010000
00000000
00100000
00001000
00100000
00000000
,
00010000
01000000
01100000
00000000
,
10000000
00000000
01000000
00000000
00100000
00010000
00100000
00000000
,
00010000
00001000
00000100
00000010
,
00000100
00000000
00001000
00000000
00000010
00010000
00000010
00000000
,
00001000
00000100
00000010
00000001
,
00001000
00000000
00000010
00000000
00000100
00000010
00000100
00000000
,
00000010
00000000
00010000
00000000
00001000
00010000
00001000
00000000
,
01000000
00000000
00010000
00000000
00100000
00010000
00100000
00000000
,
02200000
00000000
00000000
03300000
,
10000000
00000000
00010000
00000000
01000000
00100000
01000000
00000000
,
00001000
00000000
00010000
00000000
00000100
00001000
00000100
00000000
,
00000010
00000010
00000001
00000001
,
00002002
00000000
00000000
00003003
,
00000001
00000001
00000100
00000100
,
00001000
00000000
00001000
00000000
00010000
00100000
00010000
00000000
,
00100000
00100000
10000000
10000000
,
00010000
01000000
00010000
01010000
,
01000000
01000000
00100000
00100000
,
00010000
00000000
00010000
00000000
00001000
00010000
00001000
00000000
,
00022000
00000000
00000000
00000000
,
00033000
00000000
00000000
00000000
,
00002000
00000000
00000000
00000000
,
00003000
00000000
00000000
00000000
,
00000200
00000000
00000000
00000000
,
00000300
00000000
00000000
00000000
,
00000002
00000000
00000000
00000000
,
00000003
00000000
00000000
00000000
,
00000020
00000000
00000000
00000000
,
00000030
00000000
00000000
00000000
,
00001000
00010000
00011000
00000000
,
00001000
00010000
01000000
00000000
,
00100000
01000000
01100000
00000000
,
20020000
00000000
00000000
30030000
,
20000000
00000000
31000000
00000000
,
00200000
00000000
00310000
00000000
,
00002000
00000000
00003100
00000000
,
00000022
00000000
00000000
00000033
,
00000001
00000100
00000001
00000100
,
00001000
00000100
00001000
00000100
,
00000010
00010000
00001000
00010000
,
00001000
00100000
00001000
00001000
,
01000000
00010000
01000000
00010000
,
00100000
00010000
00100000
00010000
,
10000000
10000000
01000000
01000000
,
02200000
00000000
00000000
03300000
,
10000000
00000000
00010000
00000000
01000000
00100000
01000000
00000000
,
00010000
00000000
00100000
00000000
00001000
00010000
00001000
00000000
,
00000100
00000001
00000010
00000100
,
00001000
00001010
00000010
00000110
,
00000100
00000001
00000100
00000100
,
00001000
00010000
00001000
00001000
,
00101000
00000000
01010000
00000000
,
00100000
00001000
00010000
00000000
,
00010010
00000000
00001100
00000000
,
00000010
00010000
00001000
00000000
,
01001000
00000000
00110000
00000000
,
01000000
00001000
00010000
00000000
,
00010100
00000000
00001010
00000000
,
00000100
00010000
00001000
00000000
,
00011000
00000000
00000000
00000000
,
00000000
00000000
00000000
00000000
;
#NOTES:
     dance-double:
     :
     Medium:
     12:
     :
00000000
00000000
00000000
00000000
,
00000000
00000000
00000000
00000000
,
00000000
00000000
00000000
00000000
,
00000000
00000000
00000000
00000000
,
00000000
00000000
00000000
00000000
,
00000001
00001000
00000001
00001000
00000100
00000010
00000100
00000010
,
00000001
00000100
00000010
00001000
00000100
00010000
00001000
00000000
,
00010000
00001000
00010000
00001000
01000000
00100000
01000000
00100000
,
10000000
00010000
00100000
00010000
10000000
00100000
01000000
00000000
,
00010000
10000000
00010000
10000000
01000000
00100000
01000000
00100000
,
00010000
01000000
00010000
00100000
00001000
00010000
00001000
00000000
,
00010000
00000100
00010000
00000100
00001000
00000010
00001000
00000010
,
00000100
00000001
00000000
00000001
00001000
00000000
00001001
00000000
,
00000001
00000100
00000001
00000100
00000010
00001000
00000100
00001000
,
00000010
00000100
00001000
00010000
00001000
00010000
00001000
00000000
,
00010000
00001000
00100000
00001000
00010000
00100000
01000000
00010000
,
00100000
00010000
00000000
00010000
10000000
00000000
10010000
00000000
,
10000000
01000000
00100000
01000000
10000000
00010000
01000000
00100000
,
00010000
00001000
00010000
00001000
00000010
00000100
00000010
00000001
,
00001000
00000100
00001000
00000100
00000001
00000100
00001000
00000001
,
00000100
00000000
00000110
00000000
00000001
00000001
00001000
00001000
,
00000001
00000100
00000001
00000100
00000010
00000100
00001000
00010000
,
00001000
00010000
00100000
01000000
00100000
10000000
00010000
00100000
,
01000000
10000000
01000000
10000000
01000000
00100000
00001000
00000000
,
00011000
00020000
00032000
00003020
,
00000031
00000000
00000100
00000000
00001000
00000000
00000100
00000000
00000001
00000000
00000000
00000010
00000000
00000000
00000001
00000000
,
00000100
00000000
00000010
00000000
00001000
00000000
00000100
00000000
00010000
00000000
00000000
00001000
00000000
00000000
00010000
00000000
,
00001000
00000000
01000000
00000000
00010000
00000000
00100000
00000000
01000000
00000000
00000000
00010000
00000000
00000000
01000000
00000000
,
10000000
00010000
01000000
00100000
10000000
01000000
01000000
01000000
,
00100000
00000000
00001000
00000000
00010000
00000000
00001000
00000000
01000000
00000000
00000000
00100000
00000000
00000000
00010000
00000000
,
00001000
00000000
00000100
00000000
00000010
00000000
00001000
00000000
00000010
00000000
00000000
00000100
00000000
00000000
00001000
00000000
,
00010000
00000000
00000000
00100000
00000000
00000000
01100000
00000000
01000000
00000000
00000000
00010000
00000000
00000000
10010000
00000000
,
00000000
01100000
00000000
10010000
00010000
00100000
01000000
00000000
,
10000000
00000000
00100000
00000000
00010000
00000000
00100000
00000000
10000000
00000000
00000000
01000000
00000000
00000000
10000000
00000000
,
00100000
00000000
01000000
00000000
00010000
00000000
00100000
00000000
00001000
00000000
00000000
00010000
00000000
00000000
00001000
00000000
,
00010000
00000000
00000010
00000000
00001000
00000000
00000100
00000000
00000010
00000000
00000000
00001000
00000000
00000000
00000010
00000000
,
00000001
00001000
00001010
00000000
00000001
00000010
00000110
00000000
,
00000100
00000000
00010000
00000000
00001000
00000000
00010000
00000000
00000010
00000000
00000000
00000100
00000000
00000000
00001000
00000000
,
00010000
00000000
00100000
00000000
01000000
00000000
00010000
00000000
01000000
00000000
00000000
00100000
00000000
00000000
00010000
00000000
,
00022000
00000000
00000000
00000000
,
00033000
00000000
00000000
00000000
,
00020000
00000000
00000000
00000000
,
00030020
00000000
00002030
00000000
,
00003002
00000000
00000000
00000000
,
00000003
00000000
00000000
00001000
,
00000002
00000000
00000000
00000000
,
00002003
00000000
00023000
00000000
,
20030000
00000000
00020000
30030000
,
20020000
00000000
00000000
30030000
,
10000000
00000000
00000000
00000000
01000000
00000000
00000000
00000000
00100000
00000000
00000000
00010000
00000000
00000000
00000000
00000000
,
00001000
00000000
00000000
00000000
00000100
00000000
00000000
00000000
00000010
00000000
00000000
00000001
00000000
00000000
00000000
00000000
,
00000001
00000000
00000100
00000000
00000010
00000000
00000000
00000000
00001000
00000000
00000000
00010000
00000000
00000000
01000000
00000000
,
00100000
00000000
10000000
01000000
00100000
00000000
00001000
00000000
,
00020000
00000000
00100000
00000000
,
00032000
00000000
00000010
00000000
,
00013000
00001000
00010000
00000000
,
00022000
00000000
00000000
00033000
,
00001000
00000000
00010000
00000000
00000010
00001000
00000100
00000000
,
00000010
00000000
00000001
00000000
00001000
00000010
00000100
00000000
,
00000001
00000000
00001000
00000000
00000100
00010000
00001000
00000000
,
00010000
00000000
00100000
00000000
01000000
00100000
10000000
00000000
,
00010000
00100000
01000000
10000000
00100000
01000000
00010000
00000000
,
00100000
00001000
00010000
00001000
00010000
00000100
00001000
00000000
,
00000010
00001000
00000010
00001000
00000100
00000010
00000001
00000100
,
00000001
00000010
00001000
00010000
00000000
00010000
00001000
00000000
,
00010000
00001000
01000000
00010000
00100000
00010000
01000000
00100000
,
10000000
01000000
00010000
01000000
10000000
00010000
00100000
01000000
,
00010000
00001000
00000010
00000100
00001000
00000010
00000100
00000001
,
00000010
00000100
00001100
00000000
00001010
00000000
00010010
00000000
,
00011000
00000000
00001000
00010000
01000000
10000000
00010000
01000000
,
00100000
00100000
00010000
00010000
00001000
00001000
00000100
00000000
,
00000001
00000000
00000010
00000001
00000000
00000000
00000000
00000000
00001000
00000000
00000100
00001000
00000000
00000000
00000000
00000000
,
00000001
00000100
00001000
00010000
00100000
10000000
00010000
00000000
,
10000000
00000000
01000000
10000000
00000000
00000000
00000000
00000000
00010000
00000000
00100000
00010000
00000000
00000000
00000000
00000000
,
10000000
01000000
00010000
00001000
00000010
00000001
00001000
00000000
,
00000001
00000100
00000110
00000000
00001000
00000100
00000110
00000000
,
00000001
00000010
00001000
00010000
01000000
10000000
00010000
00000000
,
10000000
00100000
01100000
00000000
00010000
00100000
01100000
00000000
,
10000000
01000000
00100000
00001000
00010000
00000000
00001000
00000000
,
00011000
00000000
00000000
00000000
,
00000000
00000000
00000000
00000000
;
#NOTES:
     dance-double:
     :
     Hard:
     16:
     :
00000000
00000000
00000000
00000000
,
00000000
00000000
00000000
00000000
,
00000000
00000000
00000000
00000000
,
00000000
00000000
00000000
00000000
,
00000000
00000000
00000000
00000000
,
00000001
00000000
00000100
00000000
00000010
00001000
00000010
00000000
00000100
00000000
00000010
00010000
00000000
00010000
00000010
00000000
,
00010000
00001000
01000000
00010000
00100000
01000000
10000000
00000000
,
10000000
00000000
01000000
00000000
00100000
00010000
00100000
00000000
01000000
00000000
00100000
00001000
00000000
00001000
00100000
00000000
,
00001000
00010000
00000100
00001000
00000010
00000100
00000001
00000000
,
00000001
00000000
00000100
00000000
00000010
00001000
00000010
00000000
00000100
00000000
00000001
00000010
00000000
00000100
00001000
00000000
,
00000100
00000000
00010000
00001000
00010000
00000000
00001000
00000000
01000000
00000000
00010000
00100000
00000000
00100000
01000000
00000000
,
10000000
00000000
00100000
01000000
00100000
00000000
00010000
00000000
00100000
00000000
10000000
00000000
01000000
00000000
00100000
00000000
,
00001000
00010000
00000000
00010000
00001000
00000000
00011000
00000000
,
00010000
00000000
00000010
00000000
00001000
00000100
00001000
00000000
00000010
00000000
00000100
00000001
00000000
00000001
00000010
00000000
,
00000100
00000000
00001000
00000100
00000010
00000000
00000001
00000000
00000100
00000000
00001000
00010000
00000000
00010000
00100000
00000000
,
01000000
00010000
00100000
00001000
00010000
01000000
10000000
00100000
,
01000000
00010000
00000000
00010000
10000000
00000000
10010000
00000000
,
10000000
00000000
00010000
00100000
00000000
01000000
10000000
00000000
01000000
00000000
00100000
00001000
00100000
00001000
00010000
00001000
,
00010000
00000000
00000100
00000000
00000010
00000000
00000100
00000000
00001000
00000000
00000000
00001010
00000000
00000000
00000101
00000000
,
00000001
00000000
00000100
00001000
00000000
00001000
00010000
00000000
00022000
00000000
00000000
00000000
00033000
00000000
00000000
00000000
,
00010000
00000000
00100000
01000000
00100000
00000000
00010000
00000000
00001000
00000000
00001000
00000000
00000010
00000000
00000010
00000000
,
00000001
00000000
00001000
00000010
00000000
00000100
00000001
00000000
00000100
00000000
00000010
00010000
00000010
00010000
00001000
00010000
,
00001000
00000000
01000000
00000000
00100000
00000000
01000000
00000000
00010000
00000000
00000000
00110000
00000000
00000000
11000000
00000000
,
10000000
00000000
01000000
00010000
00000000
00010000
00001000
00000000
00022000
00000000
00000000
00000000
00000000
00000000
00000000
00000000
,
00033000
00000000
00000000
00000000
,
00010000
00001000
00010000
00000000
00000100
00001000
00000100
00001000
00000001
00000000
00000100
00000010
00000000
00000010
00001000
00000000
,
00000001
00000010
00000001
00000000
00001000
00000010
00001000
00000010
00010000
00000000
00001000
00010000
00000000
00010000
01000000
00000000
,
00100000
00010000
00100000
00000000
01000000
10000000
01000000
10000000
00010000
00000000
01000000
00100000
00000000
00100000
10000000
00000000
,
00010000
00000000
10000000
01000000
00010000
00000000
00001000
00000010
00000001
00000000
00000100
00000000
00000010
00000000
00001000
00000000
,
00000001
00000100
00000001
00000000
00000010
00000100
00001000
00000100
00000010
00000000
00000001
00001000
00000000
00000100
00010000
00000000
,
00001000
00100000
00001000
00000000
01000000
00010000
00100000
00010000
01000000
00000000
00100000
10000000
00000000
00100000
01000000
00000000
,
00010000
00000000
10000000
01000000
00000000
01000000
00100000
00000000
00001000
00000000
00010000
00000100
00000000
00000100
00001000
00000000
,
00000010
00000000
00000110
00000000
00000000
00000000
00001001
00000000
00001000
00000010
00000100
00000001
00001000
00000000
00000000
00000000
,
00000001
00000100
00000001
00000100
00000010
00000100
00000010
00000100
00000010
00000000
00001000
00000100
00000000
00000100
00010000
00000000
,
00001000
00100000
00001000
00100000
00010000
00100000
00010000
00100000
00010000
00000000
01000000
00100000
00000000
00100000
10000000
00000000
,
01000000
00100000
01000000
00100000
00010000
10000000
00010000
10000000
00010000
00000000
10000000
00100000
00000000
00100000
00010000
00000000
,
00001000
00000100
00000001
00000000
00000010
00000100
00001000
00000000
,
00000001
00000010
00000100
00000010
00000001
00001000
00000100
00001000
00000100
00000000
00010000
00001000
00000000
00001000
00100000
00000000
,
00010000
01000000
00010000
00000000
00100000
01000000
10000000
00000000
00100000
00000000
00000000
01000000
00000000
00000000
00100000
00000000
,
02200000
00000000
00000000
00000000
,
03300000
00000000
00000000
00000000
,
20000000
00000000
00000000
30000000
,
20000000
00000000
00000000
00000000
32000000
00000000
00000000
00000000
03100000
00000000
00000000
00001000
00000000
00000000
00010000
00000000
,
00022000
00000000
00000000
00000000
,
00033000
00000000
00000000
00000000
00000000
00000000
00000000
00000000
00000000
00000000
00000000
00010000
00000000
00000000
00000000
00000000
,
00002000
00000000
00000000
00003000
,
00001000
00000000
00000010
00000000
00000001
00000100
00000000
00001000
,
00000200
00000000
00000302
00000000
,
00002003
00000000
00000000
00003000
,
00000002
00000000
00000000
00000000
00000203
00000000
00000000
00000000
00002300
00000000
00000000
00013000
00000000
00000000
00010000
00000000
,
00002000
00000000
00000000
00000000
00023000
00000000
00000000
00000000
00230000
00000000
00000000
10300000
00000000
00000000
10000000
00000000
,
00020000
00000000
00000000
00000000
20030000
00000000
00000000
00000000
31000000
00000000
00000000
00010000
00000000
00000000
00001000
00000000
,
00022000
00000000
00033000
00010000
,
00002000
00010000
00000000
00003010
,
00000002
00000000
00000000
00000000
00000103
00000000
00000000
00000000
00000100
00000000
00000000
00001000
00000000
00000000
00010000
00000000
,
00022000
00000000
00000000
00000000
,
00033000
00020000
00032000
02003000
,
03010000
00000000
00000000
00000000
00100000
00000000
00010000
00000000
10000000
00000000
00000000
01000000
00000000
00000000
10000000
00000000
,
00100000
00000000
00000000
00000000
01000000
00000000
00001000
00000000
00010000
00000000
00000000
00001000
00000000
00000000
00000010
00000000
,
00000002
00000000
00000000
00000000
,
00000003
00000002
00002003
00003020
,
00000130
00000000
00000000
00000000
00000100
00000000
00001000
00000000
00010000
00000000
00000000
00100000
00000000
00000000
10000000
00000000
,
00010000
00000000
00000000
00000000
10000000
00000000
01000000
00000000
00100000
00000000
00000000
00001000
00000000
00000000
00000010
00000000
,
00000000
00000002
00000000
00000000
00000000
00000000
00000000
00000000
00000000
00000000
00000000
00000000
00000000
00000000
00000000
00000000
,
00000000
00000000
00000003
00001001
00000000
00000001
00000010
00000100
,
00001000
00000010
00001000
00000000
00000001
00000000
00000100
00000010
00000000
00000100
00000000
00001000
00010000
00001000
00010000
00000000
,
00100000
01000000
00100000
00000000
10000000
00000000
00010000
00100000
00000000
01000000
00000000
10000000
00100000
10000000
00100000
00000000
,
01000000
00001000
00010000
00000000
00001000
00000000
00000010
00000100
00000000
00000010
00000000
00000001
00001000
00000001
00000100
00000000
,
00000001
00000100
00000010
00000000
00001000
00000000
00000001
00000100
00000000
00001000
00000000
00010000
00000100
00010000
00001000
00000000
,
00010000
00100000
01000000
00000000
00010000
00100000
01000000
00000000
10000000
01000000
10000000
01000000
00100000
00000000
00001000
00000000
,
00010000
00000100
00001000
00000000
00000010
00001000
00000100
00000000
00000010
00000001
00000010
00000001
00001000
00000000
00000001
00000000
,
00000100
00000001
00000100
00000001
00000000
00000010
00000100
00000000
00010000
00001000
00010000
00001000
00000000
01000000
00010000
00000000
,
00100000
00001000
00010000
00001000
00100000
00010000
01000000
00100000
00000000
01000000
00010000
00100000
00001000
00010000
00001000
00000000
,
01000000
00010000
01000000
00010000
00000000
00100000
01000000
00000000
10000000
00100000
10000000
00100000
00000000
01000000
00010000
00000000
,
00100000
00010000
00100000
00001000
00010000
00001000
00010000
00000000
00000100
00001000
00000010
00000100
00000010
00001000
00000100
00000000
,
00000010
00000001
00001000
00000100
00000000
00001000
00000010
00000000
00000100
00000001
00000010
00000100
00000000
00010000
00001000
00000000
,
00100000
00001000
00100000
00010000
01000000
00010000
00100000
00001000
00000000
00010000
00001000
00100000
00010000
01000000
00100000
00000000
,
10000000
01000000
00100000
00010000
00000000
01000000
00100000
00000000
10000000
01000000
00100000
00001000
00000000
00010000
00001000
00000000
,
00000010
00000001
00000100
00000010
00001000
00000100
00010000
00001000
00100000
00000000
00010000
01000000
00100000
00000000
00000000
00000000
,
01100000
00000000
00000000
00000000
,
00000000
00000000
00000000
00000000
;
#NOTES:
     dance-double:
     :
     Challenge:
     18:
     :
00000000
00000000
00000000
00000000
,
00000000
00000000
00000000
00000000
,
00000000
00000000
00000000
00000000
,
00000000
00000000
00000000
00000000
,
00000000
00000000
00000000
00000000
,
00000001
00000100
00000001
00000100
00000000
00000010
00000100
00000000
00000010
00001000
00000010
00001000
00000000
00000100
00001000
00000000
,
00000100
00010000
00001000
00000000
00010000
00001000
00100000
00001000
00000000
00001000
00010000
00000000
00200000
00000000
20300000
00000000
,
31000000
00100000
01000000
00100000
00000000
01000000
10000000
00000000
00010000
00100000
00010000
00100000
00000000
00010000
01000000
00000000
,
00001000
00010000
00001000
00000000
00010000
00000100
00001000
00000000
00000200
00000000
00000320
00000000
00000032
00000000
00002003
00000000
,
00003010
00000000
00000100
00000000
00000001
00001000
00000001
00000000
00000010
00000100
00000010
00000100
00000000
00001000
00000100
00000000
,
00010000
00000000
00001000
00100000
00010000
00000000
01000000
00010000
00100000
00000000
01000000
10000000
00000000
00010000
10000000
00000000
,
01000000
00100000
00010000
00000000
01000000
00001000
01000000
00001000
00010000
00000000
00001000
00010000
00000010
00010000
00001000
00000000
,
00000010
00000000
00000110
00000000
00001000
00000000
00000001
00000000
00001001
00000000
00000001
00000100
00000010
00001000
00000010
00000000
,
00001000
00000000
00000100
00000000
00010000
00001000
00010000
00000000
01000000
00100000
00010000
00100000
00000000
01000000
10000000
00000000
,
00100000
00000000
01000000
00010000
10000000
00000000
01000000
00100000
00001000
00000000
00010000
00001000
00000000
00001000
00010000
00000000
,
00001000
00010000
00000010
00000000
00000100
00000010
00001000
00000010
00000100
00000000
00000001
00000010
00000001
00001000
00000001
00000100
,
00000010
00000000
00001010
00000000
00001000
00000000
00000100
00000000
00010100
00000000
00010000
00001000
00010000
00001000
00010000
00000000
,
00001000
01000000
00001000
00100000
00010000
00100000
00001000
01000000
00001000
00000000
00100000
00010000
10000000
00000000
00100000
10000000
,
00010000
00000000
10000000
01000000
10000000
01000000
00100000
00010000
00100000
00000000
00001000
00010000
00000000
00010000
00001000
00000000
,
00010000
00000100
00010000
00000010
00001000
00000010
00010000
00000100
00010000
00000000
00000010
00000100
00001000
00000000
00010000
00100000
,
01000000
00000000
10000000
00000000
01000000
00010000
00100000
00000000
00110000
00000000
00001000
00000000
00011000
00000000
00000000
00000000
,
00010000
00000100
00010000
00000010
00001000
00000010
00010000
00000100
00010000
00000000
00000010
00001000
00000001
00000000
00000010
00000001
,
00001000
00000000
00000001
00000100
00000001
00000100
00000010
00001000
00000010
00000000
00010000
00001000
00000000
00001000
00010000
00000000
,
00001000
01000000
00001000
00100000
00010000
00100000
00001000
01000000
00001000
00000000
00100000
01000000
00010000
00000000
00001000
00000010
,
00000100
00000000
00000000
00000000
,
00000001
00000010
00000001
00000010
00000100
00001000
00000001
00001000
00000100
00000010
00000001
00000100
00000010
00001000
00000100
00010000
,
00001000
00100000
00001000
00100000
00010000
01000000
00010000
01000000
00001000
00010000
00100000
01000000
00010000
00100000
01000000
10000000
,
00100000
01000000
00100000
10000000
01000000
00100000
01000000
10000000
00010000
00100000
00010000
00100000
00001000
00010000
00001000
00000010
,
00000100
00000000
00001000
00000000
00000001
00000100
00000010
00000100
00000001
00000000
00000020
00000000
00002030
00000000
00023000
00000000
,
01030000
10000000
01000000
10000000
00010000
01000000
00010000
00100000
01000000
00100000
00010000
00100000
00001000
00010000
00001000
00010000
,
00000010
00001000
00000010
00001000
00000100
00000010
00000001
00001000
00000001
00000100
00000010
00001000
00000010
00000100
00001000
00000100
,
00000010
00000000
00001000
00000001
00000000
00000100
00001000
00000000
00010000
00000000
00100000
10000000
00000000
01000000
00010000
00000000
,
00001000
00000000
00011000
00000000
00010000
00000100
00001000
00000100
00000010
00000000
00000002
00000000
00002003
00000000
00003020
00000000
,
00000130
00000001
00000010
00000100
00001000
00000010
00000100
00001000
00010000
00100000
01000000
00010000
01000000
00100000
10000000
00010000
,
10000000
01000000
00100000
00001000
00010000
00100000
01000000
00001000
00010000
00000100
00001000
00000010
00001000
00000100
00000010
00000001
,
00000100
00000001
00000010
00000100
00010000
00001000
00100000
00010000
01000000
00100000
00010000
00100000
10000000
01000000
00100000
00010000
,
10000000
00000000
10000000
01000000
00010000
00000000
00001000
00000010
00000001
00000000
00000001
00000100
00001000
00000000
00010000
00100000
,
10000000
00000000
00010000
01000000
10000000
01000000
00010000
01000000
10000000
00000000
01000000
00001000
00000000
00010000
00000100
00000000
,
00000010
00000000
00000001
00000100
00001000
00000100
00000001
00000100
00001000
00000000
00000100
00010000
00000000
01000000
10000000
00000000
,
02200000
00000000
00000000
00000000
,
03300000
00000000
00000000
00000000
,
20000000
00000000
00000000
30000000
,
02000000
00000000
00000000
03000000
,
00020000
00000000
00000000
00000000
,
00030000
00000000
00000000
00000000
,
00002000
00000000
00000000
00003000
,
00000020
00000000
00000000
00000030
,
00000002
00000000
00000000
00000000
,
00000003
00000000
00000000
00000000
,
00000002
00000000
00000000
00000003
,
00000200
00000000
00000000
00000300
,
00002000
00000000
00000000
00000000
,
00003000
00000000
00000000
00000000
,
00020000
00000000
00000000
00030000
,
00200000
00000000
00000000
00300000
,
20000000
00000000
00000000
00000000
,
30000000
00000000
00000000
00000000
,
10000000
00100000
10000000
00000000
00010000
00000000
00100000
00010000
00000000
00100000
00000000
00001000
00010000
00000000
00010000
00000000
,
00000010
00001000
00000010
00000000
00001000
00000000
00000001
00000010
00000000
00000001
00000000
00000100
00000010
00000000
00000100
00000000
,
00000001
00000100
00000001
00000000
00001000
00000000
00000100
00001000
00000000
00000100
00000000
00010000
00001000
00000000
00001000
00000000
,
01000000
00010000
01000000
00000000
00010000
00000000
10000000
01000000
00000000
10000000
00000000
00100000
01000000
00000000
00100000
00000000
,
10000000
01000000
00100000
00000000
00010000
00100000
00001000
00100000
00000000
00001000
00000000
00010000
00001000
00000000
00010000
00000000
,
00000100
00001000
00000010
00000000
00000100
00000001
00000010
00000001
00000000
00001000
00000000
00000100
00000010
00000000
00000001
00000000
,
00000100
00000000
00000100
00000000
00002000
00000000
00000000
00000000
00010000
00000000
00000000
00010000
00000000
00000000
00013000
00000000
,
00001000
01000000
00100000
20020000
00000000
00000000
30030000
00000000
,
10000000
01000000
00100000
00000000
00001000
00010000
00001000
00010000
00000000
00000010
00000000
00000100
00000001
00000000
00001000
00000000
,
00000001
00000100
00000010
00000000
00010000
00001000
00010000
00001000
00000000
00100000
00000000
01000000
10000000
00000000
00010000
00000000
,
10000000
00100000
01000000
00000000
00100000
00010000
00100000
00010000
00000000
00001000
00010000
00000010
00001000
00000010
00001000
00000000
,
00000100
00000010
00000001
00000000
00000100
00000010
00001000
00000000
00000001
00000000
00000100
00000000
00001000
00000000
00010000
00000000
,
01100000
00000000
00000000
00000000
00000000
00000000
00000000
00000000
10000000
01000000
00010000
01000000
10000000
00000000
00010000
00000000
,
10000000
00100000
00010000
00000000
00001000
00000010
00000001
00000000
00000100
00000000
00000010
00001000
00000000
00000100
00000010
00000000
,
00000001
00000100
00001000
00010000
00100000
10000000
01000000
00010000
00001000
00000010
00000001
00000100
00001000
00010000
00100000
10000000
,
00010000
00000000
01000000
00100000
01000000
00001000
00010000
00001000
00000000
00000010
00000100
00000010
00001000
00010000
00001000
00000000
,
00010000
00100000
10000000
01000000
00010000
00001000
00000010
00000001
00000100
00001000
00010000
00100000
10000000
01000000
00010000
00001000
,
00000010
00000000
00000001
00000010
00001000
00010000
01000000
10000000
00010000
00000000
00010000
00000000
10010000
00000000
00000000
00000000
,
10000000
01000000
00010000
00001000
00000010
00000001
00000100
00001000
00010000
00100000
10000000
01000000
00010000
00001000
00000010
00000001
,
00001000
00000000
00000010
00000100
00000010
00010000
00001000
00010000
00000000
00100000
01000000
00100000
00010000
00001000
00010000
00000000
,
00001000
00000010
00000001
00000100
00010000
01000000
10000000
00010000
00100000
10000000
01000000
00010000
00000100
00000001
00001000
00000010
,
00000001
00000000
00001001
00000000
00000001
00001000
00010000
10000000
00200000
00000000
00000000
00000000
01300000
00000000
00000000
00000000
,
10010000
00000000
00000000
00000000
,
00000000
00000000
00000000
00000000
;
