
//----- song ID: saeu -----//
#TITLE:SURVIVAL AT THE END OF THE UNIVERSE;
#ARTIST:Akira Complex;
#BANNER:SURVIVAL AT THE END OF THE UNIVERSE.png;
#BACKGROUND:SURVIVAL AT THE END OF THE UNIVERSE-bg.png;
#CDTITLE:./CDTitles/DDR A3.png;
#MUSIC:SURVIVAL AT THE END OF THE UNIVERSE.ogg;
#SAMPLESTART:81.418;
#SAMPLELENGTH:15;
#BPMS:0=150,68=160,76=170,84=180,92=190,100=200;
#STAGE:31;
#NOTES:
     dance-single:
     :
     Beginner:
     5:
     :
0000
0000
0000
0000
,
0000
0000
0000
0000
,
0000
0000
0000
0000
,
0000
0000
0000
0000
,
0000
0000
0000
0000
,
1000
0000
0000
0000
,
0001
0000
1000
0000
,
0001
0000
1000
0000
,
0001
0000
0100
0000
,
0010
0000
0100
0000
,
0010
0100
0010
0000
,
1000
0001
1000
0000
,
0001
1000
0001
0000
,
0100
0000
0010
0000
,
0100
0010
0100
0000
,
0010
0100
0010
0000
,
1000
0001
1000
0001
,
1000
0000
1000
0000
,
0001
0000
0001
0000
,
1000
0000
0001
0000
,
1000
0000
1000
0000
,
0010
0000
0100
0000
,
0010
0000
0010
0000
,
0100
0010
0100
0000
,
0010
0100
0010
0000
,
0110
0000
0000
0000
,
1001
0000
0000
0000
,
1000
0000
0010
0000
,
1000
0000
0001
0000
,
0100
0000
0001
0000
,
0100
0010
0100
0000
,
0001
0000
0010
0000
,
0001
0000
0010
0000
,
0100
0000
1000
0000
,
0100
1000
0100
0000
,
1000
0000
0001
0000
,
0100
0000
0001
0000
,
1000
0000
0010
0000
,
0100
0010
0100
0000
,
0010
0000
1000
0000
,
0001
0000
0010
0000
,
0001
0000
1000
0000
,
0001
1000
0001
1000
,
0002
0000
0000
0003
,
2000
0000
0000
3000
,
0020
0000
0000
0030
,
0200
0000
0000
0300
,
0001
0000
1000
0000
,
0001
0000
1000
0000
,
0100
0000
0010
0000
,
0100
0000
0010
0000
,
0002
0000
0000
0000
,
0000
0000
0000
0003
,
2000
0000
0000
0000
,
0000
0000
0000
0000
,
3000
0000
0000
0000
,
0000
0000
0000
0000
,
0001
0000
0001
0000
,
1000
0000
1000
0000
,
0010
0000
0010
0000
,
0100
0010
0100
0000
,
0001
0000
0100
0000
,
0001
0000
1000
0000
,
0001
0000
0010
0000
,
0001
0000
1000
0000
,
0100
0000
0010
0000
,
0100
0000
1000
0000
,
0001
0000
1000
0000
,
0001
1000
0001
0000
,
0100
0000
0010
0000
,
1000
0000
0001
0000
,
0100
0000
0010
0000
,
0100
0000
0010
0000
,
0100
0010
0100
0000
,
0001
0000
0010
0000
,
0100
0000
1000
0000
,
0100
1000
0100
0000
,
1000
0000
0000
0001
,
0000
0000
1000
1000
,
0010
0000
0100
0000
,
0010
0000
0100
0100
,
0001
0000
0000
0010
,
0000
0000
0001
0001
,
1000
0000
0001
0000
,
0010
0000
0100
0000
,
0110
0000
0000
0000
,
0000
0000
0000
0000
;
#NOTES:
     dance-single:
     :
     Easy:
     9:
     :
0000
0000
0000
0000
,
0000
0000
0000
0000
,
0000
0000
0000
0000
,
0000
0000
0000
0000
,
0000
0000
0000
0000
,
1000
0100
0010
0001
,
1000
0000
0010
0000
1000
0010
1000
0000
,
0001
0000
0010
0000
0001
0010
0001
0000
,
0100
0010
2000
3002
,
0103
0010
0100
0001
,
1000
0000
0010
0000
0100
0010
0100
0000
,
0001
0000
0010
0000
0100
0010
0100
0000
,
1000
0000
0001
0000
1000
0010
1000
0010
,
0100
0001
1000
0001
,
1000
0010
1010
0110
,
0001
0010
0011
0110
,
1000
0010
1000
0000
0001
0010
0100
0000
,
1000
1000
0001
0100
,
0010
0110
1000
1001
,
0001
0001
1000
0010
,
0100
0110
0001
1001
,
1000
0100
1000
0100
,
0010
0001
0010
0001
,
1000
0100
0010
0001
,
1000
0100
0010
0001
,
1001
0000
0110
0000
,
0001
0100
0010
0110
,
1000
0000
0001
0000
0010
0001
0010
0000
,
0001
0000
0100
0000
0010
0100
0010
0000
,
1000
0001
0100
0010
,
1000
0010
1000
0000
0001
0000
1001
0000
,
1000
0100
1000
0100
,
0010
0000
0001
0000
0010
0001
0010
0000
,
0001
0100
0010
1000
,
0001
0000
0100
0000
0001
0100
0001
0000
,
1000
0010
0100
0110
,
0001
1000
0001
1001
,
1000
0100
1100
1001
,
0001
0010
0011
1001
,
0010
0100
0010
0110
,
1000
0001
1000
1001
,
0001
0100
0001
0100
,
0010
1000
0010
1000
0010
0000
0100
0000
,
0001
0001
0001
0001
,
0010
0010
0010
0010
,
0100
0100
0100
0100
,
1000
1000
1000
1000
,
0001
0000
0000
0001
0000
0000
0001
0000
0000
0001
0000
0000
0001
0000
0000
0000
,
0010
0000
0000
0010
0000
0000
0010
0000
0000
0010
0000
0000
0010
0000
0000
0000
,
0100
0000
0000
0100
0000
0000
0100
0000
0000
0100
0000
0000
0100
0000
0000
0000
,
1000
0000
0000
1000
0000
0000
1000
0000
0000
1000
0000
0000
1000
0000
0000
0000
,
0001
0000
1000
0000
0001
0000
,
1000
0000
0001
0000
1000
0000
,
0010
0100
0010
0100
0010
0100
,
0010
0100
0010
0100
0010
0100
,
0020
0000
0000
0000
,
0000
0000
0000
0000
,
0130
0001
1000
0001
,
0100
0010
1000
0010
,
1000
0100
0010
0001
,
1000
0010
0100
0110
,
0001
0000
0000
0000
1000
0000
0000
0000
0010
0000
0000
0010
0000
0000
0010
0000
,
1000
0000
0000
0000
0001
0000
0000
0000
0100
0000
0000
0100
0000
0000
0100
0000
,
0010
0000
0000
0000
0100
0000
0000
0000
0001
0000
0000
0001
0000
0000
0001
0000
,
1000
0100
0010
0001
,
1000
0000
0000
0000
0001
0000
0000
0000
0100
0000
0000
0100
0000
0000
0100
0000
,
0001
0000
0000
0000
1000
0000
0000
0000
0010
0000
0000
0010
0000
0000
0010
0000
,
0100
0000
0000
0000
0010
0000
0000
0000
1000
0000
0000
1000
0000
0000
1000
0000
,
0001
0000
0010
0000
0100
0010
0100
0000
,
1000
0000
0010
0000
0100
0010
0100
0000
,
0001
0000
0010
0000
0100
0010
0100
0000
,
1000
0000
0100
0000
0010
0001
0010
0000
,
0001
0100
0001
0000
1000
0010
1000
0000
,
0001
1000
1001
0000
,
1000
0100
0110
0110
,
0001
0000
0100
0000
0010
1000
0010
0000
,
1000
0001
0100
0110
,
1000
1000
0000
0001
0001
0000
1000
1000
,
0000
0001
0001
0000
0100
0000
0100
0000
,
0000
0010
0010
0000
0100
0100
0000
0010
,
0010
0000
0100
0100
0001
0000
0001
0000
,
1000
1000
0000
0100
0100
0000
1000
1000
,
0000
0001
0001
0000
1001
0000
1001
0000
,
0000
0001
0001
0000
0100
0100
0000
0010
,
0010
1000
0100
0010
,
0110
0000
0000
0000
,
0000
0000
0000
0000
;
#NOTES:
     dance-single:
     :
     Medium:
     14:
     :
0000
0000
0000
0000
,
0000
0000
0000
0000
,
0000
0000
0000
0000
,
0000
0000
0000
0000
,
0000
0000
0000
0000
,
0001
0000
0000
0100
0000
0000
0001
0000
0000
0000
1000
0000
0010
0000
0000
0000
,
0000
0000
0100
0000
0000
0100
0000
0000
0010
0000
1000
0000
0010
0000
1000
0000
,
0000
0000
0001
0000
0000
0001
0000
0000
0010
0000
0100
0000
0010
0000
0100
0000
,
0000
0000
1000
0000
0000
1000
0000
0000
0002
0000
0000
0000
2003
0000
0000
0000
,
3010
0100
0010
0000
1000
0100
0010
0000
,
0001
0000
0100
0000
0000
0100
0000
0000
0010
0000
1000
0000
0010
0000
0000
0000
,
1000
0000
0100
0000
0000
0100
0000
0000
0010
0000
0001
0000
0010
0000
0000
0000
,
0001
0000
1000
0000
0000
1000
0000
0000
0010
0000
0100
0000
0010
0000
0000
0000
,
1000
0100
1000
0000
0001
0010
0100
0000
,
1000
0000
0010
0000
0000
0010
0000
0000
0100
0000
0000
0001
0000
0000
1000
0000
,
0001
0000
0100
0000
0010
0100
0000
0000
0001
0000
0000
0010
0000
0000
0100
0000
,
1000
0000
0010
0000
0100
0010
0000
0000
1000
0000
0001
0100
0000
0001
0100
0000
,
0010
1000
0100
0000
0010
0001
0100
0000
,
0010
1000
1010
0000
0001
0010
0011
0000
,
1000
0100
0010
0000
0001
0100
0010
0000
,
1000
0100
0110
0000
0001
0100
0110
0000
,
0010
1000
0010
1000
0001
0010
0100
0000
,
0010
0001
0010
0001
1000
0100
0010
0000
,
0001
0100
0010
1000
0001
0100
0010
1000
,
0001
0100
0001
0100
0010
1000
0010
1000
,
0100
0010
0001
0000
0100
0010
0110
0000
,
1000
0000
0000
0001
0000
0000
0100
0000
0000
0000
0010
0000
1001
0000
0000
0000
,
1000
0100
1000
0100
0010
0001
0010
0000
,
0001
0100
0001
0000
1000
0010
1000
0000
,
0001
0000
0100
0000
0000
0100
0000
0000
0010
0000
0000
0010
0000
0000
0010
0000
,
1000
0000
0100
0000
1000
0000
0000
0000
0001
0000
0010
0001
0000
0010
0001
0000
,
1000
0100
0010
0001
1000
0010
1000
0010
,
0100
0001
0010
0000
0001
0100
0010
0000
,
1000
0000
0001
0000
0000
0100
0000
0000
0001
0000
0000
1000
0000
0000
0100
0000
,
1000
0000
0010
0000
0100
0010
0000
0000
1000
0000
0001
0100
0000
0001
0100
0000
,
0001
0010
0100
1000
0001
0010
0100
0000
,
0010
0001
0010
0000
0100
1000
0100
0000
,
1000
0000
0001
0000
0000
0001
0000
0000
0100
0000
0000
0100
0000
0000
0100
0000
,
0010
0000
1000
0000
0010
0000
1000
0000
0100
0000
0010
0001
0000
0010
0001
0000
,
1000
0010
1000
0010
0100
0001
1000
0000
,
0001
0010
0001
0010
0100
1000
0001
0000
,
1000
0010
0100
0001
1000
0010
0100
0001
,
1000
0100
0010
0000
0001
0100
0010
0100
,
0010
0000
0000
0010
0000
0000
0010
0000
0000
0010
0000
0000
1000
0000
1000
0000
,
0001
0000
0000
0001
0000
0000
0001
0000
0000
0001
0000
0000
0010
0000
0010
0000
,
0100
0000
0000
0100
0000
0000
0100
0000
0000
0100
0000
0000
1000
0000
1000
0000
,
0001
0000
0000
1000
0000
0000
0001
0000
0000
1000
0000
0000
0010
0100
0010
0000
,
0100
0000
0000
0100
0000
0000
0100
0000
0000
0100
0000
0000
0010
1000
0010
0000
,
1000
0000
0000
1000
0000
0000
1000
0000
0000
1000
0000
0000
0001
0010
0001
0000
,
0010
0000
0000
0010
0000
0000
0010
0000
0000
0010
0000
0000
0100
1000
0100
0000
,
1000
0000
0000
1000
0000
0000
1000
0000
0000
1000
0000
0000
0100
0010
0100
0000
,
0010
0100
0010
0100
0010
0100
,
0010
0100
0010
0100
0010
0100
,
1000
0100
0010
0001
1000
0100
,
0010
0001
1000
0100
0010
0100
,
2000
0000
0000
0000
,
0000
0000
0000
0000
,
3001
0000
0100
0000
0010
0000
0000
0000
1000
0000
0000
0100
0000
0000
0010
0000
,
0001
0000
1000
0000
0100
0000
0000
0000
0010
0000
0000
0001
0000
0000
1000
0000
,
0010
0000
1000
0000
0100
0000
0000
0000
0010
0000
0000
0001
0000
0000
0100
0000
,
0010
0100
0010
0000
1000
0000
1001
0000
,
0001
0000
0100
0000
0001
0000
0000
0000
0010
0000
0000
0010
0000
0000
0010
0000
,
0100
0000
1000
0000
0100
0000
0000
0000
1000
0000
0000
0010
0000
0000
0100
0000
,
0010
0000
1000
0000
0010
0000
0000
0000
0100
0000
0000
0100
0000
0000
0100
0000
,
0001
0010
0001
0010
0001
0000
1001
0000
,
1000
0000
0010
0000
1000
0000
0000
0000
0001
0000
1000
0100
0000
1000
0100
0000
,
0010
0000
0001
0000
0010
0000
0000
0000
0001
0000
0100
0010
0000
0100
0010
0000
,
1000
0000
0010
0000
1000
0000
0000
0000
0100
0000
0010
0001
0000
0010
0001
0000
,
1000
1000
0001
0001
0100
0010
0100
0000
,
0001
0010
0001
1000
0001
0010
0100
1000
,
0010
1000
0010
0100
0001
1000
0100
0010
,
0100
1000
0001
1000
0010
0100
0001
0010
,
0001
1000
0001
0010
0100
0010
0001
0000
,
1000
0010
1000
0010
1000
0000
0110
0000
,
0001
1000
0100
1000
0001
0010
0100
0000
,
1000
0010
0100
0001
0010
0100
1000
0010
,
1000
0100
0010
0001
0100
0010
0100
0000
,
0001
0001
0000
0010
0010
0000
0100
0100
,
0000
1000
1000
0000
0001
0100
0001
0000
,
0000
1000
1000
0000
0010
0010
0000
0100
,
0100
0000
0001
0001
1000
0010
1000
0010
,
0100
0100
0000
0001
0001
0000
1000
1000
,
0000
0100
0100
0000
0110
0000
0110
0010
,
0000
0001
0001
0000
0100
0100
0000
0010
,
1000
0010
1000
0001
0100
0010
0100
0000
,
0110
0000
0000
0000
,
0000
0000
0000
0000
;
#NOTES:
     dance-single:
     :
     Hard:
     16:
     :
0000
0000
0000
0000
,
0000
0000
0000
0000
,
0000
0000
0000
0000
,
0000
0000
0000
0000
,
0000
0000
0000
0000
,
1000
0000
0000
0010
0000
0000
0100
0000
0000
0000
0001
0000
0100
0000
0000
0000
,
0000
0000
0101
0000
0000
0101
0000
0000
1000
0010
1000
0000
0001
0010
0001
0000
,
0000
0000
1100
0000
0000
1100
0000
0000
0001
0100
0001
0000
1000
0100
1000
0000
,
0000
0000
0000
0000
0000
0000
1001
0000
0000
0000
0000
0000
0000
0000
0000
1001
0000
0000
0000
0000
0000
0000
0000
0000
0001
0000
0000
0000
0100
0000
0000
0000
0001
0000
0000
0000
0100
0000
0000
0000
0001
0000
0000
0000
0100
0000
0000
0000
,
0010
1000
0001
0010
0100
0010
0001
1000
,
0010
0000
1010
0000
0000
1010
0000
0000
1000
0100
1000
0000
0001
0000
0100
0000
,
0010
0000
0110
0000
0000
0110
0000
0000
0100
0001
0100
0000
0001
0000
1000
0000
,
0100
0000
0110
0000
0000
0110
0000
0000
0010
0001
0010
0000
0001
0100
0001
0000
,
1000
0010
1000
0100
0010
0100
1000
0001
,
0100
0000
0101
0000
0000
0101
0000
0000
0001
0010
0000
0001
0010
0000
0100
1000
,
0001
0000
1000
0000
0010
0100
0000
0000
0010
0000
1000
0001
0000
0100
0001
0000
,
1000
0100
1000
0000
0001
0010
0000
0100
1000
0000
0001
0010
0000
0100
1000
0000
,
0001
1000
0001
0100
0010
1000
0100
0010
,
0001
0100
0110
0001
1000
0100
0110
1000
,
0001
0100
0001
0100
0010
1000
0001
0100
,
0010
0000
1000
0000
1001
0000
0100
0000
0010
0000
0001
0010
0001
0000
1000
0000
,
0100
1000
1001
0010
0100
0001
1001
0100
,
0010
1000
1001
0010
1000
0100
0110
0001
,
1000
0100
0010
0001
1000
0100
0010
0001
,
1000
0100
1000
0100
1000
0100
1000
0100
0010
0001
0010
0001
1000
0100
1000
0100
,
0010
0010
0001
1000
0010
0010
0110
0000
,
1010
0000
0000
1001
0000
0000
0011
0000
0001
0100
0001
0000
1000
0000
0000
0000
,
0100
0010
0001
0000
1000
0000
0100
0000
1000
0000
0010
0000
0100
0000
0010
0000
,
0100
0000
0001
0000
1000
0010
0000
1000
0010
0000
0100
0000
0001
0000
0000
0000
,
0010
0000
0110
0000
0000
0110
0000
0000
1100
0000
0000
1100
0000
0000
1001
0000
,
1000
0000
0100
0000
0010
0001
0000
0010
0001
0000
1000
0010
0000
0100
0001
0000
,
1000
0010
1000
0000
0001
0000
0100
0000
0001
0000
0010
0000
0100
0000
0010
0000
,
0100
0000
1000
0000
0001
0010
0000
0001
0010
0000
0100
0000
1000
0000
0001
0000
,
0100
0000
0010
0000
1000
0100
0000
1000
0100
0000
0010
0001
0000
1000
0100
0000
,
0010
0100
0010
0000
0001
0100
0000
0001
0100
0000
0010
0000
1000
0000
0001
0000
,
0100
0000
0010
0100
0010
0000
1000
0010
1000
0000
0001
0000
0010
0000
0100
0000
,
1000
0010
1000
0000
0001
0000
0100
0000
0010
0000
1000
0000
0010
0100
0010
0000
,
0100
0000
0001
0000
0100
0010
0000
0100
0010
0000
1000
0010
0000
0100
0001
0000
,
1000
0000
0100
0000
0010
0001
0000
1000
0100
0000
0010
0001
0000
1000
0100
0000
,
1000
0010
1000
0000
0001
0000
0100
0000
0010
0000
0100
0010
0000
1000
0010
0000
,
0100
0001
0100
0000
0001
0100
0000
0010
1000
0000
0001
0100
0000
0010
1000
0000
,
0001
0010
0001
0000
1000
0100
0000
0010
0001
0000
1000
0100
0000
0010
0001
0000
,
1000
0100
1000
0000
0001
0010
0000
0100
1000
0000
0001
0010
0000
0100
1000
0000
,
0001
0000
0000
0001
0000
0000
0001
0000
0000
0001
0000
0000
1001
0000
1001
0000
,
1000
0000
0000
1000
0000
0000
1000
0000
0000
1000
0000
0000
1010
0000
1010
0000
,
0010
0000
0000
0010
0000
0000
0010
0000
0100
0010
0100
0000
0110
0000
0110
0000
,
0100
0000
0000
0100
0000
0000
0100
0000
0001
0100
0001
0000
1000
0010
1000
0000
,
1010
0000
0000
0110
0000
0000
1010
0000
0000
0110
0000
0000
0101
0000
0101
0000
,
1001
0000
0000
1100
0000
0000
1001
0000
0000
1100
0000
0000
0110
0000
0110
0000
,
0011
0000
0000
1001
0000
0000
0011
0000
0000
1001
0000
0000
0110
0000
0110
0000
,
1010
0000
0000
0110
0000
0000
1010
0000
0000
0110
0000
0000
1001
0000
1001
0000
,
0002
0003
0000
0000
0000
0000
0000
0000
2000
3000
0000
0000
0000
0000
0000
0000
0002
0003
0000
0000
0000
0000
0000
0000
2000
3000
0000
0000
0000
0000
0000
0000
0002
0003
0000
0000
0000
0000
0000
0000
2000
3000
0000
0000
0000
0000
0000
0000
,
0002
0003
0000
0000
0000
0000
0000
0000
2000
3000
0000
0000
0000
0000
0000
0000
0002
0000
0003
0000
0000
0000
0000
0000
2000
0000
3000
0000
0000
0000
0000
0000
0002
0003
0000
0000
0000
0000
0000
0000
2000
3000
0000
0000
0000
0000
0000
0000
,
0002
0203
0302
0203
0320
2030
3020
2030
3002
0023
0032
0023
,
0230
2300
3200
2300
3002
0203
0302
0203
0320
2030
3020
2030
,
3002
0000
0000
0000
,
0000
0000
0000
0000
,
1003
0000
0100
0000
0010
0001
0000
0000
1000
0000
0000
0010
0000
0000
0100
0000
,
0001
0000
0010
0000
0100
1000
0000
0000
0001
0000
0000
1000
0000
0000
0100
0000
,
1000
0000
0010
0000
0100
0001
0000
0000
1000
0000
0000
0100
0000
0000
0010
0000
,
0001
0000
0100
0000
0010
1000
0000
0000
0100
0000
0010
0000
0110
0000
0000
0000
,
1000
0100
1000
0000
0001
0000
0000
0000
0100
0000
0010
0100
0000
0010
1000
0000
,
0001
0010
0001
0000
1000
0000
0000
0000
0100
0000
0010
0100
0000
0010
0001
0000
,
1000
0010
1000
0000
0001
0000
0000
0000
0010
0000
0100
0010
0000
0100
1000
0000
,
0001
0100
0001
0000
1000
0000
0100
0000
0010
0000
0001
1000
0100
0000
0000
0000
,
0010
0001
0010
0000
0100
0000
0000
0000
1000
0000
0001
0100
0000
0001
0010
0000
,
0100
1000
0100
0000
0010
0000
0000
0000
0001
0000
1000
0010
0000
1000
0100
0000
,
0010
0100
0010
0000
0001
0000
0000
0000
1000
0000
0100
0010
0000
0001
0100
0000
,
0010
0100
0010
0000
1000
0010
1000
0000
0001
0100
0001
0100
0001
0000
0000
0000
,
1000
0000
0100
0000
1000
0100
1000
0000
0001
0010
0001
0010
0001
0000
0010
0000
,
0001
0000
0100
0000
0001
0100
0001
0000
1000
0010
1000
0010
1000
0000
0010
0000
,
0100
0000
0001
0000
0010
0001
0010
0000
0001
0100
0001
0100
0001
0000
0100
0000
,
0010
0000
1000
0000
0001
0010
0000
0100
1000
0000
0001
0010
0000
0000
0100
0000
,
1000
0001
1000
0001
0100
0000
0001
0000
0100
0000
0000
0000
0010
0000
1000
0000
,
0001
0000
0100
0000
0001
0010
0100
0000
1000
0000
0010
0000
1000
0100
0010
0000
,
0001
0000
1000
0000
0100
0010
0100
0000
0010
0001
0010
0001
0010
0000
0001
0000
,
1000
0000
0010
0000
1000
0010
1000
0000
0001
0000
0100
0001
0100
0001
0100
0000
,
1000
1010
0000
0001
0011
0000
0010
0110
,
0000
0000
0000
0001
0000
0000
1001
0000
0000
0000
0000
0000
1000
0000
0100
0000
0010
0000
0001
0000
0000
0000
0000
0000
,
0000
1000
1100
0000
0001
0101
0000
0100
,
0110
0000
0000
0000
0010
0000
1010
0000
1000
0100
1000
0000
0001
0100
0001
0000
,
0100
0010
0100
0000
0000
0000
0001
0010
0001
0000
0000
0000
1000
0010
1000
0000
,
0000
0000
0000
0000
0000
0000
0010
0000
0000
0100
0000
0000
0010
0000
0000
0000
0000
0000
0000
0000
0000
0000
0000
0000
1000
0000
0000
0000
0010
0000
0000
0000
0100
0000
0000
0000
0001
0000
0000
0000
0000
0000
0101
0000
0000
0000
0000
0000
,
1000
0000
0100
0010
0100
0000
1000
0000
0010
0100
0010
0000
1000
0000
0001
0000
,
1000
0100
1000
0000
0001
0010
0001
0000
0100
0010
0100
0000
0001
0000
0000
0000
,
1001
0000
0000
0000
,
0000
0000
0000
0000
;
#NOTES:
     dance-double:
     :
     Easy:
     9:
     :
00000000
00000000
00000000
00000000
,
00000000
00000000
00000000
00000000
,
00000000
00000000
00000000
00000000
,
00000000
00000000
00000000
00000000
,
00000000
00000000
00000000
00000000
,
00000001
00000010
00000100
00001000
,
00000100
00000000
00010000
00000000
00001000
00010000
00001000
00000000
,
00100000
00000000
00010000
00000000
00100000
00010000
00100000
00000000
,
01000000
10000000
00020000
20030000
,
30100000
01000000
00010000
00100000
,
00001000
00000000
00010000
00000000
00000100
00001000
00000100
00000000
,
00000010
00000000
00000001
00000000
00001000
00000001
00001000
00000000
,
00000010
00000000
00010000
00000000
00001000
00010000
00001000
00000000
,
01000000
00010000
10000000
00010000
,
10000000
01000000
00100000
01100000
,
10000000
00010000
01000000
00001000
,
00010000
00001000
00010000
00000000
00000010
00001000
00000010
00000000
,
00000100
00000100
00000001
00000010
,
00001000
00010000
00001000
00010000
,
00001000
00010000
01000000
10000000
,
00100000
01000000
00100000
01000000
,
00010000
10000000
00100000
00010000
,
00001000
00010000
00001000
00010000
,
00000100
00001000
00000001
00000100
,
00000010
00001000
00000100
00010000
,
00011000
00000000
10010000
00000000
,
10000000
00100000
01000000
00010000
,
00100000
00000000
00100000
00000000
00001000
00010000
00001000
00000000
,
00010000
00000000
00010000
00000000
00000100
00001000
00000100
00000000
,
00001000
00000001
00000010
00000100
,
00001000
00000010
00001000
00000000
00000010
00000000
00010000
00000000
,
00001000
00010000
00100000
01000000
,
00010000
00000000
10000000
00000000
01000000
00100000
01000000
00000000
,
10000000
01000000
00010000
00001000
,
00000010
00000000
00000001
00000000
00000100
00000010
00000100
00000000
,
00000001
00001000
00000010
00001000
,
00000100
00010000
00001000
00011000
,
00010000
00001000
01000000
00010000
,
10000000
01000000
00100000
01100000
,
10000000
00010000
00100000
00010000
,
01000000
00001000
00010000
00011000
,
00001000
00010000
00000010
00001000
,
00000001
00000010
00000100
00001000
,
00000001
00000001
00000001
00000001
,
00000100
00000100
00000100
00000100
,
00001000
00001000
00001000
00001000
,
00010000
00010000
00010000
00010000
,
00100000
00000000
00000000
00100000
00000000
00000000
00100000
00000000
00000000
00100000
00000000
00000000
00100000
00000000
00000000
00000000
,
10000000
00000000
00000000
10000000
00000000
00000000
10000000
00000000
00000000
10000000
00000000
00000000
10000000
00000000
00000000
00000000
,
00010000
00000000
00000000
00010000
00000000
00000000
00010000
00000000
00000000
00010000
00000000
00000000
00010000
00000000
00000000
00000000
,
01000000
00000000
00000000
01000000
00000000
00000000
01000000
00000000
00000000
01000000
00000000
00000000
01000000
00000000
00000000
00000000
,
00001000
00000000
00010000
00000000
00001000
00000000
,
00010000
00000000
00001000
00000000
00010000
00000000
,
00000100
00000000
00010000
00000000
00001000
00000000
,
01000000
00000000
00001000
00000000
00010000
00000000
,
00002000
00000000
00000000
00000000
,
00000000
00000000
00000000
00000000
,
00013000
00000100
00001000
00000100
,
00000010
00000001
00000010
00000001
,
00001000
00000010
00010000
00001000
,
00100000
00010000
10000000
10010000
,
10000000
01000000
00100000
00010000
,
00001000
00000100
00000010
00000001
,
00001000
00000001
00000010
00000100
,
00001000
00010000
00100000
01000000
,
10000000
01000000
00010000
00001000
,
00010000
00001000
00000010
00000001
,
00001000
00000001
00000100
00001000
,
00010000
00001000
00010000
00100000
,
10000000
00000000
00010000
00000000
00100000
00010000
00100000
00000000
,
00001000
00000000
00010000
00000000
00000100
00010000
00000100
00000000
,
00001000
00000000
00000010
00000000
00000100
00000001
00000100
00000000
,
00000001
00000010
00000001
00000000
00001000
00000010
00001000
00000000
,
00000010
00010000
00011000
00000000
,
00001000
00100000
00010000
10000000
,
01000000
00000000
00100000
00000000
00010000
01000000
00010000
00000000
,
01000000
00001000
00010000
00011000
,
00010000
00010000
00000000
00000010
00000010
00000000
00001000
00001000
,
00000000
00000001
00000001
00000000
00001000
00000000
00001000
00000000
,
00000000
00000010
00000010
00000000
00010000
00010000
00000000
00001000
,
00001000
00000000
01000000
01000000
00010000
00000000
00010000
00000000
,
10000000
10000000
00000000
01000000
01000000
00000000
00100000
00100000
,
00000000
00010000
00010000
00000000
00100000
00000000
00001000
00000000
,
00000000
00010000
00001000
00000000
00000010
00000001
00000000
00001000
,
00000001
00000100
00001000
00010000
,
00011000
00000000
00000000
00000000
,
00000000
00000000
00000000
00000000
;
#NOTES:
     dance-double:
     :
     Medium:
     14:
     :
00000000
00000000
00000000
00000000
,
00000000
00000000
00000000
00000000
,
00000000
00000000
00000000
00000000
,
00000000
00000000
00000000
00000000
,
00000000
00000000
00000000
00000000
,
10000000
00000000
00000000
00100000
00000000
00000000
10000000
00000000
00000000
00000000
00010000
00000000
01000000
00000000
00000000
00000000
,
00000000
00000000
00001000
00000000
00000000
00001000
00000000
00000000
00010000
00000000
00000100
00000000
00010000
00000000
00000100
00000000
,
00000000
00000000
00001000
00000000
00000000
00001000
00000000
00000000
00000001
00000000
00000010
00000000
00000001
00000000
00000010
00000000
,
00000000
00000000
00000001
00000000
00000000
00000001
00000000
00000000
00000200
00000000
00000000
00000000
00002300
00000000
00000000
00000000
,
00013000
00001000
00010000
00000000
00001000
00100000
00010000
00000000
,
10000000
00000000
00100000
00000000
00000000
00100000
00000000
00000000
01000000
00000000
00010000
00000000
01000000
00000000
00000000
00000000
,
00001000
00000000
00010000
00000000
00000000
00010000
00000000
00000000
00000010
00000000
00001000
00000000
00000010
00000000
00000000
00000000
,
00000100
00000000
00000001
00000000
00000000
00000001
00000000
00000000
00000010
00000000
00000100
00000000
00000010
00000000
00000000
00000000
,
00000100
00001000
00000100
00000000
00010000
00001000
00010000
00000000
,
00001000
00000000
00100000
00000000
00000000
00100000
00000000
00000000
00010000
00000000
00000000
10000000
00000000
00000000
01000000
00000000
,
00100000
00000000
00010000
00000000
00100000
00001000
00000000
00000000
00010000
00000000
00000000
00001000
00000000
00000000
00000100
00000000
,
00000010
00000000
00001000
00000000
00000100
00010000
00000000
00000000
00001000
00000000
00100000
00010000
00000000
00100000
00010000
00000000
,
10000000
01000000
10000000
00000000
00010000
00100000
00010000
00000000
,
01000000
00001000
00010000
00000000
00000100
00001000
00000010
00000000
,
00000100
00000001
00000100
00000000
00000010
00001000
00000010
00000000
,
00010000
00001000
00100000
00000000
00010000
10000000
01000000
00000000
,
10000000
00100000
10000000
00000000
00010000
01000000
00001000
00000000
,
00010000
00001000
00010000
00000000
00000010
00001000
00000001
00000000
,
00000100
00000010
00001000
00000100
00010000
00001000
00100000
00010000
,
10000000
01000000
00100000
00010000
00100000
00001000
00010000
00000100
,
00001000
00000001
00001000
00000000
00000010
00000100
00000010
00000000
,
00001000
00000000
00000000
00000100
00000000
00000000
00010000
00000000
00000000
00000000
00001000
00000000
00011000
00000000
00000000
00000000
,
00001000
00100000
00010000
00100000
01000000
10000000
01000000
00000000
,
10000000
00100000
10000000
00000000
00010000
00100000
00010000
00000000
,
10000000
00000000
01000000
00000000
00000000
00010000
00000000
00000000
00001000
00000000
00000000
00010000
00000000
00000000
00001000
00000000
,
00010000
00000000
00000100
00000000
00001000
00000000
00000000
00000000
00000010
00000000
00001000
00000010
00000000
00001000
00000010
00000000
,
00010000
00001000
00000100
00000010
00001000
00000100
00000010
00000000
,
00000001
00000100
00000001
00000000
00001000
00000100
00001000
00000000
,
00000001
00000000
00000100
00000000
00000000
00001000
00000000
00000000
00010000
00000000
00000000
00001000
00000000
00000000
00010000
00000000
,
00001000
00000000
00100000
00000000
00010000
00000000
00000000
00000000
01000000
00000000
00010000
01000000
00000000
00010000
01000000
00000000
,
00001000
00010000
00100000
01000000
00010000
00100000
01000000
00000000
,
10000000
00100000
10000000
00000000
00010000
00100000
00010000
00000000
,
10000000
00000000
00100000
00000000
00000000
00010000
00000000
00000000
00001000
00000000
00000000
00000100
00000000
00000000
00000001
00000000
,
00001000
00000000
00000010
00000000
00001000
00000000
00000100
00000000
00010000
00000000
00001000
00010000
00000000
00001000
00100000
00000000
,
00010000
01000000
00010000
01000000
00100000
10000000
00010000
00000000
,
10000000
00100000
01000000
00010000
01000000
00001000
00010000
00000000
,
00000010
00001000
00000001
00000100
00000010
00001000
00000100
00010000
,
00001000
00010000
00001000
00000000
01000000
00010000
10000000
00100000
,
10000000
00000000
00000000
10000000
00000000
00000000
10000000
00000000
00000000
10000000
00000000
00000000
01000000
00000000
01000000
00000000
,
00010000
00000000
00000000
00010000
00000000
00000000
00010000
00000000
00000000
00010000
00000000
00000000
00001000
00000000
00001000
00000000
,
00000010
00000000
00000000
00000010
00000000
00000000
00000010
00000000
00000000
00000010
00000000
00000000
00000001
00000000
00000001
00000000
,
00000100
00000000
00000000
00001000
00000000
00000000
00010000
00000000
00000000
01000000
00000000
00000000
10000000
00000000
10000000
00000000
,
00010000
00000000
00000000
00010000
00000000
00000000
00100000
00000000
00000000
00100000
00000000
00000000
00001000
00010000
00001000
00000000
,
00010000
00000000
00000000
00010000
00000000
00000000
00000100
00000000
00000000
00000100
00000000
00000000
00001000
00000100
00001000
00000000
,
00000001
00000000
00000000
00000001
00000000
00000000
00000010
00000000
00000000
00000010
00000000
00000000
00000100
00001000
00000100
00000000
,
00010000
00000000
00000000
00010000
00000000
00000000
00001000
00000000
00000000
00001000
00000000
00000000
01000000
00010000
01000000
00000000
,
00010000
10000000
00010000
10000000
01000000
00100000
,
00010000
00100000
00001000
00010000
00000010
00001000
,
00000001
00000010
00000100
00001000
00000010
00000100
,
00001000
00010000
00100000
01000000
10000000
01000000
,
00020000
00000000
00000000
00000000
,
00000000
00000000
00000000
00000000
,
10030000
00000000
00100000
00000000
01000000
00000000
00000000
00000000
00010000
00000000
00000000
01000000
00000000
00000000
00001000
00000000
,
00010000
00000000
00000100
00000000
00001000
00000000
00000000
00000000
00000001
00000000
00000000
00000010
00000000
00000000
00000100
00000000
,
00001000
00000000
00000010
00000000
00010000
00000000
00000000
00000000
00001000
00000000
00000000
00100000
00000000
00000000
00010000
00000000
,
01000000
00010000
01000000
00000000
00100000
00000000
10100000
00000000
,
10000000
00000000
01000000
00000000
00100000
00000000
00000000
00000000
00010000
00000000
00000000
00010000
00000000
00000000
00010000
00000000
,
00100000
00000000
00001000
00000000
00010000
00000000
00000000
00000000
00000010
00000000
00000000
00001000
00000000
00000000
00000010
00000000
,
00001000
00000000
00000100
00000000
00001000
00000000
00000000
00000000
00000001
00000000
00000000
00000001
00000000
00000000
00000001
00000000
,
00000100
00001000
00010000
00000000
00001000
00000000
00011000
00000000
,
00010000
00000000
00100000
00000000
01000000
00000000
00000000
00000000
00010000
00000000
00000000
10000000
00000000
00000000
01000000
00000000
,
10000000
00000000
01000000
00000000
00010000
00000000
00000000
00000000
00001000
00000000
00000000
00010000
00000000
00000000
00000010
00000000
,
00001000
00000000
00000100
00000000
00000001
00000000
00000000
00000000
00000100
00000000
00000000
00001000
00000000
00000000
00000001
00000000
,
00001000
00001000
00000010
00000010
00010000
00001000
00000100
00000000
,
00000001
00000010
00000001
00001000
00000001
00000010
00000100
00001000
,
00000010
00010000
00001000
00010000
00001000
00100000
00010000
00100000
,
01000000
10000000
00010000
10000000
00100000
01000000
00010000
00100000
,
00001000
00010000
00000100
00010000
00001000
00100000
00010000
00000000
,
10000000
00100000
10000000
00100000
01000000
00000000
01010000
00000000
,
10000000
00100000
00010000
00001000
00010000
00001000
00000100
00000010
,
00001000
00000001
00000010
00000100
00000010
00000001
00000100
00001000
,
00010000
00001000
00100000
00010000
10000000
00010000
01000000
00000000
,
00001000
00001000
00000000
00010000
00010000
00000000
00000100
00000100
,
00000000
00001000
00001000
00000000
00000001
00000010
00001000
00000000
,
00000000
00010000
00010000
00000000
00001000
00001000
00000000
01000000
,
01000000
00000000
00010000
00010000
10000000
00100000
10000000
00100000
,
01000000
01000000
00000000
00010000
00010000
00000000
00100000
00100000
,
00000000
00001000
00001000
00000000
00010000
00000000
00000010
00000010
,
00000000
00001000
00001000
00000000
00000001
00000001
00000000
00000100
,
00000001
00001000
00000100
00010000
00001000
00010000
01000000
00000000
,
01100000
00000000
00000000
00000000
,
00000000
00000000
00000000
00000000
;
#NOTES:
     dance-double:
     :
     Hard:
     17:
     :
00000000
00000000
00000000
00000000
,
00000000
00000000
00000000
00000000
,
00000000
00000000
00000000
00000000
,
00000000
00000000
00000000
00000000
,
00000000
00000000
00000000
00000000
,
10000000
00000000
00000000
00010000
00000000
00000000
00100000
00000000
00000000
00000000
00001000
00000000
00010000
00000000
00000000
00000000
,
00000000
00000000
00011000
00000000
00000000
00010100
00000000
00000000
00000100
00001000
00000100
00000000
00000010
00000001
00000010
00000000
,
00000000
00000000
00001001
00000000
00000000
00001100
00000000
00000000
00000100
00010000
00000100
00000000
00010000
00001000
00010000
00000000
,
00000000
00000000
00000000
00000000
00000000
00000000
00101000
00000000
00000000
00000000
00000000
00000000
00000000
00000000
00000000
00110000
00000000
00000000
00000000
00000000
00000000
00000000
00000000
00000000
00010000
00000000
00000000
00000000
10000000
00000000
00000000
00000000
01000000
00000000
00000000
00000000
10000000
00000000
00000000
00000000
01000000
00000000
00000000
00000000
10000000
00000000
00000000
00000000
,
00010000
00100000
00001000
00010000
00000100
00010000
00001000
00000100
,
00000001
00000000
00000101
00000000
00000000
00000110
00000000
00000000
00000010
00001000
00000010
00000000
00001000
00000000
00000100
00000000
,
00010000
00000000
00011000
00000000
00000000
01001000
00000000
00000000
01000000
00010000
01000000
00000000
00100000
00000000
10000000
00000000
,
00010000
00000000
00110000
00000000
00000000
00101000
00000000
00000000
00001000
00010000
00001000
00000000
00010000
00000010
00010000
00000000
,
00000010
00001000
00000100
00000010
00000100
00001000
00000001
00000100
,
00000010
00000000
00001010
00000000
00000000
00010010
00000000
00000000
00010000
00001000
00000000
00010000
00001000
00000000
00100000
00010000
,
10000000
00000000
00100000
00000000
01000000
00010000
00000000
00000000
00100000
00000000
00001000
00010000
00000000
00000100
00001000
00000000
,
00000001
00000010
00000001
00000000
00000100
00000010
00000000
00001000
00000010
00000000
00010000
00001000
00000000
00100000
00010000
00000000
,
10000000
01000000
10000000
01000000
00100000
00010000
00100000
00001000
,
00010000
00001000
00011000
00010000
00000100
00001000
00000100
00001000
,
00000001
00000100
00000001
00000100
00000010
00001000
00000010
00010000
,
00001000
00010000
00011000
00001000
01000000
00010000
01000000
00010000
,
10000000
01000000
00100000
00010000
01000000
00100000
00010000
00001000
,
00010000
00001000
00000100
00000010
00001000
00000100
00000010
00000001
,
00001000
00000100
00010000
00001000
00100000
00010000
10000000
01000000
,
00100000
00010000
00100000
00010000
00100000
00010000
00100000
00001000
00010000
00001000
00010000
00001000
00010000
00001000
00010000
00001000
,
00010000
00010000
00000100
00001000
00000001
00000001
00001001
00000000
,
00001100
00000000
00000000
00010100
00000000
00000000
00011000
00000000
00010000
00001000
00010000
00000000
00001000
00000000
00000000
00000000
,
00100000
00010000
10000000
00000000
01000000
00000000
10000000
00000000
00010000
00000000
00100000
00000000
00010000
00000000
00100000
00000000
,
00001000
00000000
00010000
00000000
00000010
00001000
00000000
00000010
00001000
00000000
00000001
00000000
00000100
00000000
00000000
00000000
,
00000010
00000000
00001010
00000000
00000000
00010010
00000000
00000000
00011000
00000000
00000000
00011000
00000000
00000000
00101000
00000000
,
00100000
00000000
00010000
00000000
10000000
01000000
00000000
10000000
01000000
00000000
10000000
01000000
00000000
10000000
01000000
00000000
,
00100000
00010000
00100000
00000000
00001000
00000000
00010000
00000000
00000100
00000000
00001000
00000000
00000100
00000000
00000010
00000000
,
00000001
00000000
00001000
00000000
00000010
00000100
00000000
00000010
00000100
00000000
00000001
00000000
00001000
00000000
00000100
00000000
,
00010000
00000000
00001000
00000000
01000000
00010000
00000000
01000000
00010000
00000000
10000000
00100000
00000000
10000000
00010000
00000000
,
00100000
00010000
00100000
00000000
00001000
00010000
00000000
00001000
00010000
00000000
00000100
00000000
00001000
00000000
00000001
00000000
,
00001000
00000001
00000100
00001000
00010000
00100000
10000000
00100000
,
01000000
00010000
01000000
00000000
00100000
00000000
00010000
00000000
00001000
00000000
00000100
00000000
00000001
00001000
00000001
00000000
,
00000100
00000000
00000010
00000000
00001000
00000010
00000000
00001000
00000010
00000000
00010000
00001000
00000000
00010000
00001000
00000000
,
00100000
00000000
00010000
00000000
10000000
00100000
00000000
10000000
00100000
00000000
01000000
00010000
00000000
01000000
00010000
00000000
,
10000000
00000000
01000000
00000000
00010000
00000000
00001000
00000000
00000100
00000000
00000001
00001000
00000000
00000010
00001000
00000000
,
00000001
00000000
00000010
00000000
00001000
00000000
00010000
00000000
00100000
00000000
10000000
00010000
00000000
01000000
00010000
00000000
,
01000000
00000000
00100000
00000000
00010000
00000000
00001000
00000000
00000100
00000000
00000010
00001000
00000000
00000001
00001000
00000000
,
00000010
00000000
00000100
00000000
00001000
00000000
00010000
00000000
00100000
00000000
01000000
00010000
00000000
10000000
00010000
00000000
,
00100000
00000000
00000000
00100000
00000000
00000000
00100000
00000000
00000000
00100000
00000000
00000000
00101000
00000000
00101000
00000000
,
00001000
00000000
00000000
00001000
00000000
00000000
00001000
00000000
00000000
00001000
00000000
00000000
00011000
00000000
00011000
00000000
,
00010000
00000000
00000000
00010000
00000000
00000000
00010000
00000000
00000000
00010000
00000000
00000000
00010100
00000000
00010100
00000000
,
00000100
00000000
00000000
00000100
00000000
00000000
00000100
00000000
00001000
00000100
00001000
00000000
00000001
00000100
00000001
00000000
,
00000101
00000000
00000000
00000110
00000000
00000000
00001010
00000000
00000000
00001100
00000000
00000000
00010100
00000000
00010100
00000000
,
00011000
00000000
00000000
00101000
00000000
00000000
00110000
00000000
00000000
10010000
00000000
00000000
11000000
00000000
11000000
00000000
,
10010000
00000000
00000000
01010000
00000000
00000000
01001000
00000000
00000000
00011000
00000000
00000000
00010010
00000000
00010010
00000000
,
00001010
00000000
00000000
00001001
00000000
00000000
00000011
00000000
00000000
00000110
00000000
00000000
00001001
00000000
00001001
00000000
,
00000002
00000003
00000000
00000000
00000000
00000000
00000000
00000000
00000200
00000300
00000000
00000000
00000000
00000000
00000000
00000000
00000002
00000003
00000000
00000000
00000000
00000000
00000000
00000000
00000200
00000300
00000000
00000000
00000000
00000000
00000000
00000000
00000020
00000030
00000000
00000000
00000000
00000000
00000000
00000000
00002000
00003000
00000000
00000000
00000000
00000000
00000000
00000000
,
00000020
00000030
00000000
00000000
00000000
00000000
00000000
00000000
00020000
00030000
00000000
00000000
00000000
00000000
00000000
00000000
00002000
00003000
00000000
00000000
00000000
00000000
00000000
00000000
00020000
00030000
00000000
00000000
00000000
00000000
00000000
00000000
00002000
00003000
00000000
00000000
00000000
00000000
00000000
00000000
00200000
00300000
00000000
00000000
00000000
00000000
00000000
00000000
,
00020000
20030000
32000000
23000000
32000000
03200000
00320000
00230000
00302000
00023000
00032000
00023000
,
00030020
00002030
00003020
00002030
00003002
00000203
00000302
00000203
00000320
00002030
00003020
00002030
,
00003002
00000000
00000000
00000000
,
00000000
00000000
00000000
00000000
,
00001003
00000000
00000100
00000000
00000010
00000001
00000000
00000000
00000100
00000000
00000000
00001000
00000000
00000000
00010000
00000000
,
00001000
00000000
00100000
00000000
00010000
10000000
00000000
00000000
01000000
00000000
00000000
00010000
00000000
00000000
00001000
00000000
,
00010000
00000000
00000010
00000000
00001000
00000001
00000000
00000000
00000010
00000000
00000000
00001000
00000000
00000000
00010000
00000000
,
00000100
00000000
00010000
00000000
00001000
01000000
00000000
00000000
00010000
00000000
10000000
00000000
10010000
00000000
00000000
00000000
,
10000000
00100000
10000000
00000000
00010000
00000000
00000000
00000000
01000000
00000000
00001000
00010000
00000000
00001000
00010000
00000000
,
00000100
00001000
00000100
00000000
00000010
00000000
00000000
00000000
00000001
00000000
00001000
00000010
00000000
00001000
00000010
00000000
,
00010000
00001000
00010000
00000000
00001000
00000000
00000000
00000000
00100000
00000000
00010000
01000000
00000000
00010000
01000000
00000000
,
00100000
10000000
00010000
01000000
00001000
00010000
00000010
00000000
,
00001000
00000010
00001000
00000000
00000001
00000000
00000000
00000000
00000100
00000000
00000010
00001000
00000000
00000001
00001000
00000000
,
00000100
00010000
00000100
00000000
00010000
00000000
00000000
00000000
00001000
00000000
00100000
00010000
00000000
10000000
00010000
00000000
,
01000000
00100000
01000000
00000000
00010000
00000000
00000000
00000000
00100000
00000000
00001000
00010000
00000000
00000100
00010000
00000000
,
00000100
00000000
00001000
00000000
00000100
00000000
00000010
00000000
00000001
00000010
00000001
00000010
00000001
00000000
00000000
00000000
,
00001000
00000000
00000100
00000000
00000001
00000000
00000100
00000000
00001000
00000010
00001000
00000010
00001000
00000000
00000100
00000000
,
00010000
00000000
00001000
00000000
00100000
00000000
00001000
00000000
00010000
00001000
00010000
00001000
00010000
00000000
00001000
00000000
,
00010000
00000000
01000000
00000000
10000000
00000000
01000000
00000000
00100000
00010000
00100000
00010000
00100000
00000000
00001000
00000000
,
00010000
00000000
00000100
00000000
00001000
00000100
00000000
00001000
00000100
00000000
00000010
00000001
00000000
00000000
00001000
00000000
,
00000001
00000100
00000001
00000100
00000001
00000000
00000100
00000000
00001000
00000000
00000000
00000000
00010000
00000000
00001000
00000000
,
00100000
00010000
10000000
01000000
00010000
01000000
10000000
00000000
,
00010000
00000000
00100000
00000000
10000000
00000000
00100000
00000000
00010000
01000000
00010000
01000000
00010000
00000000
01000000
00000000
,
00001000
00000000
00010000
00000000
00000010
00000000
00001000
00000000
00000001
00000000
00000010
00000100
00000010
00000100
00000010
00000000
,
00000001
00000011
00000000
00001000
00001100
00000000
00000100
00010100
,
00000000
00000000
00000000
00010000
00000000
00000000
00011000
00000000
00000000
00000000
00000000
00000000
00001000
00000000
00010000
00000000
00100000
00000000
01000000
00000000
00000000
00000000
00000000
00000000
,
00000000
00100000
10100000
00000000
10000000
10010000
00000000
00010000
,
01010000
00000000
00000000
00000000
01000000
00000000
01001000
00000000
00001000
00010000
00001000
00000000
00010000
00000100
00010000
00000000
,
00000100
00001000
00000100
00000000
00000000
00000000
00000010
00000001
00000010
00000000
00000000
00000000
00000001
00001000
00000001
00000000
,
00000000
00000000
00000000
00000000
00000000
00000000
00001000
00000000
00000000
00000100
00000000
00000000
00001000
00000000
00000000
00000000
00000000
00000000
00000000
00000000
00000000
00000000
00000000
00000000
00000001
00000000
00000000
00000000
00000100
00000000
00000000
00000000
00001000
00000000
00000000
00000000
00010000
00000000
00000000
00000000
00000000
00000000
00100000
00000000
00000000
00000000
00000000
00000000
,
10000000
00000000
00010000
01000000
00010000
00000000
01000000
00000000
00001000
00010000
00001000
00000000
00010000
00000000
00000010
00000000
,
00001000
00000001
00001000
00000000
00000001
00000010
00000001
00000000
00001000
00000100
00001000
00000000
00000100
00000000
00000000
00000000
,
00011000
00000000
00000000
00000000
,
00000000
00000000
00000000
00000000
;
