
//----- song ID: staa -----//
#TITLE:STAY (Joey Riot remix);
#ARTIST:DANNY D;
#BANNER:STAY (Joey Riot remix).png;
#BACKGROUND:STAY (Joey Riot remix)-bg.png;
#CDTITLE:./CDTitles/DDR HOTTEST PARTY2.png;
#MUSIC:STAY (Joey Riot remix).ogg;
#SAMPLESTART:33.6;
#SAMPLELENGTH:15;
#BPMS:0=150;
#STAGE:3;
#NOTES:
     dance-single:
     :
     Beginner:
     2:
     :
0000
0000
0000
0000
,
0000
0000
0000
0000
,
0000
0000
0000
0000
,
0000
0000
0000
0000
,
0000
0000
0000
0000
,
0001
0000
0000
0000
,
0001
0000
0000
0000
,
1000
0000
0000
0000
,
1000
0000
0000
0000
,
0010
0000
0000
0000
,
0010
0000
0000
0000
,
0100
0000
0000
0000
,
0100
0000
0000
0000
,
0001
0000
0000
0000
,
0001
0000
0000
0000
,
0010
0000
0000
0000
,
0010
0000
0000
0000
,
0100
0000
0000
0000
,
0100
0000
0000
0000
,
1000
0000
0000
0000
,
1000
0000
0000
0000
,
0001
0000
0000
0000
,
0100
0000
0000
0000
,
0010
0000
0000
0000
,
1000
0000
0000
0000
,
0001
0000
0000
0000
,
0010
0000
0000
0000
,
0100
0000
0000
0000
,
1000
0000
0000
0000
,
0001
0000
0000
0000
,
0100
0000
0000
0000
,
0001
0000
0000
0000
,
1000
0000
0000
0000
,
0010
0000
0000
0000
,
1000
0000
0000
0000
,
0001
0000
0000
0000
,
0100
0000
0000
0000
,
0020
0000
0030
0000
,
0000
0000
0000
0000
,
1000
0000
1000
0000
,
1000
0000
0000
0000
,
0001
0000
0001
0000
,
0001
0000
0000
0000
,
0100
0000
0100
0000
,
0100
0000
0000
0000
,
0010
0000
0010
0000
,
0010
0000
0000
0000
,
1000
0000
1000
0000
,
1000
0000
0000
0000
,
0001
0000
0001
0000
,
0001
0000
0000
0000
,
0010
0000
0010
0000
,
0010
0000
0000
0000
,
0100
0000
0100
0000
,
0100
0000
0000
0000
,
1001
0000
0000
0000
,
0000
0000
0000
0000
;
#NOTES:
     dance-single:
     :
     Easy:
     6:
     :
0000
0000
0000
0000
,
0000
0000
0000
0000
,
0000
0000
0000
0000
,
0000
0000
0000
0000
,
0000
0000
0000
0000
,
0001
1000
0001
1000
,
0010
0100
0001
0000
,
1000
0001
1000
0001
,
1000
0100
0010
0000
,
0001
0100
0001
0100
,
0001
0010
0100
0000
,
1000
0010
1000
0010
,
1000
0100
0010
0000
,
0001
1000
0001
0100
,
0010
0100
0001
0010
,
0100
1000
0100
0010
,
0001
1000
0010
0100
,
0001
0001
1000
1000
,
0001
0010
0100
0000
,
1000
1000
0001
0001
,
0200
0000
0300
0000
,
0001
0011
1000
1100
,
0001
0100
0010
1000
,
0001
0101
1000
1100
,
0010
0001
0100
0010
,
1000
1001
0001
0100
,
0010
1000
0100
0010
,
0001
1001
1000
0010
,
0100
0001
1000
0000
,
0001
0101
1000
1010
,
0001
0010
0100
1000
,
0001
0011
1000
1010
,
0100
0001
0010
0100
,
1000
1001
0001
0010
,
0100
1000
0010
0100
,
0001
1001
1000
0100
,
1000
0110
0001
0110
,
2002
0000
0000
0000
,
3003
0000
0000
0000
,
0001
1000
0010
0100
,
0001
1000
1100
0011
,
1000
0010
0100
0001
,
1000
0001
0011
1100
,
0001
1000
0100
0010
,
0001
1000
1010
0101
,
1000
0100
0010
0001
,
2000
3002
0103
0000
,
0001
0011
1000
1100
,
0001
0100
0110
1001
,
1000
1100
0001
0011
,
1000
0010
0110
1001
,
0001
0101
1000
1010
,
0001
0010
0110
1001
,
1000
1010
0001
0101
,
2000
3200
0320
0031
,
2002
0000
0000
0000
,
3003
0000
0000
0000
,
0000
0000
0000
0000
;
#NOTES:
     dance-single:
     :
     Medium:
     9:
     :
0000
0000
0000
0000
,
0000
0000
0000
0000
,
0000
0000
0000
0000
,
0000
0000
0000
0000
,
0000
0000
0000
0000
,
0001
1000
0010
0100
,
0010
1000
0100
0010
,
0001
1000
0010
1000
,
0001
0100
0001
0010
,
0100
1000
0010
1000
,
0001
0010
0100
0010
,
0001
1000
0010
0100
,
0001
0010
0100
1000
,
1001
0000
0001
0000
0100
0001
1000
0000
,
0100
0000
0010
0000
0001
1000
0010
0000
,
0100
0000
0001
0000
1000
0100
0010
0000
,
0100
0000
1000
0000
0001
0100
0010
0000
,
1000
0001
0100
0010
,
0100
0001
1000
0100
,
0010
0001
1000
0010
,
0200
0000
0000
0300
,
0001
1000
0001
0000
0100
0010
0100
0000
,
0001
1000
0001
0000
0010
0000
0100
0000
,
1000
0001
1000
0000
0010
0100
0010
0000
,
1000
0001
1000
0000
0100
0000
0010
0000
,
0001
0000
0001
0000
1000
0010
0100
0000
,
0001
0000
0001
0000
0010
0100
1000
0000
,
0001
0000
0100
0000
0001
0010
0100
0000
,
1000
0000
0010
0000
1000
0100
0010
0000
,
0001
0010
0001
0000
0100
0010
0100
0000
,
0001
0010
0001
0000
0100
0000
0010
0000
,
1000
0100
1000
0000
0010
0100
0010
0000
,
1000
0100
1000
0000
0010
0000
0100
0000
,
0001
0000
1000
0000
0001
0100
0010
0000
,
1000
0000
0001
0000
1000
0100
0010
0000
,
0001
0000
0100
0000
0001
1000
0100
0000
,
0110
0011
1100
0110
,
0002
0000
0000
0000
,
0003
0000
0000
0000
,
1000
0000
0001
0000
0001
0100
0010
0000
,
1000
0001
1000
0000
0001
0010
0001
0010
,
0100
0000
1000
0000
1000
0010
0100
0000
,
0001
1000
0001
0000
1000
0100
1000
0100
,
0010
0000
0001
0000
0001
0010
0100
0000
,
1000
0001
1000
0000
0001
0100
0001
0100
,
0010
0000
1000
0000
1000
0100
0010
0000
,
0001
0100
0010
1000
0010
0100
0001
0000
,
1000
0100
0010
0000
0100
1000
0001
1000
,
0200
2300
3020
0230
,
0301
0010
0100
0000
0010
0001
0010
0001
,
1000
0000
0100
0000
1000
0100
0010
0001
,
1000
0000
0010
0000
0100
0001
0100
0001
,
2000
3200
0320
0032
,
1003
0100
1000
0000
0001
0100
0001
0000
,
1000
0100
0010
0001
0010
0100
1000
0000
,
2002
0000
0000
0000
,
0000
0000
0000
0000
,
3003
0000
0000
0000
,
0000
0000
0000
0000
;
#NOTES:
     dance-single:
     :
     Hard:
     12:
     :
0000
0000
0000
0000
,
0000
0000
0000
0000
,
0000
0000
0000
0000
,
0000
0000
0000
0000
,
0000
0000
0000
0000
,
0001
0000
1000
0010
0100
0010
1000
0001
,
0000
0001
0100
0000
0001
0000
0010
0000
,
0100
0000
1000
0100
1000
0100
0000
1000
,
0000
0010
0100
0000
0001
0000
0010
0000
,
0100
0000
1000
0001
0100
0000
0010
0000
,
1000
0000
0001
0000
0010
0000
0100
1000
,
0010
0000
0010
0100
0001
0000
1000
0000
,
0100
0000
0010
0000
0001
0100
0010
1000
,
0001
0010
0001
0010
0001
0010
0100
1000
,
0001
0100
0001
0100
0001
0100
0010
1000
,
0001
0100
0001
0010
0100
1000
0010
1000
,
0001
0100
0001
0010
0100
1000
0001
0100
,
0010
0100
0001
1000
0100
1000
0001
0100
,
0010
1000
0100
1000
0010
0100
0001
0010
,
0001
0100
0010
1000
0100
1000
0010
0100
,
0002
0000
0000
0003
,
1000
0100
0010
0100
1000
0010
0100
0010
,
1000
0100
0010
0100
1000
0010
0001
0010
,
1000
0001
0010
0100
0010
0001
0100
0010
,
0100
0001
0010
0100
0010
0001
0100
1000
,
0100
0010
1000
0001
0100
0001
1000
0010
,
0100
0010
1000
0001
0010
0100
0001
0100
,
1000
0001
0100
0010
1000
0010
0100
0001
,
1000
0100
0010
1000
0010
0001
1000
1000
,
0001
0100
0010
0100
0001
0010
1000
0010
,
0001
0100
0010
0100
0001
0010
1000
0010
,
0100
1000
0010
0100
0010
1000
0100
0001
,
0100
1000
0010
0100
0010
1000
0100
0001
,
0100
0010
0001
1000
0010
0100
0001
1000
,
0100
1000
0001
0100
0010
0001
0010
1000
,
0100
0010
0001
1000
0100
1000
0010
0100
,
0001
0010
0100
1000
0001
0100
0010
1000
,
2002
0000
0000
0000
,
3003
0000
0000
0000
,
1000
0000
0100
0000
0010
0000
0001
0010
0001
0000
1000
0000
0100
0000
0010
0000
,
0001
0000
0000
0100
0000
0010
1000
0000
0001
0000
0010
0000
0100
0000
1000
0000
,
0001
0000
0100
0000
0010
0000
1000
0010
1000
0000
0001
0000
0100
0000
0010
0000
,
1000
0000
0000
0100
0000
0010
0001
0000
1000
0000
0010
0000
0100
0000
0001
0000
,
1000
0000
0100
0000
0010
0000
0001
0010
0001
0000
1000
0000
0010
0000
0100
0000
,
0001
0000
0000
1000
0000
0100
1000
0000
0001
0000
0100
0000
0010
0000
1000
0000
,
0001
0000
0010
0000
0100
0000
1000
0100
1000
0000
0010
0000
0100
0000
0001
0000
,
1000
0100
1000
0000
0100
0000
0010
0000
0001
0000
0000
0000
0001
1000
0001
0000
,
1000
0000
0100
0000
0010
0000
0001
1000
0001
0000
0100
0000
0010
0000
1000
0000
,
0001
0000
0000
0010
0000
0001
1000
0000
0001
0000
0100
0000
0010
0000
1000
0000
,
0001
0000
0010
0000
0100
0000
1000
0001
1000
0000
0010
0000
0100
0000
0001
0000
,
1000
0000
0000
0100
0000
1000
0001
0000
1000
0000
0010
0000
0100
0000
0001
0000
,
1000
0000
0100
0000
1000
0000
0010
0100
0010
0000
1000
0000
0001
0000
0010
0000
,
0100
0000
0000
1000
0000
0010
0100
0000
0001
0000
1000
0000
0100
0000
0010
0000
,
0001
0000
0100
0000
0001
0000
1000
0100
1000
0000
0010
0000
0100
0000
0001
0000
,
0010
0100
0010
0000
0001
0000
0100
0000
0010
0000
0000
0000
1000
0000
0001
0000
,
2002
0000
0000
0000
,
0000
0000
0000
0000
,
3003
0000
0000
0000
,
0000
0000
0000
0000
;
#NOTES:
     dance-double:
     :
     Easy:
     6:
     :
00000000
00000000
00000000
00000000
,
00000000
00000000
00000000
00000000
,
00000000
00000000
00000000
00000000
,
00000000
00000000
00000000
00000000
,
00000000
00000000
00000000
00000000
,
00001000
00010000
00001000
00010000
,
00000100
00001000
00000010
00000000
,
00001000
00000001
00000100
00000001
,
00000010
00000100
00001000
00000000
,
00000010
00010000
00001000
00010000
,
00001000
00100000
00001000
00000000
,
00100000
01000000
10000000
00010000
,
01000000
00100000
10000000
00000000
,
10000000
01000000
10000000
01000000
,
00100000
00010000
01000000
00001000
,
00010000
00000010
00001000
00000100
,
00000010
00000001
00001000
00000000
,
00000001
00000100
00000001
00000100
,
00000010
00001000
00000100
00010000
,
00001000
00100000
00010000
01000000
,
00200000
00000000
00300000
00000000
,
10000000
01000000
10000000
01000000
,
00100000
00001000
00010000
00001000
,
01000000
00010000
00100000
00001000
,
00010000
00000100
00001000
00000010
,
00010000
00001000
00010000
00000100
,
00000010
00000001
00001000
00000100
,
00000010
00000001
00000001
00000100
,
00000010
00001000
00000001
00000000
,
00000100
00000010
00000100
00000001
,
00000010
00000100
00001000
00000010
,
00010000
00001000
00010000
00001000
,
01000000
00010000
00100000
01000000
,
10000000
00000000
00010000
01000000
,
00100000
00000000
10000000
01000000
,
00100000
00010000
00100000
00001000
,
00011000
01000000
00011000
00000100
,
00022000
00000000
00000000
00000000
,
00033000
00000000
00000000
00000000
,
00001000
00010000
00000100
00001000
,
00000010
00000100
00000001
00000100
,
00001000
00010000
00001000
00100000
,
00010000
01000000
00100000
10000000
,
01000000
00010000
00001000
00010000
,
00000010
00001000
00000100
00000010
,
00000001
00000000
00001000
00000000
,
00000002
00000203
00000320
00002030
,
00003001
00000010
00000100
00001000
,
00000010
00010000
00001000
00010000
,
00100000
10000000
01000000
00100000
,
00010000
00100000
00001000
00010000
,
00001000
00000010
00000001
00000001
,
00000100
00000010
00001000
00000100
,
00010000
00001000
00010000
00100000
,
10000000
10000000
01000000
00010000
,
00022000
00000000
00000000
00000000
,
00033000
00000000
00000000
00000000
,
00000000
00000000
00000000
00000000
;
#NOTES:
     dance-double:
     :
     Medium:
     9:
     :
00000000
00000000
00000000
00000000
,
00000000
00000000
00000000
00000000
,
00000000
00000000
00000000
00000000
,
00000000
00000000
00000000
00000000
,
00000000
00000000
00000000
00000000
,
00001000
00010000
00001000
00010000
,
00100000
01000000
00010000
10000000
,
01000000
00100000
00010000
01000000
,
00001000
00010000
00000100
00000010
,
00001000
00000010
00000001
00000100
,
00001000
00000100
00000010
00010000
,
00001000
01000000
00010000
00100000
,
01000000
10000000
00100000
00000000
,
10000000
00000000
00010000
00000000
10000000
01000000
00100000
00000000
,
00010000
00000000
01000000
00000000
00001000
00010000
00001000
00000000
,
00010000
00000000
00000100
00000000
00001000
00000001
00000100
00000000
,
00000010
00000000
00001000
00000000
00000001
00000010
00000100
00000000
,
00010000
00000000
00001000
00000000
01000000
00010000
00100000
00000000
,
01000000
00000000
10000000
00000000
00010000
01000000
00100000
00000000
,
10000000
00000000
01000000
00000000
00100000
00001000
00010000
00000000
,
00002000
00000000
00000000
00003000
,
00010000
00001000
00010000
00000000
00000010
00001000
00000010
00000000
,
00010000
00001000
00000010
00000001
,
00001000
00000100
00001000
00000000
00000001
00000100
00000001
00000000
,
00000010
00000100
00001000
00000010
,
00010000
00001000
00010000
00000000
00000100
00001000
00000100
00000000
,
00010000
00001000
01000000
00010000
,
00100000
00010000
00100000
00000000
01000000
10000000
01000000
00000000
,
10000000
00100000
01000000
00010000
,
10000000
01000000
10000000
00000000
00100000
01000000
00100000
00000000
,
10000000
01000000
10000000
00000000
01000000
00000000
00010000
00000000
,
00001000
00010000
00001000
00000000
00100000
00010000
00100000
00000000
,
00001000
00010000
00001000
00000000
00010000
00000000
00000010
00000000
,
00001000
00000000
00000001
00001000
,
00000001
00000000
00000100
00000000
00000001
00000010
00000100
00000000
,
00001100
00010000
00001100
00000001
,
00001100
00010000
00011000
00001000
,
00022000
00000000
00000000
00000000
,
00033000
00000000
00000000
00000000
,
00001000
00000000
01000000
00010000
00100000
00000000
00001000
00000000
,
01000000
00100000
10000000
00000000
00010000
00100000
00010000
00100000
,
01000000
00000000
10000000
00010000
01000000
00000000
00100000
00000000
,
10000000
01000000
00100000
00000000
00001000
00010000
00001000
00010000
,
00001000
00000000
00010000
00000100
00001000
00000000
00000010
00000000
,
00000100
00000001
00001000
00000000
00000001
00000010
00000001
00000010
,
00000100
00000000
00001000
00000000
00000010
00001000
00000100
00000000
,
00001000
00000010
00000100
00000001
00000100
00000010
00001000
00000000
,
00000001
00000000
00000001
00000010
00000100
00000000
00001000
00000000
,
00000010
00000100
00000001
00000000
00001000
00000100
00001000
00000100
,
00000010
00000000
00000001
00001000
00000010
00000000
00000100
00000000
,
00000001
00000010
00000100
00000000
00010000
00001000
00010000
00001000
,
00010000
00000000
00001000
00100000
00010000
00000000
01000000
00000000
,
00100000
10000000
00010000
00000000
10000000
01000000
10000000
01000000
,
00100000
00000000
00010000
00000000
01000000
00010000
00100000
00000000
,
00010000
01000000
00100000
10000000
00100000
01000000
00010000
00000000
,
20020000
00000000
00000000
00000000
,
00000000
00000000
00000000
00000000
,
30030000
00000000
00000000
00000000
,
00000000
00000000
00000000
00000000
;
#NOTES:
     dance-double:
     :
     Hard:
     12:
     :
00000000
00000000
00000000
00000000
,
00000000
00000000
00000000
00000000
,
00000000
00000000
00000000
00000000
,
00000000
00000000
00000000
00000000
,
00000000
00000000
00000000
00000000
,
00010000
00000000
00001000
00100000
00001000
00100000
00010000
00100000
,
00000000
01000000
10000000
00010000
01000000
00000000
00100000
00000000
,
10000000
00000000
01000000
00100000
00010000
00100000
00001000
00010000
,
00000000
00010000
00000100
00000010
00000001
00000000
00001000
00000000
,
00000001
00000000
00000100
00000010
00001000
00000000
00000001
00000000
,
00000100
00000000
00001000
00000000
00010000
00000000
00001000
00100000
,
01000000
00000000
10000000
00010000
01000000
00000000
00100000
00000000
,
10000000
00000000
00010000
00000000
01000000
01000000
00100000
00100000
,
10000000
00010000
01000000
00100000
10000000
00010000
10000000
01000000
,
00100000
00001000
00010000
00001000
00010000
00000010
00001000
00000001
,
00000100
00000010
00001000
00000001
00000010
00000100
00000010
00000001
,
00001000
00000001
00000100
00000010
00010000
00001000
00100000
01000000
,
10000000
00010000
01000000
00100000
10000000
00100000
01000000
00010000
,
00100000
00001000
00010000
00000100
00000010
00000001
00000100
00000010
,
00010000
00001000
01000000
00100000
01000000
00010000
00100000
00001000
,
00020000
00000000
00002000
00033000
,
00001000
00010000
00100000
01000000
00010000
10000000
01000000
10000000
,
00010000
01000000
00100000
00010000
00001000
00010000
00001000
00000010
,
00000001
00001000
00000010
00000100
00000010
00001000
00000001
00000010
,
00000100
00001000
00000001
00000100
00001000
00010000
00001000
00010000
,
01000000
10000000
00100000
01000000
00010000
00100000
00001000
00010000
,
00000100
00000010
00001000
00010000
00001000
00010000
00001000
00000100
,
00000001
00000010
00000100
00001000
00000100
00010000
00001000
00000010
,
00000001
00001000
00000001
00000100
00001000
00010000
00100000
00100000
,
01000000
00001000
00010000
01000000
00010000
00001000
01000000
00010000
,
00100000
00001000
00010000
00100000
01000000
00001000
00100000
00010000
,
01000000
00100000
00010000
00001000
00100000
01000000
00010000
00001000
,
00010000
00100000
01000000
00010000
00100000
00001000
00010000
00000100
,
00001100
00000000
00000011
00000000
00000010
00000100
00010000
00001000
,
00010000
00100000
01000000
00010000
10000000
01000000
00100000
00010000
,
10000000
00100000
00010000
00001000
00010000
00001000
00000010
00000001
,
00000100
00000010
00001000
00000100
00010000
00001000
00010000
00000000
,
00022000
00000000
00000000
00000000
,
00033000
00000000
00000000
00000000
,
00010000
00000000
00001000
00000000
00010000
00000000
00000100
00001000
00000100
00000000
00001000
00000000
00000100
00000000
00000010
00000000
,
00000001
00000000
00000000
00001000
00000000
00000010
00010000
00000000
00001000
00000000
00010000
00000000
00100000
00000000
01000000
00000000
,
00010000
00000000
10000000
00000000
01000000
00000000
10000000
01000000
10000000
00000000
00010000
00000000
01000000
00000000
00100000
00000000
,
01000000
00000000
00000000
00010000
00000000
00100000
00001000
00000000
00010000
00000000
00001000
00000000
00000010
00000000
00000100
00000000
,
00001000
00000000
00000001
00000000
00000100
00000000
00000001
00000100
00000001
00000000
00000010
00000000
00000100
00000000
00001000
00000000
,
00000100
00000000
00000000
00010000
00000000
00001000
00010000
00000000
00001000
00000000
00010000
00000000
01000000
00000000
00100000
00000000
,
00010000
00000000
00100000
00000000
01000000
00000000
10000000
01000000
10000000
00000000
00010000
00000000
01000000
00000000
00000000
00000000
,
00010000
00100000
00010000
00000000
00100000
00000000
01000000
00000000
10000000
00000000
00000000
00000000
00010000
00000000
01000000
00000000
,
00001000
00000000
00010000
00000000
00001000
00000000
00100000
00010000
00100000
00000000
00001000
00000000
00010000
00000000
00000100
00000000
,
00001000
00000000
00000000
00000100
00000000
00001000
00000010
00000000
00010000
00000000
00001000
00000000
00000100
00000000
00000001
00000000
,
00000010
00000000
00000100
00000000
00001000
00000000
00000100
00001000
00000100
00000000
00010000
00000000
00001000
00000000
00100000
00000000
,
00010000
00000000
00000000
01000000
00000000
00100000
01000000
00000000
00001000
00000000
00010000
00000000
00100000
00000000
10000000
00000000
,
01000000
00000000
00100000
00000000
00010000
00000000
00100000
00010000
00100000
00000000
00001000
00000000
00010000
00000000
00001000
00000000
,
00000100
00000000
00000000
00000010
00000000
00001000
00000010
00000000
00010000
00000000
00001000
00000000
00000010
00000000
00000001
00000000
,
00000100
00000000
00001000
00000000
00010000
00000000
00001000
00010000
00001000
00000000
00000000
00000000
00100000
00000000
00000000
00000000
,
00010000
00100000
00010000
00000000
00100000
00000000
01000000
00000000
10000000
00000000
00000000
00000000
01000000
00000000
00010000
00000000
,
00022000
00000000
00000000
00000000
,
00000000
00000000
00000000
00000000
,
00033000
00000000
00000000
00000000
,
00000000
00000000
00000000
00000000
;
