
//----- song ID: souv -----//
#TITLE:SOUVENIR;
#BANNER:SOUVENIR.png;
#BACKGROUND:SOUVENIR-bg.png;
#CDTITLE:./CDTitles/DANCERUSH STARDOM.png;
#MUSIC:SOUVENIR.ogg;
#SAMPLESTART:40.057;
#SAMPLELENGTH:15;
#BPMS:0=158;
#STAGE:16;
#NOTES:
     dance-single:
     :
     Beginner:
     2:
     :
0000
0000
0000
0000
,
0000
0000
0000
0000
,
0000
0000
0000
0000
,
0000
0000
0000
0000
,
0000
0000
0000
0000
,
0000
0000
0000
0000
,
0000
0000
0000
0000
,
0000
0000
0000
0000
,
0000
0000
0000
0000
,
0000
0000
0000
0000
,
1000
0000
0000
0000
,
0001
0000
0000
0000
,
1000
0000
0000
0000
,
0001
0000
0000
0000
,
1000
0000
0000
0000
,
0001
0000
0000
0000
,
1000
0000
0001
0000
,
1000
0000
0000
0000
,
0100
0000
0000
0000
,
0100
0000
0000
0000
,
0100
0000
0100
0000
,
0100
0000
0000
0000
,
0010
0000
0000
0000
,
0010
0000
0010
0000
,
0010
0000
0000
0000
,
0100
0000
0000
0000
,
0000
0000
0000
0000
,
1000
0000
1000
0000
,
0001
0000
0000
0000
,
0001
0000
0001
0000
,
1000
0000
0000
0000
,
1000
0000
0001
0000
,
1000
0000
0001
0000
,
1000
0000
0001
0000
,
0010
0000
0000
0000
,
0001
0000
0001
0000
,
0100
0000
0000
0000
,
1000
0000
1000
0000
,
0100
0000
0000
0000
,
0001
0000
1000
0000
,
0001
0000
1000
0000
,
1000
0000
0001
0000
,
0100
0000
0000
0000
,
1000
0000
1000
0000
,
1000
0000
0000
0000
,
0001
0000
0001
0000
,
0001
0000
0000
0000
,
1000
0000
1000
0000
,
0002
0000
0003
0000
,
2000
0000
3000
0000
,
0100
0000
0000
0000
,
0001
0000
0001
0000
,
1000
0000
1000
0000
,
0001
0000
0000
0000
,
0100
0000
0100
0000
,
0100
0000
0000
0000
,
0002
0000
0000
0003
0000
0000
0000
0000
,
2000
0000
0000
0000
0000
0000
0000
3000
0000
0000
0000
0000
0000
0000
0000
0000
,
1000
0000
0001
0000
,
0000
0000
0000
0000
;
#NOTES:
     dance-single:
     :
     Easy:
     4:
     :
0000
0000
0000
0000
,
0000
0000
0000
0000
,
0000
0000
0000
0000
,
0000
0000
0000
0000
,
0000
0000
0000
0000
,
0000
0000
0000
0000
,
1000
0000
0100
0000
,
1000
0000
0000
0000
,
0001
0000
0100
0000
,
0001
0000
0000
0000
,
0100
0000
0100
0000
,
0010
0000
0000
0000
,
1000
0000
1000
0000
,
0001
0000
0000
0000
,
0010
0000
0001
0000
,
1000
0000
0000
0000
,
0100
0000
0010
0000
,
0001
0000
1001
0000
,
2000
0000
3000
0000
,
0002
0000
0003
0000
,
0100
0000
0010
0000
,
0100
0000
0000
0000
,
0001
0000
0001
0000
,
0200
0000
0300
0000
,
0010
0000
0010
0000
,
2000
0000
3000
0000
,
1001
0000
0000
0000
,
1000
0100
1000
0000
,
0010
0000
0100
0000
,
0001
0010
0001
0000
,
0100
0000
0010
0000
,
1000
0010
0100
0000
,
0001
0000
0010
0000
,
0001
0000
1000
0000
,
1001
0000
0000
0000
,
0001
0010
0001
0000
,
0100
0000
0010
0000
,
1000
0100
1000
0000
,
0010
0000
0100
0000
,
0001
0100
0010
0000
,
1000
0000
0100
0000
,
1000
0000
0001
0000
,
1001
0000
1000
1000
,
0010
0100
0000
0000
,
0001
0000
0100
0000
,
0001
1000
0000
0000
,
0001
0000
0010
0000
,
0100
0000
1000
0000
,
0020
0000
0130
0000
,
0002
0000
1003
0000
,
1001
0000
0001
0001
,
0010
0100
0000
0000
,
1000
0000
0100
0000
,
1000
0001
0000
0000
,
1000
0000
0010
0000
,
0100
0000
0001
0000
,
0020
0000
0130
0000
,
2000
0000
3001
0000
,
1001
0000
0110
0000
,
0000
0000
0000
0000
;
#NOTES:
     dance-single:
     :
     Medium:
     7:
     :
0000
0000
0000
0000
,
0000
0000
0000
0000
,
0000
0000
0000
0000
,
0000
0000
0000
0000
,
0000
0000
0000
0000
,
0000
0000
0000
0000
,
1000
1000
0100
1000
,
0010
0100
0110
0000
,
0001
0001
0010
0001
,
0100
0010
0110
0000
,
1000
0001
0100
0010
,
0100
0010
0100
0000
0010
0000
0000
0000
,
0100
0001
1000
0100
,
1000
0001
1000
0000
0001
0000
0000
0000
,
1000
0100
0001
0100
,
1000
0001
1000
0000
0010
0000
0000
0000
,
0100
0100
0001
1001
,
1000
0100
0001
0100
,
2000
0000
3100
0000
,
0020
0000
0031
0000
,
1000
1100
0001
0101
,
0220
0330
0001
1000
,
0100
1000
0100
0000
0010
0001
0010
0000
,
1001
0000
0001
0001
,
1000
0100
0010
0100
,
2002
0000
3003
0000
,
0010
1001
1000
0001
,
1000
0000
0010
0000
1000
0010
0100
0000
,
0020
0000
0130
0001
,
1000
0000
0100
0000
1000
0001
0100
0000
,
0020
0000
0130
0010
,
1000
1010
1000
1100
,
0020
0031
2000
3010
,
0100
0000
1001
0000
0001
0000
1000
0001
,
0010
0000
0001
1000
,
0001
0000
0100
0000
0010
1000
0001
0000
,
1001
0000
1000
0100
,
1000
0000
0010
0000
0100
0001
1000
0000
,
1001
0000
1000
0001
,
1000
0100
0010
0001
,
1000
0001
0100
0010
,
0100
0110
0001
1000
,
1001
0000
0000
1000
0010
0000
0100
0010
,
0100
0020
0000
0030
,
1000
0001
0010
0100
,
1000
0001
0000
0000
,
1000
0100
0001
0100
,
0010
0000
0100
0000
0110
0000
1000
0001
,
0000
0000
1000
0001
0000
0000
0100
0010
,
0000
0000
0100
0010
0000
0100
0001
0100
,
0000
0000
0000
0010
0100
0000
0010
1000
,
0001
1001
0000
0000
,
0001
0000
0100
0000
1000
0000
0100
0010
,
0100
0110
0000
0000
,
1000
0001
1000
0010
,
0100
0000
0001
0000
0101
0000
0001
0010
,
0000
0000
0100
1000
0000
0000
0001
0100
,
0000
0000
0010
1000
0000
0001
1000
0000
,
0100
0000
0010
0000
0001
0000
1000
0001
,
0000
0000
0000
0000
;
#NOTES:
     dance-single:
     :
     Hard:
     12:
     :
0000
0000
0000
0000
,
0000
0000
0000
0000
,
0000
0000
0000
0000
,
0000
0000
0000
0000
,
0000
0000
0000
0000
,
0000
0000
0000
0000
,
1000
1000
0100
0100
1000
0001
1000
0001
,
0000
0001
0010
0100
0000
0100
0010
0100
,
1000
0001
1000
0002
0000
0013
0100
0020
,
0000
0031
1000
0100
0010
0000
1001
0000
,
0001
0001
0100
0100
0001
1000
0001
1000
,
0100
1000
0010
0100
0000
0100
0010
0100
,
0001
1000
0001
0100
0010
0010
0100
0010
,
0100
0001
1000
0100
0000
0100
0010
0001
,
1000
0100
1000
0100
0010
0001
0010
0002
,
0000
1003
0100
0001
0000
0001
0100
1000
,
0100
0001
0100
1000
0010
0100
0110
0000
,
1100
0110
0011
1100
,
2001
0000
3100
0000
0010
0100
0010
0001
,
1002
0000
0023
0000
0130
1000
0001
1000
,
0100
0100
2000
0000
3100
0100
0002
0000
,
1003
1000
0020
0000
0130
0100
1001
0000
,
0010
0010
0110
0110
,
0001
1000
0010
0100
1000
0100
0001
0010
,
0100
0100
0110
0110
,
1000
0001
0100
0010
0001
0010
0100
0020
,
0000
0130
0101
0000
0001
0001
1000
0100
,
1100
1000
0001
0010
0001
1000
0010
0100
,
0020
0000
1000
0000
0130
0100
0100
0010
,
1010
1000
0100
1000
0001
0010
1000
0010
,
0200
0000
0001
0000
0310
0010
0001
0100
,
0001
0010
0001
0100
0010
1000
0100
0020
,
0000
0130
0010
0100
0010
0001
1000
0100
,
2000
0000
3100
0010
0002
0000
0103
0110
,
0000
0001
1000
0100
0010
0100
0010
1000
,
1001
0000
0001
0100
0001
0000
1000
0010
1000
0000
0010
0000
0100
0000
0010
0000
,
0200
0000
0301
0000
1000
0010
0100
0001
,
1001
0000
1000
0100
1000
0000
0001
0010
0001
0000
0010
0000
0100
0000
1000
0000
,
0002
0000
1000
0000
0013
0100
1000
0010
,
0100
0000
0001
0000
1000
0000
0001
0100
0010
0000
0100
0000
0001
0000
0010
0000
,
0000
0000
0100
1000
0100
0000
0010
0000
0001
0000
0001
0000
0100
0000
0010
0000
,
0110
0001
1000
0000
1010
0010
1000
0001
,
0101
0000
1000
0100
0100
0100
1000
0100
,
0010
0001
0022
0033
1000
0010
2020
3030
,
1001
0001
1000
0100
1000
0010
1000
0100
,
1000
0001
0022
0033
0001
1000
2020
3030
,
0001
0100
0010
1000
0001
0010
0100
1000
,
1001
0001
0010
1000
0010
0000
0110
0010
,
0001
0000
1001
0001
0100
0000
1001
1000
,
0100
0000
0010
0001
0100
0010
1000
0001
,
0101
0000
1001
0001
0100
0010
1000
0001
,
0010
0000
1000
0000
0010
0000
0001
0000
0010
0000
1000
0000
0010
0000
0001
0010
,
0100
0000
0010
0000
0100
0000
0010
0000
0100
0000
0010
0000
0001
0000
1000
0001
,
0200
0302
0023
2030
,
3001
0001
0100
1000
0100
0010
0001
0100
,
0010
0010
0100
1001
0000
0000
0101
1000
,
0010
0000
1100
0010
0001
0000
0101
1000
,
0020
0000
1030
0100
0010
0100
1000
0001
,
0100
0000
0001
0010
0001
0000
1000
0100
1000
0000
0000
0000
1001
0000
1010
0000
,
0000
0000
0000
0000
;
#NOTES:
     dance-double:
     :
     Easy:
     3:
     :
00000000
00000000
00000000
00000000
,
00000000
00000000
00000000
00000000
,
00000000
00000000
00000000
00000000
,
00000000
00000000
00000000
00000000
,
00000000
00000000
00000000
00000000
,
00000000
00000000
00000000
00000000
,
00010000
00000000
00001000
00000000
,
00010000
00000000
00000000
00000000
,
00000100
00000000
00001000
00000000
,
00000100
00000000
00000000
00000000
,
00001000
00000000
00000001
00000000
,
00000100
00000000
00000000
00000000
,
00000001
00000000
00001000
00000000
,
00000100
00000000
00000000
00000000
,
00010000
00000000
00001000
00000000
,
00010000
00000000
00000000
00000000
,
00001000
00000000
00100000
00000000
,
00010000
00000000
10000000
00000000
,
00200000
00000000
00300000
00000000
,
02000000
00000000
03000000
00000000
,
00010000
00000000
00100000
00000000
,
00001000
00000000
00000000
00000000
,
00010000
00000000
00010000
00000000
,
00000020
00000000
00000030
00000000
,
00001000
00000000
00001000
00000000
,
00000002
00000000
00000003
00000000
,
00001001
00000000
00000000
00000000
,
00001000
00000000
00000100
00000000
,
00010000
00000000
00000000
00000000
,
00001000
00000000
01000000
00000000
,
00010000
00000000
00000000
00000000
,
10000000
00000000
01000000
00000000
,
00010000
00000000
00001000
00000000
,
00000100
00000000
00000001
00000000
,
00001000
00000000
00000000
00000000
,
00000010
00000000
00001000
00000000
,
00000010
00000000
00000000
00000000
,
00010000
00000000
00001000
00000000
,
00010000
00000000
00000000
00000000
,
00001000
00000000
00010000
00000000
,
00100000
00000000
10000000
00000000
,
00010000
00000000
01000000
00000000
,
00100000
00000000
01100000
00000000
,
01000000
00010000
00000000
00000000
,
00100000
00000000
00001000
00000000
,
00010000
00001000
00000000
00000000
,
00010000
00000000
00001000
00000000
,
00000010
00000000
00000001
00000000
,
00002000
00000000
00003100
00000000
,
00020000
00000000
00031000
00000000
,
00010000
00000000
00011000
00000000
,
00001000
00100000
00000000
00000000
,
00010000
00000000
10000000
00000000
,
01000000
10000000
00000000
00000000
,
00010000
00000000
00100000
00000000
,
00001000
00000000
00010000
00000000
,
00000200
00000000
00001300
00000000
,
00000002
00000000
00000013
00000000
,
00000100
00000000
00000110
00000000
,
00000000
00000000
00000000
00000000
;
#NOTES:
     dance-double:
     :
     Medium:
     7:
     :
00000000
00000000
00000000
00000000
,
00000000
00000000
00000000
00000000
,
00000000
00000000
00000000
00000000
,
00000000
00000000
00000000
00000000
,
00000000
00000000
00000000
00000000
,
00000000
00000000
00000000
00000000
,
00000001
00000001
00001000
00000100
,
00010000
00001000
00010000
00000000
,
00001000
00001000
00100000
00010000
,
10000000
00100000
01000000
00000000
,
00010000
00010000
01000000
01000000
,
00001000
00010000
00011000
00000000
,
00010000
00010000
00001000
00001000
,
00000100
00000010
00000110
00000000
,
00000100
00000100
00000001
00001000
,
00000100
00001000
00001100
00000000
,
00000100
00010000
00001000
00011000
,
00010000
01000000
00010000
00010000
,
00002000
00000000
01003000
00000000
,
02000000
00000000
03010000
00000000
,
01001000
00000000
00101000
00000000
,
00020200
00030300
00000100
00001000
,
00000001
00000010
00000100
00000100
,
00000110
00000000
00000010
00001000
,
00010000
00001000
00100000
00100000
,
00020000
00000000
00030000
00000000
,
01000000
00001000
00010000
00001000
,
00100000
00010000
00100000
00010000
,
20000000
00000000
30100000
10000000
,
01000000
01000000
00010000
00001000
,
00020000
00000000
00030100
00000100
,
00000010
00000110
00000001
00001001
,
00001000
00000010
00001000
00000100
,
00010000
00000000
00001000
00001000
,
00000100
00000000
00000001
00000100
,
00001000
00010000
00001000
00001000
,
00010000
00000000
00010000
01000000
,
10000000
01000000
00010000
00001000
,
01000000
00000000
00010000
01000000
,
00010000
00100000
00001000
00100000
,
00010000
00010000
00100000
00001000
,
00010000
00010100
00000100
00001100
,
00010100
00000000
00000000
00010000
00001000
00000000
00000100
00000000
,
00000001
00000002
00000000
00000003
,
00001000
00001000
00000100
00010000
,
00000100
00001000
00000000
00000000
,
00000100
00010000
00001000
01000000
,
00010000
00000000
10000000
00000000
00000000
00000000
00100000
01000000
,
00000000
00000000
00010000
01000000
00000000
00000000
00001000
00010000
,
00000000
00000000
00000100
00010000
00000000
00001000
00010000
00001000
,
00000000
00000000
00000000
00100000
00010000
00000000
10000000
00000000
,
01000000
00010000
00000000
00000000
,
00001000
00100000
00001000
00010000
,
00000010
00001000
00000000
00000000
,
00000001
00000100
00001000
00010000
,
00100000
00000000
10000000
00000000
00010000
00000000
01000000
00010000
,
00000000
00000000
01000000
00001000
00000000
00000000
00010000
00010000
,
00000000
00000000
00000010
00000010
00000000
00001000
00000001
00000000
,
00000010
00000000
00001000
00000000
00010000
00000000
00001000
01000000
,
00000000
00000000
00000000
00000000
;
#NOTES:
     dance-double:
     :
     Hard:
     12:
     :
00000000
00000000
00000000
00000000
,
00000000
00000000
00000000
00000000
,
00000000
00000000
00000000
00000000
,
00000000
00000000
00000000
00000000
,
00000000
00000000
00000000
00000000
,
00000000
00000000
00000000
00000000
,
00000001
00000001
00000100
00000100
00000010
00001000
00000010
00001000
,
00000000
00000100
00010000
00001000
00000000
01000000
00010000
01000000
,
00010000
10000000
01000000
00200000
00000000
01300000
10000000
02000000
,
00000000
13000000
00100000
01000000
00100000
00000000
01010000
00000000
,
10000000
10000000
00100000
00100000
01000000
00010000
01000000
00010000
,
00100000
00010000
00100000
00001000
00000000
00001000
00010000
00001000
,
00010000
00000100
00001000
00000100
00010000
00010000
00000100
00001000
,
00000010
00001000
00000001
00000100
00000000
00000100
00000001
00000010
,
00001000
00000010
00001000
00000010
00000001
00000100
00000010
00002000
,
00000000
00003100
00010000
00001000
00000000
00001000
00010000
01000000
,
01000000
10000000
01000000
00100000
00010000
01000000
00010000
00000000
,
01010000
00011000
00001100
00000011
,
00000002
00000000
00000103
00000000
00000001
00000100
00001000
00010000
,
02000000
00000000
03020000
00000000
00031000
00100000
00001000
00010000
,
00001000
00001000
00000200
00000000
00001300
00001000
00020000
00000000
,
00031000
00001000
02000000
00000000
03010000
00010000
10000000
00000000
,
01000000
01000000
11000000
11000000
,
10000000
01000000
00100000
00010000
00100000
00001000
00010000
00001000
,
01000000
01000000
01100000
01100000
,
00010000
01000000
00001000
00010000
00000100
00010000
00001000
00000200
,
00000000
00000310
00000110
00000000
00001000
00001000
00000010
00000010
,
00000100
00000001
00000010
00000100
00001000
00000100
00000100
00010000
,
00002000
00000000
00010000
00000000
00003100
00000100
00001000
00010000
,
00100000
10000000
01000000
00100000
01000000
10000000
00010000
01000000
,
00020000
00000000
00100000
00000000
01030000
01000000
00100000
10000000
,
01000000
10000000
01000000
10000000
00100000
01000000
00100000
20000000
,
00000000
31000000
00010000
00001000
00010000
00000100
00001000
00000100
,
00000020
00000000
00000031
00000100
00000002
00000000
00000103
00001000
,
00000000
00001000
00010000
00001000
00100000
00001000
00010000
01000000
,
10000000
00000000
01000000
10000000
01000000
00000000
10000000
00100000
10000000
00000000
01000000
00000000
00010000
00000000
01000000
00000000
,
00020000
00000000
00031000
00000000
00010000
00000100
00010000
00010000
,
00000100
00000000
00010000
00001000
00010000
00000000
00001000
00100000
00001000
00000000
00010000
00000000
00001000
00000000
00010000
00000000
,
00002000
00000000
00100000
00000000
00013000
00010000
00001000
00000100
,
00000010
00000100
00002000
00000000
00013000
00000100
00010000
00001000
,
00000000
00001000
00001000
00010000
00000100
00000100
00000010
00000010
,
00001000
00010000
01000000
00000000
01000000
00010000
00001000
00010000
,
00001000
00000000
00010000
00000100
00001000
00000100
00000010
00000001
,
00001000
00000100
00002000
00000000
00003100
00010000
00002000
00000000
,
00013000
00001000
00010000
00001000
00100000
00010000
10000000
01000000
,
00100000
00010000
00200000
00000000
00310000
01000000
00002000
00000000
,
00013000
00000100
00000010
00000001
00000100
00001000
00010000
00100000
,
10000000
00010000
01000000
00001000
00010000
00000000
00011000
00001000
,
00100000
00000000
00001000
01000000
00010000
00000000
10010000
10000000
,
01000000
00000000
00100000
00010000
01000000
00001000
00010000
00001000
,
00101000
00000000
00100000
00010000
10000000
01000000
10000000
00000000
,
01000000
00010000
00001000
00010000
01000000
00010000
00001000
00000000
,
00010000
00001000
00000100
00001000
00010000
00001000
00000100
00001000
,
00002000
00023000
00030200
00020300
,
00031000
00001000
00010000
00001000
00010000
01000000
10000000
01000000
,
00010000
00001000
00000100
00000001
00000000
00000000
00001010
00000010
,
00010000
00000000
00011000
00010000
00001000
00000000
00101000
00001000
,
00200000
00000000
00301000
00010000
01000000
10000000
00100000
10000000
,
01000000
00010000
00001000
00000010
00000001
00000000
00001000
00001001
,
00000000
00000000
00000000
00000000
;
