
//----- song ID: smas -----//
#TITLE:SMASH;
#ARTIST:Whac-A-Me;
#BANNER:SMASH.png;
#BACKGROUND:SMASH-bg.png;
#CDTITLE:./CDTitles/DDR A3.png;
#MUSIC:SMASH.ogg;
#SAMPLESTART:3;
#SAMPLELENGTH:15;
#DISPLAYBPM:80:160;
#BPMS:0=80,4=80,12=160,24=80,26=160,90=80,97=320,98=160,98.5=80,99=160,111=80,129=160,144=132.148,144.104=163.043,144.166=239.362,144.354=156.25,144.416=120.968,144.604=156.25,144.666=240,144.854=163.043,144.916=107.214,145=160,152=319.149,152.5=160,152.75=80,153=160,157=80,159=160,251=80;
#STAGE:15;
#NOTES:
     dance-single:
     :
     Beginner:
     2:
     :
0000
0000
0000
0000
,
0000
0000
0000
0000
,
0000
0000
0000
0000
,
0010
0000
0000
0000
,
0010
0000
0000
0000
,
0010
0000
0000
0000
,
0020
0000
0030
0000
,
0000
0000
1000
0000
,
0000
0000
0001
0000
,
0000
0000
0100
0000
,
0000
0000
0001
0000
,
0000
0000
1000
0000
,
0000
0000
0010
0000
,
0000
0000
0100
0000
,
0000
0000
0001
0000
,
0001
0000
0001
0000
,
0000
0000
1000
0000
,
0000
0000
1000
0000
,
0000
0000
0010
0000
,
0010
0000
0010
0000
,
0000
0000
0100
0000
,
0000
0000
0100
0000
,
0000
0000
0010
0000
,
0010
0000
0010
0000
,
0020
0000
0000
0030
,
0000
0000
0000
1000
,
0000
0000
0000
0001
,
0000
0001
0000
0002
,
0000
0003
0000
0000
0000
0000
0000
0000
,
0000
0000
0000
0000
,
0000
0001
0000
0001
,
0000
1000
0000
1000
,
0000
0010
0000
0000
,
0000
0010
0000
0000
,
0000
0100
0000
0000
,
0000
0100
0000
0000
,
0000
0001
0000
0000
,
0000
0001
0000
0000
,
0000
1000
0000
1000
,
0000
0020
0000
0030
,
0000
0000
0000
1000
,
0000
0000
0000
0001
,
0000
0000
0000
0100
,
0000
0000
0000
0010
,
0000
0000
0000
1000
,
0000
0000
0000
0100
,
0000
0000
0000
0010
,
0000
0000
0000
0001
,
0000
0001
0000
0001
,
0000
0000
0000
1001
,
0000
0000
0000
0110
,
0000
0000
0000
1000
,
0000
1000
0000
1000
,
0000
0000
0000
0001
,
0000
0001
0000
0001
,
0000
0000
0000
0100
,
0000
0000
0000
0100
,
0000
0000
0000
0010
,
0000
0000
0000
0010
,
0000
0000
0000
1000
,
0000
1000
0000
0001
,
0000
0001
0000
1000
,
0000
1000
0000
0020
,
0000
0030
0000
0000
,
0000
0000
0000
0000
;
#NOTES:
     dance-single:
     :
     Easy:
     7:
     :
0000
0000
0000
0000
,
0000
0000
0000
0000
,
0000
0000
0000
0000
,
0001
0001
1000
1000
,
0010
0010
0100
0100
,
0001
0010
0100
1000
,
2002
0003
3000
0000
0001
0000
0100
0000
,
0001
0010
0100
1000
,
0001
0100
0020
0100
,
1000
0130
1000
0001
,
0010
0100
1100
0001
,
0001
0001
0100
0010
,
1000
0100
0011
0100
,
1000
0010
0200
0000
,
0000
0300
0001
0011
,
1000
1100
0001
0100
,
0010
1000
0001
0100
,
0001
0001
0001
0000
1000
0000
0010
0000
,
1010
1001
0001
0011
,
1000
1100
0010
0100
,
0001
1000
0010
0010
,
0100
0001
1000
0000
0020
0000
0000
0000
,
0230
0000
0001
1000
,
0001
1000
0001
1000
,
0001
0320
0000
1030
,
1000
0001
0001
0010
,
0010
0000
0100
0000
0100
0000
1000
1000
,
1000
0000
0001
0001
0001
0000
0200
0000
,
0000
0300
0010
0000
0000
0000
0010
0000
,
0000
0010
0000
0000
,
0000
0000
1000
0100
1000
0000
0001
0010
,
0001
0000
1000
0100
1000
0000
0001
0100
,
0010
0100
0001
0000
0000
0000
1000
0000
,
1000
0010
0010
0100
,
0001
1000
0100
0010
,
0001
1000
0010
0100
,
0001
0001
0001
0000
0010
0000
0100
0000
,
1100
1000
0101
0001
,
2002
3003
0010
1001
,
0110
0000
2002
3000
0003
0000
1000
0000
,
0001
0100
0010
1000
,
0100
0000
0010
0000
0001
1000
0001
0000
,
0100
0010
1000
0001
,
0010
0000
0001
0000
0100
0010
0100
0000
,
0001
1000
0100
0010
,
0001
0000
1000
0000
0010
0100
0001
0000
,
1000
0100
0010
0002
,
0100
0100
0103
1100
,
1001
0001
0100
1010
,
1001
0001
0010
1100
,
0000
1100
0000
0000
1001
0000
0011
0000
,
0000
1001
0000
0000
0000
0000
2100
0000
,
3001
1000
0010
0102
,
1003
0001
0010
2100
,
3001
0102
1003
0020
,
0000
0000
0030
1001
,
1000
1100
0100
0110
,
0010
0011
0001
0101
,
0100
0110
0010
1010
,
1000
2002
3003
0001
,
0011
1000
1100
0001
,
0101
1000
0110
0001
,
0110
1001
0110
1001
,
0000
0010
0000
0000
,
0000
0000
0000
0000
;
#NOTES:
     dance-single:
     :
     Medium:
     12:
     :
0000
0000
0000
0000
,
0000
0000
0000
0000
,
0000
0000
0000
0000
,
0001
0010
0100
1000
0100
0010
0001
0000
,
1000
0010
0100
0001
0100
0010
1000
0000
,
0001
0010
0100
1000
0010
0100
0001
1000
,
2002
3000
0003
0110
0001
1000
0010
0100
,
0001
0000
1000
0100
0000
1000
0000
0000
0001
0000
0100
0000
0010
0000
1000
0000
,
0001
0000
0010
0001
0000
0010
0000
0000
0100
0000
0000
0000
1000
0000
1000
0000
,
0010
0010
0100
0100
0001
0010
0100
1000
,
0001
0100
0000
0001
0100
0000
0010
0000
1000
0000
0001
0000
0010
0000
0010
0000
,
0001
0001
1000
1000
0010
0200
0001
0001
,
0001
0001
0001
0301
1000
0000
0020
1000
,
1000
1000
1000
1000
0030
0000
0000
0000
,
0000
0000
0000
0000
0000
0000
0000
0000
1000
0000
0001
0000
0000
0010
0000
0000
,
0100
0000
0000
1000
0000
0000
0010
0000
0100
0000
0001
0000
0000
0010
0000
0000
,
0001
0000
0000
1000
0000
0000
0000
0000
0001
0000
0100
0000
0100
0000
0010
0000
,
0010
0000
1000
0001
0000
0100
0000
0000
0001
0000
0010
0000
0100
0000
1000
0000
,
0010
1000
0000
0010
1000
0000
0001
0000
0010
0000
0100
0000
0000
1000
0000
0000
,
0010
0000
0000
0100
0000
0000
0010
0000
1000
0000
0001
0000
0000
0010
0000
0000
,
0100
0000
0000
1000
0000
0000
0000
0000
0001
0000
0200
0000
0010
0000
0010
0000
,
0010
0010
0310
1000
0002
0000
0003
0000
,
2000
3000
1010
0101
,
0011
0101
1100
1010
,
0001
0000
1000
0000
0020
0000
0000
0000
0000
0000
0000
0000
0130
0000
0000
0001
,
0000
0000
0010
0000
0100
0000
0000
1000
0000
0000
0010
0100
0010
0000
0000
1000
,
0000
0000
0100
0000
0010
0000
0000
0001
1000
0000
0010
0000
0100
0000
0001
0000
,
0010
0100
1000
0001
0100
0010
0200
0000
,
0000
0000
0000
0000
0300
0000
0000
0000
0001
0000
0000
0001
0000
0000
0001
0000
0000
0001
0000
0000
0001
0000
0000
0000
1000
0000
0000
1000
0000
0000
1000
0000
,
0000
1000
0000
0000
1000
0000
0000
0000
0010
0000
0000
0010
0000
0000
0010
0000
0000
0010
0000
0000
0010
0000
0000
0010
0000
0000
0010
0000
0000
0010
0000
0000
,
0010
0000
0000
0000
0100
0001
1000
0000
0100
0010
0001
0000
1000
0010
0100
0000
,
0001
1000
0100
0000
1000
0010
0100
0000
0010
1000
0001
0000
1000
0100
0010
0001
,
1000
0001
0010
0100
1000
0000
0001
0000
1000
0000
0001
0000
0100
0000
0010
0000
,
0100
0000
0001
0010
0100
0000
1000
0001
,
0100
0000
0001
0010
0100
0010
0001
1000
,
0010
0000
0100
0001
1000
0000
0100
0010
,
0001
0001
0001
0010
0100
1000
0001
0100
,
0010
1000
0001
0010
0100
1000
0001
0100
,
0020
0000
1030
1000
0100
0100
0010
0010
,
0001
0001
2002
0003
3000
0110
0001
1000
,
0001
0010
0000
0001
0010
0000
0100
1000
0000
0100
1000
0000
0001
0000
0100
0000
,
0001
0010
0000
0001
0010
0000
0100
0000
1000
0000
0010
0000
0100
0000
0001
0000
,
1000
0100
0000
1000
0100
0000
0010
0001
0000
0010
0001
0000
1000
0010
0000
1000
,
0010
0000
1000
0001
0000
0000
0000
0000
0100
0000
0010
0000
1000
0000
0001
0000
,
0100
0001
0000
0100
0001
0000
1000
0100
0000
1000
0100
0000
0010
0000
0001
0000
,
0100
0010
0000
0100
0010
0000
1000
0000
0001
0000
0010
0000
0100
0000
1000
0000
,
0010
1000
0000
0010
1000
0000
0001
0100
0000
0001
0100
0000
0001
0000
0010
0000
,
0100
1000
0001
0000
0100
0000
0010
1000
,
0100
1000
0010
1000
0100
1000
0010
0100
,
0001
0000
0010
0000
0001
0000
0100
0000
0010
0000
0100
0000
0001
0000
0000
1010
,
0000
0000
0110
0000
0000
0101
0000
0000
0100
0000
0100
0010
0100
0000
0000
0001
,
0000
0000
1000
0000
0100
0010
0000
0001
0000
0000
0000
0000
1000
0000
0001
0000
,
0100
0001
0010
0001
0100
0001
0010
0100
,
1000
0010
0100
0010
1000
0001
0010
0100
,
1000
0010
0001
0010
1000
0100
0020
0000
,
0000
0000
0000
0000
0000
0000
0030
0000
0000
0011
0000
1000
,
0100
0000
1000
0001
0000
1000
0010
0000
1000
0001
0000
0001
,
0100
0000
0001
1000
0000
0001
0010
0000
0001
1000
0000
1000
,
0100
0000
1000
0010
0000
1000
0100
0000
1000
0001
0000
0001
,
0100
0000
0001
0010
0000
0001
2000
0000
0000
3010
0000
1000
,
0100
1000
0100
1000
0000
0010
0000
0100
0000
0001
0000
0010
,
0001
0010
0100
1000
0000
0001
0000
0100
0000
0001
0010
0100
,
1000
0010
0100
0001
0000
1000
0000
0100
0000
0020
0000
0000
,
0000
0130
0000
0000
,
0000
0000
0000
0000
;
#NOTES:
     dance-single:
     :
     Hard:
     17:
     :
0000
0000
0000
0000
,
0000
0000
0000
0000
,
0000
0000
0000
0000
,
1001
0001
0010
0100
1000
0010
0100
0001
,
1001
1000
0100
0010
0001
1000
0010
0100
,
0010
1000
0001
1000
0100
0010
0001
1000
0010
0100
0001
1000
0100
0010
0001
0100
,
0010
0000
1010
0000
0101
1000
0001
0000
0010
0000
0001
0000
0001
0000
0001
0000
,
1000
0000
0001
0100
0010
2000
0001
0000
3100
0000
1000
0000
1000
0000
1000
0000
,
0010
0000
0100
0001
1000
0002
0010
0000
1003
0000
0000
0000
0001
1000
0100
1000
,
0001
0100
0001
1000
0100
0020
0001
0000
0130
0000
0010
0000
0010
0000
0010
0000
,
0100
1000
0000
0001
0100
0000
0010
0000
1001
0000
0000
0000
0110
0000
0001
0000
,
1001
0000
1000
0000
0110
0000
0001
0000
2000
3000
0002
0003
1000
0001
0010
0100
,
1000
0001
0100
0001
0010
0100
1000
0000
1001
0000
0000
0000
0001
1000
0010
0100
,
0001
1000
0100
1000
0010
0100
0001
1000
0200
0000
0000
0000
0000
0000
0000
0000
,
0000
0000
0000
0000
0300
0000
0000
0000
0010
0000
0001
0000
1000
0010
0000
1000
,
0100
0000
0010
0001
0000
0100
0001
0000
0010
0000
0100
0000
1000
0010
0000
0100
,
0001
0000
1000
0001
0020
0000
0000
0000
0130
0000
1000
0000
1000
0000
1000
0000
,
0001
0000
1000
0010
0100
0002
1000
0000
0013
0000
0001
0000
0001
0000
0001
0000
,
0100
0010
0000
0100
0010
0000
1000
0000
0100
0000
1000
0000
0001
0100
0000
0001
,
0010
0000
0100
1000
0000
0010
1000
0000
0100
0000
0010
0000
0001
0100
0000
0010
,
1000
0000
0001
1000
0200
0000
0000
0000
0310
0000
0001
0000
1000
0001
0100
0001
,
1000
0100
1000
0001
0100
0010
1000
0001
0020
0000
0000
0230
0000
0000
2300
0000
,
0002
0000
0000
0000
0000
0000
0000
0000
0000
0000
0000
0000
0000
0000
0000
0000
0000
0000
0000
0000
0000
0000
0000
0000
3003
0000
0000
0000
0000
0000
0000
0000
0000
0000
0000
0000
0000
0000
0000
0000
0000
0000
0000
0000
0000
0000
0000
0000
1001
0000
0000
0000
0000
0000
0000
0000
0000
0000
0000
0000
0000
0000
0000
0000
0000
0000
0000
0000
0000
0000
0000
0000
0000
0000
0000
0000
0000
0000
0000
0000
0000
0000
0000
0000
0000
0000
0000
0000
0000
0000
0000
0000
0000
0000
0000
0000
1000
0000
0000
0000
0000
0000
0000
0000
0000
0000
0000
0000
0000
0000
0000
0000
0000
0000
0100
0000
0000
0000
0000
0000
0000
0000
0000
0100
0000
0000
0000
0000
0000
0000
0000
0000
0000
0000
0000
0000
0000
0000
1000
0000
0000
0000
0000
0000
0010
0000
0000
0000
0000
0000
0000
0000
0000
0000
0000
0000
0000
0000
0000
0000
0000
0000
0100
0000
0000
0000
0000
0000
0000
0000
0000
0100
0000
0000
0000
0000
0000
0000
0000
0000
0000
0000
0000
0000
0001
0000
0000
0000
0000
0000
0000
0000
,
1000
0000
0000
0000
0000
0000
0000
0000
0000
0000
0000
0000
0000
0000
0000
0000
0000
0000
0100
0000
0000
0000
0000
0000
0000
0000
0000
0100
0000
0000
0000
0000
0000
0000
0000
0000
1000
0000
0000
0000
0000
0000
0001
0000
0000
0000
0000
0000
1000
0000
0000
0000
0000
0000
0000
0000
0000
0000
0000
0000
0000
0000
0000
0000
0000
0000
0100
0000
0000
0000
0000
0000
0000
0000
0000
0100
0000
0000
0000
0000
0000
0000
0000
0000
0010
0000
0000
0000
0000
0000
0000
0000
0000
0000
0000
0000
0001
0000
0000
0000
0000
0000
0000
0000
0000
0000
0000
0000
0000
0000
0000
0000
0000
0000
0100
0000
0000
0000
0000
0000
0000
0000
0000
0100
0000
0000
0000
0000
0000
0000
0000
0000
0000
0000
0000
0000
0000
0000
0001
0000
0000
0000
0000
0000
0010
0000
0000
0000
0000
0000
0000
0000
0000
0000
0000
0000
0000
0000
0000
0000
0000
0000
0100
0000
0000
0000
0000
0000
0000
0000
0000
0100
0000
0000
0000
0000
0000
0000
0000
0000
0000
0000
0000
0000
1000
0000
0000
0000
0000
0000
0000
0000
,
0001
0000
0100
0000
0010
0000
1000
0000
0100
0000
0010
0000
0002
0000
0000
0000
0000
0000
0000
0000
0000
0000
0000
0000
0000
0000
0000
0000
0000
0000
0003
0000
0000
0000
0000
0000
1001
0000
0000
0000
0000
0000
0000
0000
0000
1000
0000
0000
,
0000
0000
0100
0000
0110
0000
0000
0001
0000
0000
1000
0010
0100
0000
0000
0001
,
0000
0000
0010
0000
0110
0000
0000
0100
1000
0001
0100
0010
1000
0000
1000
0000
,
0001
0000
0001
0000
0010
0100
0010
0100
1000
0001
1000
0001
0200
0000
0000
0000
,
0000
0000
0000
0000
0300
0000
0000
0000
0001
0000
0000
1000
0000
0000
0100
0000
0000
1000
0000
0000
0001
0000
0100
0000
0010
0000
0000
1000
0000
0000
0001
0000
,
0000
0010
0000
0000
0001
0000
1000
0000
0100
0000
0000
1000
0000
0000
0001
0000
0000
0100
0000
0000
0001
0000
0000
1000
0000
0000
0100
0000
0000
0010
0000
0000
,
0200
0000
0000
0000
0310
0000
0100
0000
1001
0000
0000
0001
0100
0000
0010
0000
1000
0001
1000
0000
0100
0000
0010
0000
0011
0000
0000
1000
0001
0000
0010
0000
,
0001
1000
0001
0000
0100
0000
0010
0000
1010
0000
0000
0001
0010
0000
0100
0000
1000
0001
1000
0000
0010
0000
0100
0001
1000
0000
0010
0000
1000
0001
0100
0000
,
0001
0000
0010
0100
1000
0000
0001
0000
0100
0000
0000
0000
0001
0000
0000
0000
1000
0000
0000
0000
0100
0000
0000
0000
1000
0000
0000
0000
0010
0000
0000
0000
,
0100
0001
0010
0001
0100
0010
1000
0100
,
0010
0001
1000
0000
0001
0000
0100
0000
0001
0000
0010
0000
0100
0000
1000
0000
,
0010
1000
0100
0010
0001
0100
0010
1000
,
0001
1000
0001
1000
0100
0000
0100
0000
0010
0000
0010
0000
0001
0000
0001
0000
,
1000
1000
0010
0010
0100
0100
0001
1000
,
0200
0000
0000
0000
0310
0001
1000
0001
0100
0010
1000
0001
0010
0100
1000
0001
,
0100
0010
1000
0100
0010
0000
0011
0000
1100
0000
1001
0000
0001
1000
0010
0100
,
0001
1000
0100
1000
0001
0100
0010
1000
0001
0010
0100
0010
0001
1000
0010
1000
,
0001
0010
0100
1000
0001
0100
0001
1000
0001
0010
0100
1000
0001
0100
0010
1000
,
0001
0010
0001
1000
0010
0100
0001
0010
0001
1000
0100
1000
0001
1000
0010
0100
,
0001
0000
0010
0000
0100
0000
1000
0000
0001
0000
0100
0000
0000
0000
0010
0000
2000
0000
0000
3000
0002
0000
0000
0003
1000
0000
0001
0000
0010
0000
0100
0000
,
1000
0001
0100
0001
1000
0100
0010
0001
1000
0010
0100
0010
1000
0001
0010
0001
,
1000
0010
0100
0001
1000
0100
1000
0001
1000
0010
0100
0001
1000
0100
0010
0001
,
1000
0010
1000
0001
0010
0100
1000
0010
1000
0001
0100
0001
1000
0100
0010
0001
,
1000
0000
0001
0000
0100
0000
0010
0000
1000
0000
0100
0000
0010
0000
0001
0000
0200
0000
0000
0300
0020
0000
0000
0030
1000
0000
0001
0000
0010
0000
0001
0000
,
1000
0010
0100
0010
1000
0001
0010
0100
1000
0001
0100
0001
1000
0100
0010
0100
,
1000
0000
0001
0000
0100
0000
0010
0000
1000
0000
0100
0000
0010
0000
0001
0000
0200
0000
0000
0300
0020
0000
0000
0030
1010
0000
0000
0000
0000
0000
0100
0000
,
0000
0000
0011
0000
0000
0100
0000
0000
1010
0000
0100
0001
1000
0000
0000
0100
,
0000
0000
0000
0000
0011
0000
0000
0000
1000
0000
0001
0000
0000
0000
1000
0000
0002
0000
0000
0003
2000
0000
0000
3000
0001
0000
1000
0000
0010
0000
1000
0000
,
0001
0010
0100
0010
0001
1000
0010
0100
0001
1000
0100
1000
0001
0100
0010
0100
,
0001
1000
0100
1000
0010
0100
0010
0100
0001
1000
0001
0010
0100
1000
0010
0100
,
0001
0010
0100
0010
0001
1000
0010
0100
0001
0010
0100
1000
0020
0000
0000
0000
,
0000
0000
0000
0000
0000
0000
0130
0000
0000
0010
0000
1000
,
0001
0000
0000
0000
1000
0000
0100
0000
0000
0000
1000
0000
0001
0000
0100
0010
0100
0000
0001
0000
0000
0000
0010
0000
,
0100
0000
1000
0001
0000
0100
0010
1000
0001
0010
0000
0001
,
1000
0000
0000
0000
0001
0000
0100
0000
0000
0000
0001
0000
1000
0000
0100
0010
0100
0000
1000
0000
0000
0000
0010
0000
,
1000
0000
0000
0000
0001
0000
0100
0000
0001
1000
0001
0000
0020
0000
0000
0000
0000
0000
0130
0000
0000
0000
1000
0000
,
0001
0100
0010
1000
0000
1010
0000
0101
0000
1000
0000
0001
,
1000
0001
1000
0001
1000
0001
1000
0000
0000
0000
0011
0000
0000
0000
1100
0000
0000
0000
0001
0000
1000
0100
0010
0000
,
0001
0000
0100
0010
1000
0000
0001
0000
0000
0000
0110
0000
0000
0000
1001
0000
0000
0000
0120
0000
0000
0000
0000
0000
,
0000
0130
0000
0000
,
0000
0000
0000
0000
;
#NOTES:
     dance-double:
     :
     Easy:
     7:
     :
00000000
00000000
00000000
00000000
,
00000000
00000000
00000000
00000000
,
00000000
00000000
00000000
00000000
,
00001000
00001000
00010000
00010000
,
00001000
00110000
00001000
00110000
,
00011000
00001010
00010000
00001010
,
00022000
00030000
00003000
00000000
01000000
00000000
00010000
00000000
,
00100000
01000000
10000000
00100000
,
00010000
00001000
00020000
00000010
,
00001000
00030100
00010000
00001000
,
00000100
00000000
00000010
00000100
00000001
00000000
00000010
00000000
,
00000010
00000010
00000001
00000110
,
00010000
00001000
01100000
00010000
,
10000000
00100000
02000000
00000000
,
00000000
03000000
00010000
01100000
,
00001000
00110000
00001000
01100000
,
00010000
10000000
00100000
10000000
,
01000000
00010000
00001000
00000100
,
00000001
00000001
00001000
00000110
,
00010000
00001100
00010000
00000110
,
00001000
00000001
00000010
00000001
,
00000100
00001000
00020000
00000000
,
00031000
00000000
00020000
00000100
,
01000000
00000100
01000000
00000100
,
01000000
00032000
00000000
00013000
,
00010000
00000100
00001000
00000010
,
00000010
00000100
00001000
00010000
,
01000000
00000000
10000000
00010000
10000000
00000000
02000000
00000000
,
00000000
03000000
00200000
00000000
00000000
00300000
00020000
00000000
,
00000000
00030000
02000000
00000000
00000000
00000000
00000000
00000000
,
03000000
00000000
00010000
00100000
01000000
00000000
10000000
00100000
,
00010000
00000000
00001000
00010000
00000100
00000000
00000010
00000001
,
00001000
00000001
00000100
00001000
,
00010000
01000000
10000000
00100000
,
10000000
01000000
00010000
00001000
,
00000100
00000001
00000010
00000100
,
00010000
00001000
00010000
00000000
00101000
00000000
01010000
00000000
,
00101000
00010100
00001010
00010100
,
00012000
01003000
00100000
00010000
,
00001000
00000000
00022000
00030000
00003000
00000000
00010000
00000000
,
00000100
00000010
00000001
00001000
,
00000010
00000010
00000100
00001000
,
00010000
01000000
10000000
00100000
,
01000000
00000000
00010000
00000000
00100000
01000000
10000000
00000000
,
00100000
00010000
00001000
00000010
,
00000001
00000100
00001000
00010000
,
00011000
00100000
00110000
20000000
,
00000000
00000000
30000000
11000000
,
00110000
00001000
00010000
00001100
,
00000011
00001000
00000100
00010000
,
00000000
00011000
00000000
00000000
00100000
00010000
00010000
00000000
,
00000000
10010000
00000000
00000000
00000000
00000000
10000000
00000000
,
01000000
00100000
00001000
00010000
,
01000000
00010000
00001000
00000100
,
00000010
00010000
00001000
00000020
,
00000000
00000000
00000030
00000001
,
00000001
00000100
00000100
00001000
,
00001000
00010000
00010000
01000000
,
01000000
10000000
10000000
00100000
,
00100000
02000000
03000000
00010000
,
00100000
00001000
00010000
00000010
,
00001000
00000100
00000001
00000100
,
00010000
00001000
01000000
02200000
,
03000000
00300000
00000000
00000000
,
00000000
00000000
00000000
00000000
;
#NOTES:
     dance-double:
     :
     Medium:
     12:
     :
00000000
00000000
00000000
00000000
,
00000000
00000000
00000000
00000000
,
00000000
00000000
00000000
00000000
,
00010000
00001000
00100000
00010000
10000000
00010000
01000000
00000000
,
00001000
00010000
00000010
00001000
00000001
00001000
00000100
00000000
,
00000010
00000001
00001000
00000010
00010000
00001000
01000000
00010000
,
10000000
00000000
00100000
00000000
01100000
10000000
00010000
00000000
00100000
00000000
00001000
00000000
00010000
00000000
01000000
00000000
,
10000000
00010000
00100000
01000000
10000000
00100000
00010000
00001000
,
01000000
00100000
00010000
00001000
00020000
00000000
00031000
00001000
,
00010000
00010000
00001000
00010000
00100000
10000000
00010000
10000000
,
02000000
00000000
03100000
00000000
10010000
00000000
00010000
01000000
,
00001000
00010000
00000010
00001000
00000001
00000010
00000100
00001000
,
00000100
00000010
00000100
00010000
00001000
00000000
01000000
00010000
,
01000000
00100000
01000000
00001000
00020000
00000000
00000000
00000000
,
00000000
00000000
00030000
00000000
00001000
01000000
00010000
10000000
,
01000000
00010000
00001000
00000000
00010000
00000100
00001000
00000001
,
00000100
00001000
00010000
00000000
00000010
00010000
00001000
00000100
,
00000001
00001000
00000010
00000100
00000001
00000010
00001000
00010000
,
00002000
00000000
00013000
00000000
00001000
01000000
00010000
10000000
,
00100000
00010000
00001000
00000000
00010000
00000100
00001000
00000001
,
00000010
00001000
00010000
00000000
00100000
01000000
00010000
00010000
,
10000000
00000000
10000000
00000000
01000000
00000000
00100000
00000000
00001000
00000000
00000000
00010000
00000000
00000000
00001000
00000000
,
00010000
00011000
00010000
00101000
,
00010000
00010010
00001000
01001000
,
00010000
00000000
00001000
00000000
00022000
00000000
00000000
00000000
00033000
00000000
00000000
00000000
00001000
00000000
00000000
00100000
,
00000000
00000000
00010000
00000000
10000000
00000000
00000000
00100000
00000000
00000000
00010000
00001000
00010000
00000000
00000000
00001000
,
00000000
00000000
00000010
00000000
00000001
00000000
00000000
00001000
00000100
00000000
00001000
00000000
00000001
00000000
00000100
00000000
,
00001000
00010000
00000010
00001000
00010000
01000000
20000000
00000000
,
00000000
00000000
30000000
00000000
00000000
00000000
02000000
00000000
00000000
00000000
00000000
00000000
00000000
00000000
00000000
03000000
00000000
00000000
00020000
00000000
00000000
00000000
00000000
00000000
,
00000000
00200000
00000000
00000000
,
00330000
00000000
00000000
00000000
10000000
00000000
00010000
00000000
01000000
00100000
01000000
00000000
00010000
00000000
00100000
00000000
,
00001000
00010000
00001000
00000000
00010000
00000000
00000100
00000000
00001000
00000010
00000100
00000000
00000001
00000010
00001000
00000000
,
00000010
00000100
00010000
00000000
00001000
00000000
00010000
00000000
00100000
00000000
10000000
00000000
00010000
00000000
00100000
00000000
,
01000000
00000000
00100000
00010000
10000000
00000000
00010000
01000000
,
00001000
00000000
00010000
00001000
00000010
00000001
00001000
00000010
,
00000100
00000000
00000010
00001000
00000001
00000000
00000010
00000100
,
00002000
00000000
00003001
00000001
00001000
00000100
00010000
00001000
,
00100000
00001000
00010000
00010000
00001000
01000000
00010000
10000000
,
00200000
00000000
10300000
00010000
01000000
00001000
00010000
00000100
,
00001000
00000001
00000010
00000100
00000110
00001001
00000001
00000010
,
00001000
00000010
00000100
00010000
00001000
00010000
00100000
01000000
,
00010000
10000000
01000000
00010000
10000000
00100000
00010000
01000000
,
00010000
00001000
00010000
01000000
00010000
10000000
01000000
00100000
,
00010000
00000000
10000000
00000000
00100000
01000000
00000000
00100000
01000000
00000000
00010000
00000000
10000000
00000000
00100000
00000000
,
00010000
00100000
01000000
00001000
00010000
00001000
00000010
00000100
,
00001000
00000001
00000100
00001000
00000001
00000010
00001000
00000100
,
00001000
00010000
00001000
00000100
00001000
00000001
00000200
00000000
,
00002300
00000000
00023000
00000000
02030000
00000000
03100000
10000000
,
00100000
00010000
10000000
01000000
00010000
00001000
00100000
00010000
,
10000000
00000000
00010000
00000000
01000000
00000000
00100000
00000000
10000000
00000000
00000000
00000000
00100000
00000000
00000000
00010000
,
00000000
00000000
00011000
00000000
00000000
00001000
00000000
00000000
00000010
00000000
00000100
00000000
00001000
00000000
00000000
00000001
,
00000000
00000000
00001001
00000000
00001000
00000001
00000000
00000100
00000000
00000000
00000000
00000000
00000010
00000000
00000001
00000000
,
00000010
00001000
00000001
00000100
00001000
00010000
00000010
00001000
,
00000001
00001000
00000100
00000010
00000001
00000000
00001000
00000100
,
00010000
00001000
01000000
00100000
10000000
00010000
00200000
00000000
,
00000000
00000000
00000000
00000000
00000000
00000000
00300000
00000000
00000000
01000000
00000000
10000000
,
00010000
00000000
10000000
01000000
00000000
10000000
00010000
00000000
01000000
00100000
00000000
01000000
,
00010000
00000000
01000000
00001000
00000000
00010000
00001000
00010000
00001000
00010000
00000000
00000100
,
00010000
00000000
00000100
00001000
00000000
00000100
00000010
00000000
00000001
00001000
00000000
00000001
,
00000010
00000000
00000001
00001000
00000001
00001000
00000200
00000000
00000000
00010300
00000000
00001000
,
00010000
00001000
00010000
00001000
00000000
00100000
00000000
00010000
00000000
10000000
00000000
00010000
,
10000000
00010000
10000000
00100000
00000000
01000000
00000000
00100000
00000000
10000000
00010000
10000000
,
00010000
01000000
00010000
01000000
00000000
00001000
00000000
00010000
00000000
00002000
00000000
00000000
,
00000000
00013000
00000000
00000000
,
00000000
00000000
00000000
00000000
;
#NOTES:
     dance-double:
     :
     Hard:
     17:
     :
00000000
00000000
00000000
00000000
,
00000000
00000000
00000000
00000000
,
00000000
00000000
00000000
00000000
,
00011000
00001000
00010000
00001000
01000000
00010000
00100000
00001000
,
00011000
00010000
00001000
00010000
00000100
00001000
00000010
00010000
,
00001000
00010000
00001000
00010000
00000010
00001000
00000001
00001000
00000100
00010000
00001000
00010000
00001000
00100000
00010000
10000000
,
00100000
00000000
01000000
00000000
01100000
10000000
00010000
00000000
01000000
00000000
00010000
00000000
00010000
00000000
00010000
00000000
,
00100000
00000000
00001000
00010000
00000100
00001000
00000010
00000000
00001000
00000000
00000100
00000000
00000100
00000000
00000100
00000000
,
00010000
00000000
00000010
00001000
00000100
00010000
00001000
00000000
00020000
00000000
00030000
00000000
00001000
01000000
00010000
01000000
,
00001000
00010000
00000100
00010000
00001000
01000000
00010000
00000000
10000000
00000000
01000000
00000000
01000000
00000000
01000000
00000000
,
10000000
00100000
00000000
01000000
00010000
00000000
01000000
00000000
01100000
00000000
00000000
00000000
10100000
00000000
00010000
00000000
,
01010000
00000000
00001000
00000000
00011000
00000000
00000010
00000000
00001010
00000000
00000001
00000000
00001000
00000100
00000010
00000100
,
00001000
00000100
00010000
00001000
00010000
00000100
00010000
00001000
01000000
00000000
00000000
00000000
00010000
01000000
00100000
01000000
,
00010000
01000000
00001000
00010000
00001000
01000000
00001000
00010000
00000100
00000000
00000000
00000000
00000000
00000000
00000000
00000000
,
00000000
00000000
00000000
00000000
00000000
00000000
00000000
00000000
00010000
00000000
00001000
00000000
00010000
00000100
00000000
00001000
,
00000010
00000000
00000100
00000001
00000000
00001000
00000100
00000000
00000010
00000000
00000100
00000000
00001000
00000100
00000000
00010000
,
00001000
00000000
01000000
00100000
20000000
00000000
00000000
00000000
30010000
00000000
01000000
00000000
01000000
00000000
01000000
00000000
,
00100000
00000000
00010000
00001000
00000000
00010000
00001000
00000000
00000010
00000000
00000001
00000000
00000001
00000000
00000001
00000000
,
00000100
00000010
00000000
00001000
00000010
00000000
00010000
00000000
00001000
00000000
01000000
00000000
00100000
10000000
00000000
10000000
,
01000000
00000000
00010000
00001000
00000000
00000010
00000001
00000000
00001000
00000000
00000001
00000000
00000100
00001000
00000000
00010000
,
00100000
00000000
10000000
01000000
00200000
00000000
00000000
00000000
00301000
00000000
00010000
00000000
00010000
00000100
00001000
00000100
,
00010000
00001000
00010000
00001000
01000000
00010000
00100000
00010000
10000000
00000000
00000000
00010000
00000000
00000000
01000000
00000000
,
00100000
00000000
00000000
00000000
00000000
00000000
00000000
00000000
00000000
00000000
00000000
00000000
00000000
00000000
00000000
00000000
00000000
00000000
00000000
00000000
00000000
00000000
00000000
00000000
00000000
00000000
00000000
00000000
00000000
00000000
00000000
00000000
00000000
00000000
00000000
00000000
00000000
00000000
00000000
00000000
00000000
00000000
00000000
00000000
00000000
00000000
00000000
00000000
01100000
00000000
00000000
00000000
00000000
00000000
00000000
00000000
00000000
00000000
00000000
00000000
00000000
00000000
00000000
00000000
00000000
00000000
00000000
00000000
00000000
00000000
00000000
00000000
00000000
00000000
00000000
00000000
00000000
00000000
00000000
00000000
00000000
00000000
00000000
00000000
00000000
00000000
00000000
00000000
00000000
00000000
00000000
00000000
00000000
00000000
00000000
00000000
00100000
00000000
00000000
00000000
00000000
00000000
00000000
00000000
00000000
00000000
00000000
00000000
00000000
00000000
00000000
00000000
00000000
00000000
10000000
00000000
00000000
00000000
00000000
00000000
00000000
00000000
00000000
10000000
00000000
00000000
00000000
00000000
00000000
00000000
00000000
00000000
00000000
00000000
00000000
00000000
00000000
00000000
00010000
00000000
00000000
00000000
00000000
00000000
01000000
00000000
00000000
00000000
00000000
00000000
00000000
00000000
00000000
00000000
00000000
00000000
00000000
00000000
00000000
00000000
00000000
00000000
00010000
00000000
00000000
00000000
00000000
00000000
00000000
00000000
00000000
00010000
00000000
00000000
00000000
00000000
00000000
00000000
00000000
00000000
00000000
00000000
00000000
00000000
00100000
00000000
00000000
00000000
00000000
00000000
00000000
00000000
,
00001000
00000000
00000000
00000000
00000000
00000000
00000000
00000000
00000000
00000000
00000000
00000000
00000000
00000000
00000000
00000000
00000000
00000000
00010000
00000000
00000000
00000000
00000000
00000000
00000000
00000000
00000000
00010000
00000000
00000000
00000000
00000000
00000000
00000000
00000000
00000000
00001000
00000000
00000000
00000000
00000000
00000000
00010000
00000000
00000000
00000000
00000000
00000000
00000100
00000000
00000000
00000000
00000000
00000000
00000000
00000000
00000000
00000000
00000000
00000000
00000000
00000000
00000000
00000000
00000000
00000000
00010000
00000000
00000000
00000000
00000000
00000000
00000000
00000000
00000000
00010000
00000000
00000000
00000000
00000000
00000000
00000000
00000000
00000000
00000100
00000000
00000000
00000000
00000000
00000000
00000000
00000000
00000000
00000000
00000000
00000000
00001000
00000000
00000000
00000000
00000000
00000000
00000000
00000000
00000000
00000000
00000000
00000000
00000000
00000000
00000000
00000000
00000000
00000000
00000100
00000000
00000000
00000000
00000000
00000000
00000000
00000000
00000000
00000100
00000000
00000000
00000000
00000000
00000000
00000000
00000000
00000000
00000000
00000000
00000000
00000000
00000000
00000000
00001000
00000000
00000000
00000000
00000000
00000000
00000001
00000000
00000000
00000000
00000000
00000000
00000000
00000000
00000000
00000000
00000000
00000000
00000000
00000000
00000000
00000000
00000000
00000000
00000100
00000000
00000000
00000000
00000000
00000000
00000000
00000000
00000000
00000100
00000000
00000000
00000000
00000000
00000000
00000000
00000000
00000000
00000000
00000000
00000000
00000000
00000010
00000000
00000000
00000000
00000000
00000000
00000000
00000000
,
00001000
00000000
00000010
00000000
00010000
00000000
00001000
00000000
00010000
00000000
00000100
00000000
00002000
00000000
00000000
00000000
00000000
00000000
00000000
00000000
00000000
00000000
00000000
00000000
00000000
00000000
00000000
00000000
00000000
00000000
00003000
00000000
00000000
00000000
00000000
00000000
00002001
00000000
00000000
00000000
00000000
00000000
00000000
00000000
00000000
00000010
00000000
00000000
,
00000000
00000000
00013000
00000000
00021000
00000000
00000000
01000000
00000000
00000000
10030000
00010000
00100000
00000000
00000000
01000000
,
00000000
00000000
10000000
00000000
10020000
00000000
00000000
01030000
00001000
00010000
00000010
00010000
00001000
00000000
00001000
00000000
,
00010000
00000000
00010000
00000000
00001000
00010000
00001000
00100000
00010000
01000000
00100000
10000000
00020000
00000000
00000000
00000000
,
00000000
00000000
00000000
00000000
00030000
00000000
00000000
00000000
01000000
00000000
00000000
00100000
00000000
00000000
10000000
00000000
00000000
00010000
00000000
00000000
00100000
00000000
00001000
00000000
00010000
00000000
00000000
00001000
00000000
00000000
00000010
00000000
,
00000000
00000001
00000000
00000000
00001000
00000000
00000001
00000000
00000100
00000000
00000000
00000010
00000000
00000000
00001000
00000000
00000000
00000001
00000000
00000000
00000010
00000000
00000000
00001000
00000000
00000000
00010000
00000000
00000000
00001000
00000000
00000000
,
00010000
00000000
00000000
00000000
00001000
00000000
00010000
00000000
00002000
00000000
00003000
01000000
00010000
00000000
10000000
00000000
00010000
00000000
00100000
00000000
00001000
00000000
00010000
00000000
00021000
00000000
00030000
00000100
00001000
00000000
00000001
00000000
,
00001000
00000000
00000010
00000000
00010000
00000000
00001000
00000000
02000000
00000000
03000000
00010000
10000000
00000000
01000000
00000000
00100000
00001000
00000000
00000000
00010000
00000000
00000000
00000100
00000000
00000000
00000010
00000000
00000000
00001000
00000000
00000000
,
00010000
00000000
01000000
00100000
00001000
00000000
01000000
00000000
00010000
00000000
10000000
00000000
00010000
00000000
01000000
00000000
,
00100000
10000000
00010000
00100000
01000000
00100000
00001000
00010000
,
00001000
00010000
00001000
00000000
00010000
00000000
00000100
00000000
00001000
00000000
00000001
00000000
00001000
00000000
00000100
00000000
,
00000010
00000001
00001000
00000010
00000100
00000010
00010000
00001000
,
00010000
00001000
00010000
00001000
00010000
00000000
00001000
00000000
00100000
00000000
00010000
00000000
01000000
00000000
00001000
00000000
,
00010000
00000010
00001000
00000100
00010000
00001000
00100000
00010000
,
02000000
00000000
00000000
00000000
03100000
10000000
00010000
01000000
00010000
10000000
01000000
00100000
00001000
00010000
00000100
00000010
,
00000001
00001000
00000001
00000100
00000010
00000000
00000100
00000000
00000110
00000000
00001001
00000000
00000001
00000010
00000001
00001000
,
00000100
00000000
00001000
00000000
00000010
00000000
00010000
00000000
00001000
00000000
00010000
00000000
00001000
00000000
01000000
00000000
00020000
00000000
00000000
00030000
20000000
00000000
00000000
30000000
00100000
00000000
01000000
00000000
00100000
00000000
10000000
00000000
,
00010000
00000000
10000000
00000000
01000000
00000000
00100000
00000000
00001000
00000000
00010000
00000000
00000100
00000000
00001000
00000000
00000200
00000000
00000000
00000300
00000020
00000000
00000000
00000030
00000001
00000000
00001000
00000000
00000010
00000000
00000100
00000000
,
00000001
00001000
00000100
00010000
00001000
00010000
00000010
00001000
00000010
00010000
00001000
00010000
00001000
01000000
00010000
10000000
,
01000000
00000000
10000000
00000000
01000000
00000000
00100000
00000000
00010000
00000000
10000000
00000000
00000000
00000000
00010000
00000000
20000000
00000000
00000000
30000000
00020000
00000000
00000000
00030000
10000000
00000000
00100000
00000000
10000000
00000000
00010000
00000000
,
01000000
00000000
00010000
00000000
10000000
00000000
01000000
00000000
00100000
00000000
00001000
00000000
00010000
00000000
00000100
00000000
00002000
00000000
00000000
00003000
00000002
00000000
00000000
00000003
00000010
00000000
00000100
00000000
00001000
00000000
00000100
00000000
,
00001000
00000000
00000001
00000000
00000100
00000000
00000010
00000000
00010000
00000000
00001000
00000000
00100000
00000000
00010000
00000000
02000000
00000000
00000000
03000000
00200000
00000000
00000000
00300000
10000000
00000000
00010000
00000000
00100000
00000000
01000000
00000000
,
10000000
00010000
01000000
00001000
00010000
00001000
00100000
00010000
00100000
00001000
00010000
00000100
00000010
00000000
00000001
00000000
,
00000100
00000000
00000000
00000000
00001000
00000000
00000000
00000000
00010000
00000000
00000000
00000000
01000000
00000000
00000000
00000000
20000000
00000000
00000000
30000000
00020000
00000000
00000000
00030000
01000000
00000000
00100000
00000000
10000000
00000000
00010000
00000000
,
10000000
01000000
00100000
00010000
00100000
01000000
10000000
00010000
10000000
00100000
01000000
00010000
01000000
00001000
00010000
00001000
,
00100000
00010000
00100000
00001000
00010000
00000100
00001000
00000100
00010000
00000000
00001000
00000000
00021000
00000000
00000000
00030100
,
00000000
00000000
00012000
00000000
00000000
00103000
00000000
00000000
00011000
00000000
00001000
00000010
00000001
00000000
00000000
00000110
,
00000000
00000000
00000000
00000000
00000001
00000000
00000000
00000000
00001000
00000000
00000010
00000000
00000000
00000000
00000100
00000000
00000002
00000000
00000000
00000003
00002000
00000000
00000000
00003000
00000010
00000000
00001000
00000000
00000100
00000000
00001000
00000000
,
00000010
00010000
00001000
00010000
00001000
00100000
00010000
00100000
00001000
01000000
00010000
00100000
00010000
10000000
00100000
01000000
,
00010000
00100000
00010000
01000000
00001000
00010000
00001000
00010000
00000010
00001000
00000001
00001000
00000100
00010000
00001000
00010000
,
00001000
00100000
00010000
00100000
00001000
00010000
00000100
00001000
00000001
00001000
00000010
00000100
00000002
00000000
00000000
00000000
,
00000000
00000000
00000000
00000000
00000000
00000000
00000003
00000000
00000000
00000010
00000000
00000001
,
00001000
00000000
00000000
00000000
00000001
00000000
00000100
00000000
00000000
00000000
00000001
00000000
00001000
00000000
00000100
00000010
00000100
00000000
00001000
00000000
00000000
00000000
00000010
00000000
,
00001000
00000000
00000100
00010000
00000000
00001000
00100000
00010000
10000000
00100000
00000000
10000000
,
00010000
00000000
00000000
00000000
10000000
00000000
01000000
00000000
00000000
00000000
10000000
00000000
00010000
00000000
01000000
00100000
01000000
00000000
00010000
00000000
00000000
00000000
00100000
00000000
,
00010000
00000000
00000000
00000000
01000000
00000000
00001000
00000000
00010000
00001000
00010000
00000000
00002000
00000000
00000000
00000000
00000000
00000000
00013000
00000000
00000000
00000000
00001000
00000000
,
01000000
00010000
10000000
00100000
00000000
10100000
00000000
01010000
00000000
00001000
00000000
00010000
,
00001000
00010000
00001000
00010000
00001000
00010000
00001000
00000000
00000000
00000000
00101000
00000000
00000000
00000000
00010100
00000000
00000000
00000000
00000100
00000000
00001000
00000001
00001000
00000000
,
00000010
00000000
00001000
00000001
00001000
00000000
00000100
00000000
00000000
00000000
00001100
00000000
00000000
00000000
00000011
00000000
00000000
00000000
00002100
00000000
00000000
00000000
00000000
00000000
,
00000000
00003010
00000000
00000000
,
00000000
00000000
00000000
00000000
;
