
//----- song ID: sisy -----//
#TITLE:SISYPHUS;
#ARTIST:BEMANI Sound Team "Paoon";
#BANNER:SISYPHUS.png;
#BACKGROUND:SISYPHUS-bg.png;
#CDTITLE:./CDTitles/DDR A3.png;
#MUSIC:SISYPHUS.ogg;
#SAMPLESTART:72.904;
#SAMPLELENGTH:15;
#DISPLAYBPM:90:190;
#BPMS:0=90,12=180,24=90,26=180,106=90,110=95,114=100,116=105,118=110,120=115,122=120,124=125,126=130,128=135,130=140,132=145,134=150,136=155,138=160,140=165,142=170,144=175,146=360,154=180,156=90,165=180,178=90,179=180,227=90,229=95,231=100,233=105,235=110,237=115,239=120,241=125,243=130,245=135,247=140,249=145,251=150,253=155,255=160,257=165,259=170,261=175,263=180,265=185,267=190,283=45;
#STOPS:177=0.167,177.5=0.167;
#BGSTAGE:30;
#NOTES:
     dance-single:
     :
     Beginner:
     5:
     :
0000
0000
0000
0000
,
0000
0000
0000
0000
,
0000
0000
0000
0000
,
0001
0000
0001
0000
,
0010
0010
0010
0000
,
0100
0000
1000
0000
,
2002
0000
3003
0000
,
1000
0000
0010
0100
,
0010
0000
1001
0000
,
1001
0000
1001
0000
,
0000
0000
0001
0000
,
0001
0000
0010
0100
,
0010
0000
1001
0000
,
1001
0000
1001
0000
,
0000
0000
1000
1000
,
0010
0000
1000
0100
,
1000
0000
0001
0001
,
0010
0000
0001
0100
,
0001
0000
1001
0000
,
1001
0000
0001
0100
,
0010
0000
1001
0000
,
1001
0000
1000
0100
,
0010
0000
1001
0000
,
0000
0000
1001
0000
,
0000
0000
1000
0010
,
0100
0001
0100
0010
,
1000
0000
2002
0000
,
0000
0000
3003
0000
,
0000
0000
0001
0001
,
0010
0000
0001
0100
,
0001
0000
0010
0100
,
0010
0000
1001
0000
,
1001
0000
1000
1000
,
0010
0000
1000
0100
,
1000
0000
0010
0100
,
0010
0000
1001
0000
,
1001
0000
2002
0000
,
0000
0000
0000
0000
,
0000
0000
3003
0000
,
0000
0002
0000
0000
,
0003
2000
0000
0000
,
3000
1000
0000
1000
,
0000
0100
0100
0100
,
0000
0010
0000
0001
,
0000
2002
0000
3003
,
0000
0001
0000
0100
,
0100
0010
0000
1000
,
0000
1000
0000
0100
,
0100
0010
0000
1001
,
0000
1001
0000
0100
,
0010
0100
0000
1001
,
0000
1001
0000
0010
,
0100
0010
0000
0001
,
0001
0100
0100
0010
,
0000
1001
0000
1000
,
1000
0100
0100
0010
,
0000
1001
0000
2002
,
0000
0000
0000
3003
,
0000
0000
0000
1000
,
1000
0100
0000
1000
,
0010
1000
0000
0100
,
0010
0100
0000
1001
,
0000
1001
0000
0001
,
0001
0100
0000
0001
,
0010
0001
0000
0100
,
0010
0100
0000
1001
,
0000
1001
0000
0020
,
0000
0000
0030
0200
,
0000
0000
0300
1001
,
0000
1001
0000
1000
,
0001
1000
0000
2002
,
0000
3003
0000
0000
0000
0000
0000
0000
,
0000
0000
0000
0000
;
#NOTES:
     dance-single:
     :
     Easy:
     10:
     :
0000
0000
0000
0000
,
0000
0000
0000
0000
,
0000
0000
0000
0000
,
0001
0001
0100
0010
,
1000
1000
1001
0000
,
0001
0100
0010
0000
1000
0100
0010
0000
,
2002
0000
3003
0000
1000
0010
1000
0010
,
1000
0010
0100
0001
,
0202
0303
0001
0011
,
1000
0000
1010
0000
0001
1000
0001
0000
,
1001
0000
0000
0000
0001
0010
0001
0010
,
0001
0100
0010
1000
,
2020
0000
3030
0000
1000
0100
0010
0000
,
0001
0100
0010
0000
0110
0000
0110
0000
,
2002
3003
1000
1010
,
1000
1100
0001
0011
,
2002
3003
0001
0101
,
0001
0011
1000
1100
,
2002
0000
3003
0000
0001
0100
0001
1000
,
0001
0000
1000
0000
0001
0010
0001
1000
,
0001
0000
0000
0000
1000
0100
1000
0001
,
1000
0001
0101
0110
,
2020
3030
1100
1100
,
0110
0110
0011
0011
,
1001
1001
1000
0100
,
0010
0000
0001
0000
1000
0100
0010
0001
,
1000
0001
2002
0000
,
0000
0000
0000
0000
,
0000
3003
0001
1000
,
0100
0010
0100
0000
1000
0000
0001
0000
,
0100
0010
0100
0000
0001
0000
1000
0000
,
0010
0100
0010
0000
1000
0000
0001
0000
,
0010
0100
0010
0000
0001
0000
0011
0000
,
1000
1010
0001
0101
,
1000
1100
0100
1001
,
0010
1001
0100
0110
,
0001
1000
0001
0000
2000
0000
0000
0000
,
0000
0000
0000
0000
,
0000
0000
0000
0000
,
3000
2000
3000
0200
,
0300
0020
0030
0002
,
0003
1000
1000
0010
,
0100
0001
0001
1001
,
0000
0000
1000
0010
0100
0000
0001
0010
,
0100
2002
3003
1000
,
1000
0000
0100
0010
0100
0000
0110
0000
,
0010
0011
0000
0001
,
0001
0000
0100
0010
0100
0000
0110
0000
,
0010
0000
1010
0000
0000
0000
1000
0100
,
0001
0000
0100
0000
1000
0000
0001
0100
,
1000
0000
0100
0000
0000
0000
0001
0010
,
1000
0000
0010
0000
0001
0000
1000
0010
,
0001
0010
0000
1000
,
1000
1100
1100
0010
,
0010
0110
0110
0001
,
0001
0101
0101
0010
,
0010
0110
0110
2002
,
0000
0000
0000
0000
,
0000
0000
0000
0000
0000
3003
1000
0000
,
0001
0000
0010
0100
0010
0000
0001
0000
,
1000
0000
0010
0100
0010
0000
1000
0000
,
0001
0000
0100
0010
0100
0000
0001
0000
,
1000
0000
0100
0010
0100
0000
1000
0000
,
1100
0001
0101
1000
,
1010
0001
0011
0010
,
1001
0100
1001
0010
,
0110
0000
1000
0001
1000
0000
0002
0000
,
0000
1003
0000
2000
,
0000
0000
3001
0000
0000
0000
0001
0010
,
0100
0000
1000
0010
0100
0000
0001
1000
,
0001
1000
0001
0000
0000
0000
2002
0000
,
0000
3003
0000
0000
0000
0000
0000
0000
,
0000
0000
0000
0000
;
#NOTES:
     dance-single:
     :
     Medium:
     14:
     :
0000
0000
0000
0000
,
0000
0000
0000
0000
,
0000
0000
0000
0000
,
0001
0010
0100
0000
1000
0010
0100
0000
,
0001
0000
0000
0010
0000
0000
0100
0000
0000
0000
0000
0000
1000
0000
0001
0000
1000
0000
0001
0000
0000
0000
0000
0000
,
1000
0000
0001
0010
0001
0000
1000
0010
1000
0000
0001
0000
1001
0000
0000
0000
,
2000
0010
3010
0000
0002
0100
0103
0000
1000
0000
0100
0000
0001
0000
0100
0000
,
1000
0010
1010
0101
,
2002
0000
3003
0000
1000
0010
1010
1000
,
0001
0000
0010
0000
0011
0000
0001
0000
1000
0000
0100
1000
0100
0000
1000
0000
,
1001
0000
1000
0001
1000
0000
0000
0000
0001
0000
0010
0000
1000
0000
0010
0000
,
0001
0100
0101
1010
,
2002
0000
3003
0000
0001
0100
1000
0100
,
0001
0010
1001
0110
,
2002
0000
3003
0000
0001
0010
0100
1000
,
1010
0010
1010
0000
1100
0100
1100
1000
,
1010
0000
0010
0000
1000
0000
0001
1000
0001
0000
1000
0000
0100
0000
0010
0000
,
0011
0001
0011
0000
0101
0000
1100
0000
,
0202
0000
0303
0000
1000
0100
0010
0001
,
0101
0100
0101
0000
0011
0010
0011
0001
,
0101
0000
0100
0001
0100
0000
0001
1000
0001
0000
0010
0000
0100
0000
1000
0000
,
1100
0100
1100
1000
1010
0000
0011
0000
,
2020
0000
3030
0000
1000
1000
1100
0100
,
0010
0010
0011
0001
1000
1000
1010
0010
,
0100
0000
0001
0000
0100
0000
0001
0000
0100
0000
0001
0000
1000
0000
0000
1000
0000
0000
0100
0000
0000
0100
0000
0000
,
0010
0000
0010
0000
0001
0000
0001
0000
1000
0100
1000
0000
0100
0010
0001
0000
,
1000
0001
1000
0001
1000
0000
0000
0000
2002
0000
0000
0000
0000
0000
0000
0000
,
0000
0000
0000
0000
,
0000
0000
0000
0000
3003
0000
0000
0000
0001
0000
0000
0001
0010
0000
0100
1000
,
0000
0000
1010
0000
0000
1001
0000
0000
1000
0000
0000
1000
0100
0000
0010
0001
,
0010
0000
0001
0000
0100
0000
0010
0000
1000
0000
0000
1000
0010
0000
0100
0001
,
0100
0000
0110
0000
0000
1001
0000
0000
1000
0000
0000
0100
0010
0000
0010
0000
,
0001
0000
0010
0000
1000
0000
0010
0000
0001
0000
0000
0001
0100
0000
0000
0010
,
1000
0000
0001
0000
1001
0000
0000
0000
1000
0000
0000
1000
0100
0000
0000
0010
,
0001
0000
1000
0000
1001
0000
0000
0000
0001
0000
0000
0001
0010
0000
0000
0100
,
1000
0010
0110
0000
0001
0100
1000
0100
,
0001
0010
1000
0010
0002
0000
0000
0000
,
0000
0000
0000
0000
,
0000
0000
0000
0000
,
0003
0000
0000
0000
0001
0000
1000
0000
0100
0010
0100
0000
0000
1000
0001
1000
,
0002
0000
0003
0000
1000
0000
0001
0000
0100
0010
0100
0000
0000
0001
1000
0001
,
2000
3000
1000
0100
0010
0000
0001
0100
,
0010
0000
0000
0000
0000
0000
1000
0000
0000
0100
0000
0000
0010
0000
0000
0000
0000
0000
0001
0000
1000
0000
0001
0000
,
1000
0000
0000
0000
0001
0000
1000
0100
1000
0000
0001
0000
0100
0000
0100
0000
,
1001
0000
0000
0000
0020
0030
0200
0300
2002
0000
3003
0000
1000
0000
0100
0000
,
1000
0010
1000
0100
0010
0001
0101
0000
,
0110
0000
2010
0001
3001
0000
0001
0100
,
0001
0010
0001
0100
0010
1000
1100
0000
,
0110
0000
0012
1000
1003
0000
0001
0100
,
1000
0100
0001
0100
1001
0001
1000
0100
,
0001
0000
0100
0000
1000
0000
0001
1000
0001
0000
0000
0000
1000
0000
0010
0000
,
0001
0010
1000
0010
1001
1000
0002
0013
,
0200
1300
0001
1000
0100
0000
1001
0000
,
0102
0100
0103
0000
2010
0010
3010
0000
,
0012
0010
0013
0000
1100
0000
1000
0100
,
0001
0000
0100
0000
1000
0000
0000
0000
0001
0000
0100
0010
0100
0000
0010
0000
,
1000
0001
1000
0001
1000
0000
0100
0000
0110
0000
0000
0000
2002
0000
0000
0000
,
0000
0000
0000
0000
,
0000
0000
0000
0000
0000
0000
0000
0000
0000
0000
3003
0000
1000
0000
0000
1000
,
0100
0000
0010
0001
0000
0000
0101
0000
0000
1001
0000
0000
0001
0000
0000
0001
,
0010
0000
0100
1000
0100
0000
1000
0000
0010
0000
0100
0000
0001
0000
0000
0001
,
0100
0000
0010
1000
0010
0000
0110
0000
0000
1001
0000
0000
0001
0000
0000
0010
,
0100
0000
0100
0000
1000
0000
0100
0000
0001
0000
0100
0000
1000
0000
0000
1000
,
0010
0000
0000
0100
0001
0000
1000
0000
1001
0000
0000
0000
0001
0000
0000
0001
,
0010
0000
0000
0100
1000
0000
0001
0000
1001
0000
0000
0000
1000
0000
0000
1000
,
0100
0000
0000
0010
0001
0000
0100
0000
0110
0000
0000
0000
1000
0000
0010
0000
,
0001
0010
1000
0100
0001
0100
2000
0000
,
0000
3100
0000
0002
,
0100
0000
0103
0000
0000
0000
0001
0010
,
0100
1000
0001
0010
0100
1000
0001
1000
,
0100
0010
0001
0000
0110
0000
2002
0000
,
0000
3003
0000
0000
0000
0000
0000
0000
,
0000
0000
0000
0000
;
#NOTES:
     dance-single:
     :
     Hard:
     17:
     :
0000
0000
0000
0000
,
0000
0000
0000
0000
,
0000
0000
0000
0000
,
0001
0010
0001
0000
1000
0100
1000
0000
0010
1000
0010
0000
0100
0001
0100
0000
,
0001
0000
0000
0010
0000
0000
0001
0000
0000
0000
0000
0000
1000
0000
0000
0100
0000
0000
1000
0000
0000
0000
0000
0000
0010
0000
0000
0000
1000
0000
0000
0000
0010
0000
0000
0000
0100
0000
0000
0000
0001
0000
0000
0000
0100
0000
0000
0000
,
0001
0010
0100
1000
0100
0010
0001
0000
1000
0001
1000
0001
2000
0000
0000
0000
,
3001
0000
0100
0010
2000
0000
0000
0000
3001
0100
0001
0000
1001
0000
0000
0000
1010
0000
0000
0000
0010
0000
0000
0000
0110
0000
0000
0000
0100
0000
0000
0000
,
0102
0000
1003
0000
1010
1000
1100
0000
,
0011
0000
0001
0000
0101
0000
0000
0000
1000
0000
0010
0000
1010
0000
1000
0100
,
1000
0000
0100
0000
1100
0000
0001
0010
0001
0000
0010
0001
0010
0000
0001
0100
,
0001
0100
0101
0000
0101
0100
0110
0010
,
2010
0000
3001
0000
0101
0001
0011
0000
,
1100
0000
1000
0000
1010
0000
0010
1000
1100
0000
0100
0000
1100
0000
1000
0000
,
1001
0001
0101
0000
1001
0000
0110
0000
,
2002
0000
3003
0000
1010
0100
1010
0100
,
1010
1010
1010
0000
0011
0100
0011
0100
,
0011
0000
0001
0000
1000
0000
0001
0100
0101
0000
0010
0000
0101
0000
1100
0000
,
0101
0010
0101
0000
1001
0010
1001
0100
,
1001
0100
0010
0000
0101
0010
0101
0010
,
0101
0101
0101
0000
1100
0010
1100
0010
,
1100
0000
1000
0000
0001
0000
1000
0010
1010
0000
0100
0000
1010
0000
0011
0000
,
1010
0100
1010
0100
1001
0100
1001
0010
,
1001
0010
0100
0100
0120
1000
1030
0010
,
0210
0001
0301
0100
2100
0010
3010
1000
,
0010
0000
0000
0000
0100
0000
0000
0000
0001
0000
0000
0000
0010
0000
0000
0000
0100
0000
0000
0000
1000
0000
0000
0000
0010
0000
0000
0000
0000
0000
1000
0000
0000
0100
0000
0000
0010
0000
0000
0000
0000
0000
0001
0000
0000
0100
0000
0000
,
0010
0000
1000
0100
0010
0000
0001
0100
0010
1000
0010
1000
0100
0010
0100
0010
,
0001
1000
0001
1000
0001
0000
0000
0000
2002
0000
0000
0000
0000
0000
0000
0000
,
0000
0000
0000
0000
,
0000
0000
0000
0000
3003
0000
0000
0000
1001
0000
1000
0100
0010
0000
0001
0100
,
0010
0000
1000
0010
1000
0100
0000
0100
0010
0000
0001
0010
0100
0000
1000
0010
,
0100
0001
0100
0001
1000
0010
1000
0010
1000
0000
0100
0001
0100
0000
1000
0001
,
0010
0001
0010
0000
0100
1000
0000
0010
1000
0000
0100
0001
0100
0000
0110
0000
,
0001
1000
0001
1000
0100
0010
0100
0010
0001
0000
0100
0010
1010
0000
1000
0100
,
0010
0001
0100
0001
0010
0001
0100
0001
0010
0000
0001
0100
0101
0000
0001
1000
,
0010
1000
0100
1000
0010
1000
0100
1000
0010
0000
1000
0100
1100
0000
0001
0010
,
0001
0100
0001
0010
0100
1000
0010
1000
0100
0010
0100
0010
0001
1000
0001
1000
,
0001
0100
0010
1000
0001
0100
0010
1000
0002
0000
0000
0000
0000
0000
0000
0000
,
0000
0000
0000
0000
,
0000
0000
0000
0000
,
0003
0000
0000
0000
0001
1000
0100
0001
0100
1000
0001
0000
0000
1000
0100
0010
,
2002
0000
3003
0000
0001
1000
0010
0001
0010
1000
0001
0000
0000
0001
0010
0100
,
2002
0000
3003
0000
1000
0100
1000
0000
0001
0010
0001
0000
0100
0001
0100
0000
,
0010
0000
0000
1000
0000
0000
0010
0000
0000
0000
0000
0000
1000
0000
0000
0100
0000
0000
1000
0000
0000
0000
0000
0000
0001
0000
0000
0010
0000
0000
0001
0000
0000
0000
0000
0000
0100
0000
0000
0000
0001
0000
0000
0000
0100
0000
0000
0000
,
0010
0000
0000
0000
1000
0000
0000
0000
0010
0000
0000
0000
1000
0000
0000
0000
0000
0000
0100
0000
0000
0010
0000
0000
0001
0000
0000
0000
0000
0000
0100
0000
0000
0000
0000
0000
1001
0000
0000
0000
0000
0000
0110
0000
0000
0000
0000
0000
,
1001
0000
0000
0000
2020
3030
0220
0330
0202
0000
0303
0000
1001
0000
1000
0010
,
0100
0000
0001
0000
1001
0000
0001
0010
0100
0000
1000
0000
1020
0000
0130
0000
,
0210
0000
0301
0000
1002
0000
0100
0000
0103
0000
0001
0010
0110
0000
0100
1000
,
0001
0000
0100
0000
0110
0000
0010
1000
0001
0000
0010
0000
0012
0000
0103
0000
,
2010
3100
1002
0100
0013
0000
0101
0101
,
1100
1100
0101
1100
0101
0000
1010
1010
,
0011
0000
0011
0000
1010
0000
0001
0100
0010
0000
1000
0100
0110
0000
0110
0000
,
0011
0011
1001
0100
1001
0010
1020
0031
,
1200
0301
1002
0010
0013
0000
1001
0000
,
1000
0100
1000
0000
0001
0100
0001
0000
1000
0010
1000
0000
0001
0010
0001
0000
,
1000
0100
1000
0000
0001
0100
0010
1000
0001
0000
0100
0000
0110
0000
0010
1000
,
0001
0000
0010
0001
1000
0000
0100
1000
0001
0000
0100
0001
1000
0100
1000
0100
,
0010
0001
0010
0001
1000
0010
0100
0001
1000
0000
0000
0000
2002
0000
0000
0000
,
0000
0000
0000
0000
,
0000
0000
0000
0000
0000
0000
0000
0000
0000
0000
3003
0000
1001
0000
0001
0010
,
0100
0000
1000
0010
0100
0000
0001
0100
0001
0010
0000
0010
0100
0000
1000
0100
,
0010
0000
0001
0100
0010
1000
0010
1000
0001
0100
0001
0100
0001
0000
0010
1000
,
0010
0000
0001
1000
0100
1000
0100
0000
0010
0001
0000
0100
0001
0000
0010
1000
,
0010
0000
0110
0000
1000
0001
1000
0001
0010
0100
0010
0100
1000
0000
0010
0100
,
0101
0000
0001
0010
0100
1000
0010
1000
0100
1000
0010
1000
0100
0000
1000
0010
,
1010
0000
1000
0001
0100
0001
0010
0001
0100
0001
0010
0001
0100
0000
0001
0010
,
0011
0000
1000
0100
1000
0010
1000
0100
0010
0001
0100
0001
0010
0100
0010
0100
,
1000
0001
1000
0001
1000
0010
0100
0001
1000
0010
0100
0001
1000
0000
1000
0000
,
0001
0001
0020
0000
0130
0000
1001
0000
,
0110
0000
0000
0000
2002
0000
0000
0000
3003
0000
0000
0000
1000
0100
0010
0001
,
1000
0010
0100
0001
1000
0100
0010
0001
1000
0000
0001
0100
1000
0000
0001
0010
,
1000
0000
0001
0100
1000
0000
0000
0000
0110
0000
0000
0000
2002
0000
0000
0000
,
0000
3003
0000
0000
0000
0000
0000
0000
,
0000
0000
0000
0000
;
#NOTES:
     dance-single:
     :
     Challenge:
     18:
     :
0000
0000
0000
0000
,
0000
0000
0000
0000
,
0000
0000
0000
0000
,
0001
0100
0001
0000
1000
0010
1000
0010
1000
0100
1000
0000
0001
0010
0001
0010
,
0001
0000
0000
0100
0000
0000
0001
0000
0000
1000
0000
0000
0100
0000
0000
1000
0000
0000
0001
0000
0000
0100
0000
0000
0001
0000
0000
0000
0010
0000
0000
0000
1000
0000
0000
0000
0001
0000
0000
0000
0100
0000
0000
0000
1000
0000
0000
0000
,
0001
0010
0100
1000
0001
0010
0100
1000
0001
1000
0001
1000
0002
0000
0000
0000
,
0103
0000
1000
0100
0002
0000
0000
0000
1003
0010
0100
0000
0110
0000
0010
1000
0001
0000
0000
0000
0001
0000
0000
0000
0010
0000
0000
0000
0100
0000
0000
0000
,
2100
0000
0000
0000
3010
0000
0000
0000
1000
0000
0100
0010
0001
0000
0100
0010
,
2000
0000
0001
0000
3001
0000
0000
0000
0001
0000
0100
0000
1000
0000
1000
0100
,
0001
0000
0010
0000
1000
0000
1000
0010
0001
0000
0100
0010
1000
0000
0001
0000
,
1001
0000
1000
0001
1000
0000
0000
0000
1000
0000
1000
0000
0100
0000
0010
0000
,
0012
0000
0000
0000
0103
0000
0000
0000
0001
0000
0010
0100
1000
0000
0010
0100
,
0002
0000
1000
0000
1003
0000
0100
0010
0001
0000
0100
0010
0100
0000
0001
0000
,
0010
0100
1000
0001
0100
0000
0000
0000
1010
0000
1000
0000
1100
0000
0000
0000
,
0021
0001
0031
0000
1001
1000
1010
0001
,
0011
0100
0110
0000
0011
0100
1010
0100
,
0011
0000
0001
0000
1001
0000
1000
0100
0020
0000
0001
0000
0130
0000
1000
0000
,
0020
1000
0130
0001
0011
0010
0110
0100
,
1100
1000
1001
0000
0101
0100
1100
0100
,
0101
0000
0001
1000
0100
1000
0001
0000
1100
0000
0100
0000
0101
0000
0100
0000
,
1100
0000
1000
0001
0100
0000
0010
0000
1010
0000
0010
0000
0011
0000
0010
0000
,
1010
0000
1000
0000
0001
0010
0100
0000
1100
0000
0001
0000
0101
0000
1000
0000
,
1100
0000
0010
0000
0110
0000
1000
0001
1000
0000
0100
0000
0110
0000
0010
0001
,
0100
0000
0010
0000
0110
0000
0100
0001
0010
0000
0100
0000
0110
0000
1000
0010
,
0100
0000
0000
0000
0001
0000
0000
0000
0010
0000
0000
0000
0100
0000
0000
0000
1000
0000
0000
0000
0010
0000
0000
0000
0100
0000
0000
0000
0000
0000
0001
0000
0000
1000
0000
0000
0010
0000
0000
0000
0000
0000
1000
0000
0000
0001
0000
0000
,
0010
0000
0100
1000
0001
0000
0100
0001
1000
0100
0010
0001
0100
0010
1000
0001
,
0010
0100
1000
0001
0100
0000
0000
0000
0220
0000
0000
0000
0000
0000
0000
0000
,
0000
0000
0000
0000
,
0000
0000
0000
0000
0330
0000
0000
0000
1001
0000
0001
0100
0101
0000
1000
0100
,
1100
0000
0010
1000
0100
0010
0001
0000
1001
0000
0001
0010
0011
0000
1010
0000
,
0010
1000
0100
0010
0001
1000
0100
0010
0011
0000
0001
1000
1100
0000
1000
0001
,
0011
0000
0110
0000
0000
1001
0000
0000
1000
0010
1000
0001
0010
0001
1000
0100
,
1000
0001
0100
0001
1000
0010
0100
0001
0011
0000
0100
1000
1100
0000
0001
0010
,
0011
0001
1000
0100
0010
0001
1000
0100
0110
0000
1000
0010
1010
0000
0001
0100
,
0101
0001
1000
0010
0100
0001
1000
0010
1010
0000
0100
0001
0011
0000
0100
1000
,
1010
0010
1000
0100
0010
0001
0100
0010
1000
0100
0010
0100
1000
0100
0010
0100
,
1000
0010
1000
0010
0100
0001
0100
0001
2000
0000
0000
0000
0000
0000
0000
0000
,
0000
0000
0000
0000
,
0000
0000
0000
0000
3001
0100
0100
0220
,
0000
0000
0330
0000
1001
1000
0100
0001
0100
1000
1001
0000
0000
1001
0100
0010
,
2002
0000
3003
0000
1001
1000
0010
0001
0010
1000
1001
0000
0000
1001
0010
0100
,
2002
0000
3003
0000
1000
0100
0010
0000
0001
0100
0010
0100
0001
0010
0100
0000
,
1000
0000
0000
0001
0000
0000
0010
0000
0000
0001
0000
0000
1000
0000
0000
0010
0000
0000
0100
0000
0000
0010
0000
0000
1000
0000
0000
0100
0000
0000
0010
0000
0000
0001
0000
0000
0100
0000
0000
0000
0010
0000
0000
0000
1000
0000
0000
0000
,
0001
0000
0000
0000
0010
0000
0000
0000
0100
0000
0000
0000
1100
0000
0000
0000
0000
0000
1000
0000
0000
0010
0000
0000
1010
0000
0000
0000
0000
0000
0101
0000
0000
0000
0000
0000
0011
0000
0000
0000
0000
0000
0110
0000
0000
0000
0000
0000
,
1001
0000
0100
0010
0220
0330
0220
0330
2002
0000
3003
0000
0110
0000
0001
0000
,
0110
1000
0011
0100
1010
0100
0011
1000
,
0101
0000
1000
0000
0012
0000
1000
0000
1003
0000
1000
0100
0110
0000
0001
0000
,
0110
1000
1010
0100
0011
0100
1020
0130
,
0021
0000
0130
0000
1020
0000
0100
0000
0130
0000
1000
0100
0010
0000
0011
0000
,
0101
0110
1010
1000
1100
0100
0110
0011
,
1100
0000
0110
0000
0011
0000
1000
0100
0010
0000
0001
0100
0110
0000
1010
0000
,
1001
0010
0011
0110
1100
0001
0120
1030
,
0210
0301
1001
0100
0220
0330
2001
0000
,
3001
0010
0100
0000
1000
0010
0100
0000
0001
0010
0100
0000
1000
0100
0010
0000
,
0001
0100
0010
0000
2000
0000
3100
0001
0200
0000
2300
0000
3001
0000
0010
0001
,
0100
0000
0010
1000
0100
0000
0010
0001
0100
0000
0010
1000
0100
0010
0100
0010
,
0100
0001
0100
0001
0100
0010
0100
1000
1001
0000
0000
0000
0220
0000
0000
0000
,
0000
0000
0000
0000
,
0000
0000
0000
0000
0000
0000
0000
0000
0000
0000
0330
0000
1001
0000
1000
0010
,
1010
0000
0001
0010
0011
0000
0100
0001
0010
0100
1000
0000
1001
0000
1000
0100
,
1100
0000
0101
0000
0100
0001
0010
0100
1000
0001
0010
0100
1100
0000
1000
0001
,
0011
0000
0001
1000
1100
0000
0110
0000
0000
1001
0000
0000
0001
0100
0001
1000
,
0100
1000
0001
0010
0001
1000
0010
1000
0001
0100
0010
1000
1100
0000
0010
0001
,
0011
0000
1000
0100
1100
1000
0001
0010
0100
1000
0001
0010
0110
0000
0001
0100
,
0101
0000
1000
0010
1010
1000
0001
0100
0010
1000
0001
0100
0101
0000
0010
1000
,
1100
0000
0010
0001
0101
0100
0001
0010
0100
1000
0010
0100
0001
0010
0100
0010
,
0001
0010
0100
0010
0001
0100
0001
0100
0010
1000
0010
1000
0001
0000
0001
0000
,
0100
0010
1010
0000
1100
0000
1001
0000
,
0110
0000
0000
0000
2002
0000
0000
0000
3003
0000
0000
0000
0001
0100
1000
0100
,
0001
0000
0000
0010
0000
0000
1000
0000
0000
0010
0000
0000
0001
0000
0000
0100
0000
0000
1000
0000
0000
0100
0000
0000
0001
0000
0000
0000
0000
0000
1000
0000
0100
0000
0010
0000
0001
0000
0000
0000
0000
0000
1000
0000
0100
0000
0010
0000
,
0001
0000
0010
0100
1000
0000
0000
0000
1010
0000
0000
0000
2002
0000
0000
0000
,
0000
3003
0000
0000
0000
0000
0000
0000
,
0000
0000
0000
0000
;
#NOTES:
     dance-double:
     :
     Easy:
     10:
     :
00000000
00000000
00000000
00000000
,
00000000
00000000
00000000
00000000
,
00000000
00000000
00000000
00000000
,
00000001
00000010
00000001
00000100
,
00000010
00001000
00000010
00010000
,
00001000
00010000
00001000
00000000
00010000
00001000
00010000
00000000
,
00022000
00000000
00033000
00000000
00001000
00010000
00001000
00000000
,
01000000
00010000
00100000
01000000
,
02200000
03300000
10000000
11000000
,
01000000
00000000
01100000
00000000
00100000
00001000
00010000
00000000
,
00011000
00000000
00000000
00000000
00010000
00001000
00010000
00000000
,
00000100
00001000
00000010
00000100
,
00000220
00000000
00000330
00000000
00000001
00000100
00000001
00000000
,
00000100
00000010
00000100
00000000
00000010
00000000
00010000
00000000
,
00022000
00033000
00001000
00101000
,
00100000
00000000
00110000
00000000
00010000
01000000
00010000
00000000
,
20020000
30030000
10000000
10100000
,
00100000
01100000
01001000
00001000
,
00022000
00000000
00033000
00000000
00001000
00010000
00001000
00010000
,
00000100
00000000
00001000
00000000
00000010
00000100
00000010
00000000
,
00001001
00000000
00000000
00000000
00000001
00000010
00000001
00000010
,
00000100
00001000
00001010
00010010
,
00022000
00033000
00011000
00000000
,
01100000
00000000
10010000
00000000
,
01100000
00000000
10000000
01000000
,
00100000
00001000
00010000
00000100
,
00000010
00000001
00001000
00000000
00002002
00000000
00000000
00000000
,
00000000
00000000
00000000
00000000
,
00000000
00003003
00000001
00001000
,
00000010
00000100
00000010
00000000
00001000
00000000
00000100
00000000
,
00010000
00001000
00100000
00001000
,
00010000
00001000
00010000
00000000
00001000
00000000
01000000
00000000
,
00010000
00100000
01000000
11000000
,
10000000
00010000
00100000
00101000
,
00001000
00010000
00000010
00001010
,
00001000
00000100
00000010
00000011
,
00000001
00001000
00000001
00000000
00002002
00000000
00000000
00000000
,
00000000
00000000
00000000
00000000
,
00000000
00000000
00000000
00000000
,
00003003
00000000
00000001
00000000
00001000
00000000
00000100
00000010
,
00000100
00010000
00001000
00022000
,
00033000
00010000
00001000
00010000
,
00001000
01000000
00010000
01000000
,
00010000
00000000
00100000
01000000
00100000
00000000
00010000
10000000
,
00010000
20020000
30030000
10000000
,
00100000
00000000
01000000
00010000
01000000
00000000
00010000
00000000
,
00110000
00101000
00000000
00001000
,
00010000
00000000
00000100
00001000
00000100
00000000
00000110
00000000
,
00000010
00000000
00001001
00000000
00000000
00000000
00000001
00000100
,
00000010
00000000
00001000
00000100
00000010
00000000
00000001
00000000
,
00000010
00000000
00001000
00000000
00010000
00000000
01000000
10000000
,
00100000
00000000
01000000
00010000
00100000
00000000
01000000
00000000
,
10000000
00100000
00010000
00001000
,
00011000
00000000
00010000
00000000
00011000
00000000
00001000
00010000
,
00000100
00000000
00010000
00001000
01000000
00000000
00001000
00000000
,
00011000
00000000
00010000
00000000
00011000
00000000
00001000
00100000
,
00010000
00100000
01000000
20020000
,
00000000
00000000
00000000
00000000
,
00000000
00000000
00000000
00000000
00000000
30030000
10000000
00000000
,
00010000
00000000
00100000
01000000
00100000
00000000
00010000
00000000
,
01000000
00001000
00010000
00000010
,
00010000
00000000
00001000
00010000
00001000
00000000
00010000
00000000
,
00000100
00001000
00000010
00000100
,
00000101
00000001
00001000
00000010
,
00010010
00010000
00001000
00100000
,
00110000
00010000
01000000
00100000
,
10100000
00000000
10000000
00010000
10000000
00000000
02000000
00000000
,
00000000
03100000
00000000
00001000
,
00010000
00000000
00001000
00000000
00000000
00000000
00010000
00000100
,
00010000
00000000
00000010
00001000
00000010
00000000
00000100
00000010
,
00000100
00000010
00000100
00000000
00000000
00000000
00002002
00000000
,
00000000
00003003
00000000
00000000
00000000
00000000
00000000
00000000
,
00000000
00000000
00000000
00000000
;
#NOTES:
     dance-double:
     :
     Medium:
     14:
     :
00000000
00000000
00000000
00000000
,
00000000
00000000
00000000
00000000
,
00000000
00000000
00000000
00000000
,
00000001
00000100
00000001
00000000
00001000
00000100
00001000
00000000
,
00000100
00000000
00000000
00010000
00000000
00000000
00000100
00000000
00000000
00000000
00000000
00000000
00010000
00000000
00001000
00000000
00010000
00000000
00001000
00000000
00000000
00000000
00000000
00000000
,
00010000
00001000
01000000
00010000
00100000
01000000
01100000
00000000
,
20000000
00100000
30100000
00000000
00020000
01000000
01030000
00000000
10000000
00000000
00100000
00000000
10000000
00000000
00100000
00000000
,
01000000
00010000
01000000
00000000
00010000
00000000
00110000
00000000
,
00202000
00000000
00303000
00000000
00001000
00010000
00011000
00000000
,
00010000
00000000
00000010
00000000
00010010
00000000
00000000
00000000
00001000
00000000
00000010
00001000
00000010
00000000
00000100
00000000
,
00000001
00000000
00001000
00000001
00001000
00000000
00000000
00000000
00000001
00000000
00000010
00000000
00000001
00000000
00000010
00000000
,
00000100
00001000
00000100
00000000
00001000
00000000
00001010
00000000
,
00020020
00000000
00030030
00000000
00010000
00001000
00011000
00000000
,
00001000
00100000
00101000
00000000
00110000
00000000
01100000
00000000
,
22000000
00000000
33000000
00000000
10000000
01000000
10000000
01000000
,
00010000
00001000
00010000
00001000
00011000
00000000
00010010
00000000
,
00001010
00001000
00000001
00000000
00000001
00000010
00000100
00001000
,
00000010
00000100
00001000
00010000
00001000
00000100
00000001
00000000
,
00002002
00000000
00003003
00000000
00000001
00000100
00000001
00000100
,
00001000
00010000
00001000
00010000
00011000
00001000
00101000
00100000
,
00110000
00010000
10000000
00000000
10000000
00100000
01000000
00010000
,
00100000
01000000
00010000
00001000
00010000
01000000
10000000
00000000
,
20020000
00000000
30030000
00000000
11000000
01000000
11000000
00000000
,
00110000
00100000
00110000
00000000
00011000
00001000
00011000
00000000
,
00010000
00000000
00000100
00000000
00010000
00000000
00000100
00000000
00000000
00000000
00000000
00000000
00001000
00000000
00000000
00000100
00000000
00000000
00000010
00000000
00000000
00000001
00000000
00000000
,
00000100
00000010
00001000
00000100
00010000
00001000
00100000
00010000
,
01000000
00100000
01000000
00100000
01000000
00000000
00000000
00000000
20020000
00000000
00000000
00000000
00000000
00000000
00000000
00000000
,
00000000
00000000
00000000
00000000
,
00000000
00000000
00000000
00000000
30030000
00000000
00000000
00000000
10000000
00000000
00000000
10000000
01000000
00000000
00100000
00010000
,
00000000
00000000
00110000
00000000
00000000
01100000
00000000
00000000
11000000
00000000
00000000
10000000
00100000
00000000
00010000
00000000
,
00001000
00010000
00001000
00000000
00010000
00000000
01000000
00000000
00100000
00000000
00000000
00100000
00001000
00000000
00010000
00001000
,
00010000
00000000
00011000
00000000
00000000
00010010
00000000
00000000
00001010
00000000
00000000
00001000
00000100
00000000
00000100
00000000
,
00000001
00000000
00000100
00000000
00001000
00000000
00000000
00000000
00000001
00000000
00000000
00000001
00000010
00000000
00000000
00000010
,
00000100
00000000
00001000
00000000
00001100
00000000
00000000
00000000
00000100
00000000
00000000
00000100
00010000
00000000
00000000
00010000
,
00001000
00000000
01000000
00000000
01010000
00000000
00000000
00000000
00010000
00000000
00000000
00010000
00100000
00000000
00000000
00100000
,
01000000
00010000
00011000
00000000
00001000
00010000
00100000
01000000
,
00001000
00010000
01000000
00100000
00002000
00000000
00000000
00000000
,
00000000
00000000
00000000
00000000
,
00000000
00000000
00000000
00000000
,
00003000
00000000
00000000
00000000
00001000
00000000
00010000
00000000
00100000
01000000
00100000
00000000
00000000
00010000
00001000
00010000
,
00002000
00000000
00003000
00000000
00010000
00000000
00001000
00000000
00000010
00000100
00000010
00000000
00000000
00001000
00010000
00001000
,
00020000
00030000
00001000
00010000
00001000
00000000
01000000
00010000
,
01000000
00000000
00000000
00000000
00000000
00000000
00100000
00000000
00000000
10000000
00000000
00000000
01000000
00000000
00000000
00000000
00000000
00000000
10000000
00000000
00010000
00000000
10000000
00000000
,
00010000
00000000
00000000
00000000
10000000
00000000
01000000
00100000
01000000
00000000
00100000
00000000
01000000
00000000
00010000
00000000
,
00001000
00000000
00000000
00000000
00020000
00030000
00002000
00003000
00022000
00000000
00033000
00000000
00001000
00000000
00010000
00000000
,
00001000
00010000
00000010
00001000
00000010
00001000
00001100
00000000
,
00000110
00000000
00000012
00001000
00001003
00000000
00000001
00000100
,
00000010
00000100
00001000
00010000
00001000
00000000
00011000
00000000
,
00010100
00000000
00011000
00010000
00001000
00000000
00010000
00001000
,
00010000
00001000
00100000
00010000
00100000
00010000
01000000
00100000
,
01000000
00100000
20000000
00010000
30010000
00000000
10000000
01000000
,
00100000
01000000
00010000
00001000
00010000
00001000
00011000
00000000
,
01001000
00000000
00011000
00001000
00010000
00000000
00002000
00000000
,
00013000
00000100
00000010
00000100
00010000
00000100
00000010
00000001
,
00000100
00000000
00001000
00010000
00001000
00000000
00011000
00001000
,
00100000
00000000
00000000
00000000
00011000
00000000
00010000
00000000
00000100
00000000
00000000
00000000
00001000
00000000
00000010
00001000
,
00000010
00000000
00000100
00000001
00000100
00000000
00000010
00000000
00000110
00000000
00000000
00000000
00002002
00000000
00000000
00000000
,
00000000
00000000
00000000
00000000
,
00000000
00000000
00000000
00000000
00000000
00000000
00000000
00000000
00000000
00000000
00003003
00000000
00000001
00000000
00000000
00000001
,
00000100
00000000
00000010
00001000
00000000
00000000
00001010
00000000
00000000
00000110
00000000
00000000
00000101
00000000
00000000
00000001
,
00000010
00000000
00001000
00000000
00010000
00001000
00010000
00000000
00001000
00000000
00000100
00000000
00000010
00000000
00000000
00000010
,
00010000
00000000
00001000
00010000
00001000
00000000
00011000
00000000
00000000
00101000
00000000
00000000
00110000
00000000
00000000
00010000
,
01000000
00000000
01000000
00000000
10000000
00000000
01000000
00000000
00010000
00000000
00000000
00000000
10000000
00000000
00000000
10000000
,
00100000
00000000
00000000
00100000
01000000
00000000
00010000
00000000
01010000
00000000
00000000
00000000
01000000
00000000
00000000
01000000
,
00001000
00000000
00000000
00001000
00010000
00000000
00000100
00000000
00001100
00000000
00000000
00000000
00001000
00000000
00000000
00001000
,
00000010
00000000
00000000
00000010
00000100
00000000
00001000
00000000
00011000
00000000
00000000
00000000
00010000
00000000
00001000
00000000
,
00000010
00000100
00010000
00001000
00000100
00000010
00020000
00000000
,
00000000
00031000
00000000
00002000
,
00010000
00000000
00013000
00000000
00000000
00000000
00001000
00010000
,
00100000
00000000
10000000
01000000
00010000
00000000
00001000
00000010
,
00000001
00000100
00001000
00000000
00010000
00000000
00022000
00000000
,
00000000
00033000
00000000
00000000
00000000
00000000
00000000
00000000
,
00000000
00000000
00000000
00000000
;
#NOTES:
     dance-double:
     :
     Hard:
     17:
     :
00000000
00000000
00000000
00000000
,
00000000
00000000
00000000
00000000
,
00000000
00000000
00000000
00000000
,
00000001
00000100
00000001
00000000
00000100
00000001
00000100
00000000
00000010
00001000
00000010
00000000
00001000
00000010
00001000
00000000
,
00000010
00000000
00000000
00010000
00000000
00000000
00000010
00000000
00000000
00000000
00000000
00000000
00010000
00000000
00000000
00000010
00000000
00000000
00010000
00000000
00000000
00000000
00000000
00000000
00001000
00000000
00000000
00000000
00010000
00000000
00000000
00000000
00001000
00000000
00000000
00000000
00010000
00000000
00000000
00000000
00001000
00000000
00000000
00000000
00010000
00000000
00000000
00000000
,
00001000
00100000
00001000
00100000
00010000
00100000
00010000
00000000
00100000
01000000
00100000
01000000
20000000
00000000
00000000
00000000
,
30010000
00000000
01000000
00100000
20000000
00000000
00000000
00000000
31000000
00100000
00010000
00000000
10010000
00000000
00000000
00000000
11000000
00000000
00000000
00000000
01000000
00000000
00000000
00000000
00100000
00000000
00000000
00000000
00001000
00000000
00000000
00000000
,
00101000
00100000
00110000
00000000
01010000
01000000
01001000
00001000
,
00022000
00000000
00000000
00000000
00033000
00000000
00000000
00000000
00010000
00000000
00000100
00000000
00001100
00000000
00001000
00000010
,
00001000
00000000
00000010
00000000
00000110
00000000
00000100
00000010
00000100
00000000
00000001
00000100
00000001
00000000
00000010
00000000
,
00000100
00000000
00001000
00000001
00001000
00000000
00000000
00000000
00000101
00000000
00000100
00000000
00000010
00000000
00010000
00000000
,
00010010
00000010
00001010
00000000
00001100
00000100
00010100
00010000
,
00022000
00000000
00033000
00000000
00011000
00001000
01001000
01000000
,
01010000
00010000
00110000
00100000
01100000
00000000
11000000
00000000
,
20020000
00000000
30030000
00000000
10100000
00010000
01000000
00010000
,
10010000
10000000
01000000
00010000
00011000
00001000
00011000
00010000
,
00011000
00000000
00001000
00010000
00001000
00000000
00000000
00000000
00011000
00000000
00001000
00000000
00100000
00000000
00001000
00000000
,
00011000
00010000
00000010
00010000
00011000
00001000
00000010
00000001
,
00001001
00000100
00000010
00000000
00000011
00001000
00000100
00001000
,
00001001
00000001
00000100
00001000
00011000
00010000
00011000
00001000
,
00011000
00000000
00010000
00001000
00010000
00000000
00000000
00000000
00011000
00000000
00010000
00000000
00000010
00000000
00010000
00000000
,
00011000
00001000
00100000
00001000
00011000
00010000
00100000
10000000
,
10010000
01000000
00100000
00000000
21000000
31000000
10000000
00010000
,
00120000
00130000
00010000
00100000
00201000
00301000
00010000
00000100
,
00001000
00000000
00000000
00000000
00000010
00000000
00000000
00000000
00001000
00000000
00000000
00000000
00000100
00000000
00000000
00000000
00001000
00000000
00000000
00000000
00000100
00000000
00000000
00000000
00000010
00000000
00000000
00000000
00000000
00000000
00000001
00000000
00000000
00000100
00000000
00000000
00000010
00000000
00000000
00000000
00000000
00000000
00001000
00000000
00000000
00000100
00000000
00000000
,
00000010
00000000
00000001
00000100
00000010
00000000
00001000
00000010
00010000
00001000
00010000
00001000
01000000
00010000
01000000
00010000
,
10000000
00100000
10000000
00100000
10000000
00000000
00000000
00000000
20020000
00000000
00000000
00000000
00000000
00000000
00000000
00000000
,
00000000
00000000
00000000
00000000
,
00000000
00000000
00000000
00000000
30030000
00000000
00000000
00000000
10010000
00000000
10000000
00100000
01000000
00000000
00010000
00100000
,
01000000
00000000
10000000
01000000
00000000
01000000
00010000
00000000
00001000
00000000
00100000
00010000
00100000
00000000
00001000
00010000
,
00000100
00001000
00000100
00001000
00000001
00000010
00000001
00000010
00000001
00000000
00000100
00000010
00000100
00000000
00001000
00010000
,
00000000
00010000
00001000
00000000
00000010
00000001
00000000
00000001
00001000
00000000
00000010
00000100
00000010
00000000
00000110
00000000
,
00000001
00000100
00000001
00000100
00000010
00001000
00000010
00001000
00000010
00000000
00010000
00001000
00010000
00000000
00001000
00100000
,
00010000
00100000
00010000
00000000
01000000
00010000
01000000
00000000
00010000
00000000
10000000
01000000
10000000
00000000
01000000
00100000
,
00010000
00100000
00001000
00000000
00010000
00001000
00010000
00000000
00001000
00000000
00000010
00000001
00000010
00000000
00000001
00001000
,
00000100
00000010
00000001
00000000
00000100
00000001
00000100
00000000
00000001
00000100
00000010
00000100
00000001
00000010
00000100
00001000
,
00000100
00010000
00000100
00010000
00001000
00010000
00001000
00010000
00002000
00000000
00000000
00000000
00000000
00000000
00000000
00000000
,
00000000
00000000
00000000
00000000
,
00000000
00000000
00000000
00000000
,
00003000
00000000
00000000
00000000
00001000
00010000
00100000
10000000
00100000
00010000
00001000
00000000
00000000
00010000
00010000
00001000
,
00022000
00000000
00033000
00000000
00010000
00001000
00000010
00000001
00000010
00001000
00010000
00000000
00000000
00001000
00001000
00010000
,
00022000
00000000
00033000
00000000
00001000
01000000
00001000
00000000
00100000
00010000
00100000
00000000
00010000
01000000
00010000
00000000
,
00100000
00000000
00000000
00001000
00000000
00000000
00100000
00000000
00000000
00000000
00000000
00000000
00001000
00000000
00000000
00010000
00000000
00000000
00001000
00000000
00000000
00000000
00000000
00000000
00010000
00000000
00000000
00000010
00000000
00000000
00010000
00000000
00000000
00000000
00000000
00000000
00000010
00000000
00000000
00000000
00001000
00000000
00000000
00000000
00000010
00000000
00000000
00000000
,
00010000
00000000
00000100
00000000
00010000
00000000
00001000
00000000
00000000
00010000
00000000
00000000
00011000
00000000
00000000
00001000
00000000
00000000
01001000
00000000
00000000
01000000
00000000
00000000
,
01100000
00000000
00000000
00000000
20200000
30300000
02200000
03300000
02020000
00000000
03030000
00000000
10010000
00000000
10000000
01000000
,
00100000
00000000
00010000
00000000
00110000
00000000
00100000
00001000
00010000
00000000
00000000
00000000
00021000
00000000
00030100
00000000
,
00020100
00000000
00031000
00000000
00011000
00000000
00010000
00000000
00011000
00000000
00001000
00010000
00001000
00000000
00010000
00000010
,
00001000
00000000
00000100
00000000
00000110
00000000
00000010
00000001
00000100
00000000
00000010
00000000
00002010
00000000
00003001
00000000
,
00000012
00000000
00001003
00000000
00002001
00000000
00000100
00000000
00003100
00000000
00000000
00000000
00001001
00000000
00000001
00000100
,
00000010
00000000
00001000
00000000
00001010
00000000
00000010
00010000
00001000
00000000
00000000
00000000
00012000
00000000
01003000
00000000
,
01002000
00000000
00013000
00000000
00011000
00000000
00001000
00000000
00011000
00000000
00010000
00001000
00010000
00000000
00001000
00100000
,
00010000
00000000
01000000
00000000
01100000
00000000
00100000
10000000
01000000
00000000
00100000
00000000
00120000
00000000
10030000
00000000
,
20100000
30010000
10020000
01000000
01030000
00000000
10010000
00000000
,
10000000
01000000
10000000
00000000
01000000
00100000
01000000
00000000
00100000
00010000
00100000
00000000
00001000
00010000
00001000
00000000
,
00010000
00000100
00010000
00000000
00000100
00001000
00000100
00000010
00000100
00000000
00001000
00000000
00001001
00000000
00000001
00000010
,
00000100
00000000
00001000
00000010
00000100
00000000
00001000
00010000
00001000
00000000
00011000
00000000
00010000
00001000
00010000
00000100
,
00001000
00000100
00001000
00000100
00000010
00000001
00001000
00000001
00001000
00000000
00000000
00000000
00002002
00000000
00000000
00000000
,
00000000
00000000
00000000
00000000
,
00000000
00000000
00000000
00000000
00000000
00000000
00000000
00000000
00000000
00000000
00003003
00000000
00001001
00000000
00000001
00000010
,
00000100
00000000
00001000
00000010
00000100
00000000
00000001
00000100
00000000
00000100
00001000
00000000
00010000
00000000
00000010
00001000
,
00000010
00000000
00010000
00001000
01000000
00010000
01000000
00010000
10000000
00100000
10000000
00100000
10000000
00000000
01000000
00100000
,
01000000
00000000
00010000
00001000
00000000
00001000
00010000
00000000
00100000
10000000
00000000
10000000
00010000
00000000
00100000
01000000
,
00100000
00000000
01100000
00000000
10000000
01000000
10000000
01000000
00100000
00010000
00100000
00010000
00100000
00000000
00001000
00010000
,
00001000
00000000
00010000
00000010
00001000
00000010
00001000
00000000
00000100
00001000
00000100
00000000
00001000
00000000
00000001
00000100
,
00000001
00000000
00000100
00000010
00001000
00000010
00010000
00000000
00001000
00010000
00001000
00000000
00010000
00000000
00100000
10000000
,
00100000
00000000
10000000
00010000
01000000
00100000
10000000
00000000
01000000
10000000
01000000
00000000
10000000
01000000
00100000
01000000
,
10000000
00100000
01000000
00010000
01000000
00001000
01000000
00001000
00010000
00001000
00010000
00001000
00010000
00000000
00010000
00000000
,
00001000
00001000
00000200
00000000
00000301
00000000
00001001
00000000
,
00000110
00000000
00000000
00000000
00002002
00000000
00000000
00000000
00003003
00000000
00000000
00000000
00000001
00000100
00000010
00001000
,
00000100
00000010
00001000
00010000
00001000
01000000
00010000
00100000
00010000
01000000
00100000
10000000
01000000
00000000
10000000
00100000
,
00010000
00000000
00001000
00000100
00000001
00000000
00000000
00000000
00000110
00000000
00000000
00000000
00002002
00000000
00000000
00000000
,
00000000
00003003
00000000
00000000
00000000
00000000
00000000
00000000
,
00000000
00000000
00000000
00000000
;
#NOTES:
     dance-double:
     :
     Challenge:
     18:
     :
00000000
00000000
00000000
00000000
,
00000000
00000000
00000000
00000000
,
00000000
00000000
00000000
00000000
,
00000001
00000100
00000001
00000000
00000010
00000100
00000010
00000100
00001000
00000100
00001000
00000000
00000100
00010000
00000100
00010000
,
00001000
00000000
00000000
00010000
00000000
00000000
00001000
00000000
00000000
00000000
00000000
00000000
00100000
00000000
00000000
00010000
00000000
00000000
00100000
00000000
00000000
00010000
00000000
00000000
01000000
00000000
00000000
00000000
00100000
00000000
00000000
00000000
10000000
00000000
00000000
00000000
01000000
00000000
00000000
00000000
00100000
00000000
00000000
00000000
00010000
00000000
00000000
00000000
,
01000000
00100000
10000000
00010000
01000000
00100000
10000000
00010000
01000000
00000000
00001000
00010000
00002000
00000000
00000000
00000000
,
00013000
00000000
00001000
00000010
00000002
00000000
00000000
00000000
00001003
00000010
00000100
00000000
00000110
00000000
00000100
00000001
00001000
00000000
00000000
00000000
00001000
00000000
00000000
00000000
00000001
00000000
00000000
00000000
00000100
00000000
00000000
00000000
,
00000120
00000000
00000000
00000000
00010030
00000000
00000000
00000000
00011000
00000000
00001000
01000000
00001000
00000000
00100000
00010000
,
00200000
00000000
01000000
00000000
01300000
00000000
00000000
00000000
10000000
00000000
00100000
00000000
10100000
00000000
10000000
00100000
,
01000000
00000000
10000000
00000000
11000000
00000000
01000000
00100000
10000000
00000000
01000000
00100000
00010000
00000000
00100000
00000000
,
00101000
00001000
00011000
00000000
00010000
00010000
00000100
00001000
,
00001020
00000000
00000000
00000000
00000130
00000000
00000000
00000000
00000101
00000000
00000001
00000010
00000100
00000000
00001000
00000100
,
00000020
00000000
00000001
00000000
00000031
00000000
00000010
00000100
00000010
00000000
00000001
00000100
00000001
00000000
00000100
00000000
,
00000010
00001000
00000010
00010000
00001000
00000000
00000000
00000000
00011000
00000000
00000000
00000000
01010000
00000000
00000000
00000000
,
10200000
10000000
10300000
00000000
11000000
01000000
01100000
00100000
,
00101000
00001000
00011000
00000000
00011000
00100000
00011000
00000010
,
00011000
00000000
00100000
00000000
00011000
00000000
00010000
00000100
00002000
00000000
00000010
00000000
00003010
00000000
00000100
00000000
,
00000002
00000010
00000013
00000100
00001100
00001000
00001001
00000001
,
00000011
00000010
00001001
00000000
00000101
00000100
00000110
00000010
,
00010010
00010000
00011000
00000000
00011000
00000010
00011000
00100000
,
00011000
00000000
00000010
00010000
00001000
00000000
01000000
00000000
00020000
00000000
00100000
00000000
00130000
00000000
01000000
00000000
,
20000000
00100000
30100000
01000000
01010000
00010000
10010000
10000000
,
10100000
00000000
00100000
00000000
10010000
00000000
00000000
00000000
10100000
00000000
00100000
01000000
00010000
00000000
01000000
00000000
,
01010000
00000000
00010000
00100000
00001000
00000000
00010000
00000000
00011000
00000000
00001000
00010000
00000010
00000000
00001000
00000000
,
00000010
00000000
00000000
00000000
00000100
00000000
00000000
00000000
00000001
00000000
00000000
00000000
00000010
00000000
00000000
00000000
00000100
00000000
00000000
00000000
00001000
00000000
00000000
00000000
00000010
00000000
00000000
00000000
00000000
00000000
00000100
00000000
00000000
00000010
00000000
00000000
00000100
00000000
00000000
00000000
00000000
00000000
00000001
00000000
00000000
00001000
00000000
00000000
,
00000001
00000000
00000010
00000100
00000010
00000000
00000001
00000100
00000010
00001000
00000100
00010000
00001000
00100000
00010000
01000000
,
00100000
10000000
01000000
00000000
01100000
00000000
00000000
00000000
20020000
00000000
00000000
00000000
00000000
00000000
00000000
00000000
,
00000000
00000000
00000000
00000000
,
00000000
00000000
00000000
00000000
30030000
00000000
00000000
00000000
10000000
00100000
10100000
00000000
00010000
00100000
00110000
00000000
,
10000000
01000000
10000000
01000000
00100000
00010000
00100000
00001000
00010000
00001000
00011000
00000000
00001000
00010000
00011000
00000000
,
00000100
00010000
00000010
00001000
00000100
00010000
00000010
00001000
00000100
00001000
00001010
00000000
00000100
00000001
00000011
00000000
,
00000110
00000000
00001100
00000000
00000000
00001001
00000000
00000000
00000001
00000101
00000000
00001000
00001100
00000000
00001001
00000000
,
00000001
00001000
00000010
00000100
00000001
00000010
00000100
00001000
00000100
00010000
00011000
00000000
01000000
00001000
00011000
00000000
,
00001000
00100000
00010000
01000000
00001000
00100000
00010000
01000000
00010000
00100000
00110000
00000000
01000000
00010000
01010000
00000000
,
00010000
01000000
00100000
10000000
00010000
00100000
01000000
10000000
01000000
00100000
01100000
00000000
00010000
10000000
10010000
00000000
,
10000000
00100000
10000000
00100000
01000000
00010000
01000000
00010000
00100000
00001000
00010000
00001000
00100000
00001000
00010000
00001000
,
00010000
00000100
00010000
00000100
00001000
00000100
00000010
00000000
00000220
00000000
00000000
00000000
00000000
00000000
00000000
00000000
,
00000000
00000000
00000000
00000000
,
00000000
00000000
00000330
00000000
00000001
00000100
00000010
00002002
,
00000000
00000000
00003003
00000000
00001001
00000001
00000100
00001000
00010000
00010000
00011000
00000000
00000000
00001000
00010000
00100000
,
20000000
00000000
30010000
00000000
10010000
10000000
01000000
00010000
00001000
00001000
00011000
00000000
00000000
00010000
00001000
00000010
,
00000002
00000000
00001003
00000000
00000001
00000010
00000001
00000000
00000100
00000010
00000100
00000010
00001000
00000010
00001000
00000000
,
00000010
00000000
00000000
00010000
00000000
00000000
00000010
00000000
00000000
00010000
00000000
00000000
00001000
00000000
00000000
00010000
00000000
00000000
00001000
00000000
00000000
00000000
00000000
00000000
01000000
00000000
00000000
00010000
00000000
00000000
01000000
00000000
00000000
00010000
00000000
00000000
00100000
00000000
00000000
00000000
01000000
00000000
00000000
00000000
10000000
00000000
00000000
00000000
,
00100000
00000000
00000000
00000000
01000000
00000000
00000000
00000000
00010000
00000000
00000000
00000000
00100000
00000000
00000000
01000000
00000000
00000000
10000000
00000000
00000000
00000000
00000000
00000000
11000000
00000000
00000000
00000000
00000000
00000000
01100000
00000000
00000000
00000000
00000000
00000000
00101000
00000000
00000000
00000000
00000000
00000000
00001000
00000000
00000000
00010000
00000000
00000000
,
00002000
00000000
00003000
00000000
00022000
00033000
00000220
00000330
00002002
00000000
00003003
00000000
00000011
00000000
00000001
00000000
,
00000101
00000000
00000001
00000000
00000011
00000000
00000110
00000000
00001100
00000000
00001000
00000001
00001000
00000000
00000001
00000100
,
00001000
00010000
00012000
00010000
00013000
00000000
00011000
00100000
,
00011000
00000010
00011000
00100000
00011000
00000010
00012000
01003000
,
00012000
00000000
00103000
00000000
00011000
00000000
00010000
00100000
01000000
00000000
00000000
00000000
10100000
00000000
10000000
00000000
,
11000000
00000000
10000000
00000000
10100000
00000000
01100000
00000000
01010000
00000000
00010000
10000000
00010000
00000000
10000000
01000000
,
00010000
00001000
00021000
00001000
00031000
00000000
00011000
00000010
,
00011000
00100000
00011000
00000010
00011000
00100000
00021000
00030100
,
00021000
00000000
00030010
00000000
00011000
00000000
00001000
00000010
00000100
00000000
00000000
00000000
00002001
00000000
00000000
00000000
,
00003001
00000100
00000010
00000000
00001000
00000100
00000010
00000000
00000001
00000100
00000010
00000000
00001000
00000100
00010000
00000000
,
00001000
00100000
00010000
00000000
02000000
00000000
03100000
10000000
00200000
00000000
02300000
00000000
03010000
00000000
00100000
00001000
,
00010000
00000000
00001000
01000000
00010000
00000000
00100000
00001000
00010000
00000000
00001000
00100000
00010000
01000000
00010000
01000000
,
00001000
00010000
00001000
00010000
00000010
00001000
00000010
00001000
00000001
00000000
00000000
00000000
00002002
00000000
00000000
00000000
,
00000000
00000000
00000000
00000000
,
00000000
00000000
00000000
00000000
00000000
00000000
00000000
00000000
00000000
00000000
00003003
00000000
00000001
00000010
00000011
00000000
,
00001000
00000010
00001010
00000000
00000001
00000100
00000001
00000100
00000010
00001000
00000010
00010000
00001000
00010000
00011000
00000000
,
00010000
00001000
00011000
00000000
01000000
00001000
00100000
00010000
01000000
00001000
00100000
00010000
01000000
00010000
00110000
00000000
,
01000000
10000000
10100000
00000000
01100000
00000000
01010000
00000000
00000000
10010000
00000000
00000000
10000000
11000000
00000000
00010000
,
01010000
00000000
10010000
00000000
10000000
00010000
00100000
01000000
10000000
00100000
01000000
00010000
01000000
00001000
00011000
00000000
,
00000100
00010000
00011000
00000000
00010000
00000010
00001000
00000100
00010000
00000010
00001000
00000100
00001000
00000010
00001010
00000000
,
00000100
00001000
00001100
00000000
00001000
00000100
00000010
00000001
00001000
00000010
00000100
00000001
00000100
00000010
00000110
00000000
,
00001000
00000001
00001001
00000000
00000001
00000010
00000001
00000010
00000100
00001000
00000100
00001000
00000010
00010000
00001000
00010000
,
00000010
00010000
00001000
00010000
00001000
01000000
00001000
01000000
00010000
01000000
00100000
00000000
10000000
00000000
10000000
00000000
,
01000000
00100000
00101000
00000000
00011000
00000000
00010000
01000000
,
00100000
00000000
00000000
00000000
02200000
00000000
00000000
00000000
03300000
00000000
00000000
00000000
10000000
00100000
01000000
00010000
,
10000000
00000000
00000000
01000000
00000000
00000000
00100000
00000000
00000000
00010000
00000000
00000000
10000000
00000000
00000000
01000000
00000000
00000000
00010000
00000000
00000000
00001000
00000000
00000000
00000010
00000000
00000000
00000000
00000000
00000000
00000001
00000000
00000010
00000000
00000001
00000000
00000010
00000000
00000000
00000000
00000000
00000000
00000100
00000000
00001000
00000000
00000100
00000000
,
00001000
00000000
00000100
00010000
00001000
00000000
00000000
00000000
00001000
00000000
00000000
00000000
00022000
00000000
00000000
00000000
,
00000000
00033000
00000000
00000000
00000000
00000000
00000000
00000000
,
00000000
00000000
00000000
00000000
;
