
//----- song ID: snhb -----//
#TITLE:新蛇姫;
#ARTIST:BEMANI Sound Team "U1-ASAMi";
#TITLETRANSLIT:SHIN HEBI HIME;
#BANNER:SHIN HEBI HIME.png;
#BACKGROUND:SHIN HEBI HIME-bg.png;
#CDTITLE:./CDTitles/DDR A3.png;
#MUSIC:SHIN HEBI HIME.ogg;
#SAMPLESTART:102.262;
#SAMPLELENGTH:15;
#BPMS:0=115,36=230,224=115,240=230,272=115,280=230,296=115,304=230;
#STOPS:95.938=1.043;
#STAGE:29;
#NOTES:
     dance-single:
     :
     Beginner:
     5:
     :
0000
0000
0000
0000
,
0000
0000
0000
0000
,
0000
0000
0000
0000
,
0000
0000
0000
0000
,
0000
0000
0000
0000
,
0001
0001
0010
0000
,
0001
0100
0010
0000
,
0100
0100
1000
0000
,
1001
0000
0000
0000
,
1001
0000
0000
0000
,
0000
0000
0000
0000
,
0000
0000
0000
0000
,
0000
0000
0000
0000
,
1000
0000
0000
0000
,
0100
0000
0000
0000
,
1000
0000
1000
0000
,
0010
0000
0000
0000
,
0100
0000
0000
0000
,
0010
0000
0000
0000
,
0010
0000
0010
0000
,
0001
0000
0000
0000
,
0001
0000
0001
0000
,
0100
0000
0100
0000
,
0010
0000
0010
0000
,
0000
0000
0000
0000
,
1001
0000
0000
0000
,
0001
0000
0100
0000
,
1000
0000
0000
0000
,
0200
0000
0000
0000
,
0300
0000
0000
0000
,
1000
0000
0010
0000
,
0001
0000
0000
0000
,
0001
0000
0100
0000
,
0010
0000
0000
0000
,
0100
0000
0000
0000
,
0100
0000
0000
0000
,
0010
0000
0010
0000
,
1000
0000
0000
0000
,
0100
0000
0000
0000
,
1001
0000
0000
0000
,
1000
0000
1000
0000
,
0100
0000
0010
0000
,
0100
0000
0000
0000
,
0000
0000
0000
0000
,
0001
0000
0001
0000
,
0010
0000
0100
0000
,
0010
0000
0000
0000
,
0000
0000
0000
0000
,
0001
0000
0010
0000
,
0100
0000
0010
0000
,
1000
0000
0000
0000
,
0000
0000
0000
0000
,
1000
0000
0100
0000
,
0010
0000
0100
0000
,
0001
0000
0000
0000
,
0000
0000
0000
0000
,
0002
0000
0000
0000
,
0003
0000
0000
0000
,
2000
0000
0000
0000
,
3000
0000
0000
0000
,
0001
0000
0000
0000
,
0010
0000
0000
0000
,
0100
0000
0000
0000
,
1000
0000
0000
0000
,
1000
0000
0100
0000
,
1000
0000
0000
0000
,
0100
0000
0010
0000
,
0100
0000
0000
0000
,
0002
0000
0003
0000
,
0001
0001
0010
0000
,
1001
0000
0000
0000
,
0000
0000
0000
0000
,
1001
0000
0000
0000
,
0000
0000
0000
0000
,
2000
0000
3000
0000
,
1000
1000
0100
0000
,
1001
0000
0000
0000
,
0000
0000
0000
0000
,
1001
0000
0000
0000
,
0000
0000
0000
0000
,
1000
0000
0100
0000
,
1000
0000
0000
0000
,
0100
0000
0010
0000
,
0100
0000
0001
0000
,
0001
0000
0010
0000
,
0001
0000
0000
0000
,
0001
0000
0100
0000
,
0010
0000
0010
0000
,
0001
0000
0000
0000
,
0100
0000
0000
0000
,
0001
0000
0010
0000
,
1000
0000
0000
0000
,
1000
0000
0100
0000
,
0100
0000
1000
0000
,
0010
0000
0010
0000
,
0001
0001
0000
1001
,
0000
0000
0000
0000
;
#NOTES:
     dance-single:
     :
     Easy:
     10:
     :
0000
0000
0000
0000
,
0000
0000
0000
0000
,
0000
0000
0000
0000
,
0000
0000
0000
0000
,
0000
0000
0000
0000
,
0001
0100
0010
0000
0100
0010
1000
0000
,
0001
0010
0100
0000
0010
0100
1000
0000
,
0001
0100
0001
0001
1000
0100
1000
1000
,
0010
0000
0110
0000
1000
0001
1000
0000
,
2002
0000
0000
0000
,
0000
0000
0000
0000
,
0000
0000
0000
0000
,
0000
0000
0000
3003
,
1000
0000
0010
0000
1000
0000
0000
0100
,
0000
0100
0000
1000
,
0001
0010
0000
0000
0001
0000
0000
0100
,
0000
0100
0000
0001
,
1000
0100
0010
0001
,
0010
0100
1000
0000
,
0001
0100
0010
1000
,
0010
0100
0001
0000
,
1000
0010
1000
0010
,
0100
0000
0001
0000
0100
0000
0001
1000
,
0000
0010
0000
0000
0010
0000
0000
0010
,
0000
1000
0000
0001
,
0000
0100
0000
0010
,
1000
0100
1000
0001
,
0100
0000
0010
0100
0010
0000
0000
0000
,
2002
0000
0000
3003
,
0000
0001
0000
1000
,
0010
1000
0100
0010
,
0001
0001
1001
0000
,
0000
0010
0000
0100
,
0000
0010
0000
0100
,
0110
1000
0001
1000
,
0100
0100
0100
0000
,
0000
0010
0000
0100
,
0000
0010
0000
0100
,
0110
0001
0100
0010
,
2000
0000
0000
3000
,
0001
0100
0000
0000
0001
0000
0000
0000
,
1000
0100
0000
1000
0000
0000
1000
0000
,
0001
0010
0001
1000
,
0010
1000
0001
0000
,
1000
0010
0000
0000
0100
0000
0000
0000
,
0001
0010
0000
0001
0000
0000
0001
0000
,
0100
0010
1000
0001
,
0010
0100
0110
0000
,
1000
0010
0000
0000
1000
0000
0000
0000
,
0001
0010
0000
0001
0000
0000
0001
0000
,
1000
0100
1000
0001
,
0100
0001
1000
0000
,
0001
0100
0010
0010
,
1000
0100
1000
1000
,
0010
0100
0001
1000
,
0100
0010
0110
0000
,
0101
0000
1100
0000
,
0001
1000
0001
1000
0000
0000
0000
0000
1001
0000
0000
0000
0000
0000
0000
0000
,
1010
0000
0011
0000
,
0110
0000
1001
0000
,
1000
0010
0100
0000
,
0010
0100
0001
0000
,
0001
0010
0100
0000
,
0010
0100
1000
0000
,
0001
0100
0010
1000
,
0001
0010
0100
1000
,
0001
0100
1000
0100
,
0001
0010
1000
0010
,
0001
0100
0002
0000
1003
1000
0010
0000
,
1000
0010
0200
0000
0310
0010
1000
0000
,
0001
0100
0101
0000
,
1000
0100
1100
0000
,
0011
0000
1010
0000
,
0001
1000
1001
0000
,
1000
0010
2000
0000
3001
0001
0100
0000
,
0001
0100
0020
0000
0130
0100
0001
0000
,
1000
0010
1010
1000
,
0001
0010
0000
0011
,
0001
0000
0101
0000
,
1000
0001
1001
0000
,
1000
0010
0100
0010
,
1000
0100
0010
0000
,
0001
0100
1000
0100
,
0001
1000
1001
0000
,
0001
0010
0100
1000
,
0010
0100
0010
0000
,
1000
0001
0010
0001
,
0100
0010
0110
0000
,
1000
0010
0100
0010
,
1000
0000
0001
0010
0000
0001
0100
0000
,
0010
1000
0100
1000
,
0001
0100
0110
0000
,
1000
0001
0100
0010
,
0100
0000
0001
0010
0000
0100
1000
0000
,
0001
0100
0001
0000
1000
0100
1000
0000
,
0010
0100
0110
1001
,
0000
0000
0000
0000
;
#NOTES:
     dance-single:
     :
     Medium:
     14:
     :
0000
0000
0000
0000
,
0000
0000
0000
0000
,
0000
0000
0000
0000
,
0000
0000
0000
0000
,
0000
0000
0000
0000
,
1000
0000
0100
0000
0010
0001
0010
0000
0001
0000
0100
0000
0110
0000
0010
0000
,
1000
0000
0001
0000
0010
0100
0010
0000
0001
0000
0001
0000
0110
0000
0000
0000
,
1000
0000
0010
0000
0100
0000
0001
0010
0001
1000
0010
1000
0100
0000
0000
0000
,
1000
0000
0000
1000
0000
0000
0100
0000
0010
0000
0010
0000
0001
0000
0000
0000
,
2002
0000
0000
0000
,
0000
0000
0000
0000
,
0000
0000
0000
0000
,
0000
0000
0000
3003
,
0001
0000
0100
0000
0010
0000
0000
1010
,
0000
1001
0000
0001
,
1000
0100
0000
0000
0010
0000
0000
0011
,
0000
1001
0000
1000
,
0001
0010
0100
0000
1000
0000
0010
0000
,
0100
0001
0010
0000
0100
0000
0010
0000
,
0001
0100
0010
0000
1000
0000
0001
0000
,
0100
0010
0100
0000
0001
1000
0001
0000
,
1000
0100
0010
0000
0001
0000
0100
0000
,
1000
0100
0010
0000
1000
0000
0100
0010
,
0000
0010
0001
0000
0100
0000
0100
0010
,
0100
1001
0010
1001
,
0001
0011
1000
1010
,
0001
0000
0010
0100
0000
1000
0010
0000
,
1000
0100
0010
0001
0100
0001
1000
0000
,
0002
0000
0000
1003
,
0100
0011
0100
1010
,
1000
0100
1000
0000
0001
0100
0001
0000
,
0010
0000
0100
1000
0000
0001
0100
0001
,
0100
0010
1000
0001
0100
0000
0110
0000
,
0001
0000
1001
0000
1000
0100
0010
0000
,
0001
0100
0001
0100
0010
1000
0010
1000
,
0100
0000
0110
0000
0001
1000
0001
0000
,
1000
1100
0001
0101
,
1000
0110
0001
0110
,
1000
0010
0000
0001
0010
0000
1000
0100
,
0020
0000
0000
0030
,
0001
1000
0100
1000
0010
0100
0010
0000
,
1000
0100
0000
0110
0000
0010
0001
0000
,
1000
0100
0010
0000
0001
0100
0010
0000
,
1000
0100
0010
0000
0001
0100
0010
0000
,
1000
0001
0010
0001
0100
0010
0100
0000
,
0001
0010
0000
0110
0000
0100
1000
0000
,
0001
1000
0100
0000
1000
0001
0100
0000
,
0001
1000
0010
0000
0110
0000
1001
0000
,
0001
1000
0010
1000
0100
0010
0001
0000
,
1000
0010
0000
0110
0000
0100
0001
0000
,
1000
0010
0100
0000
0001
0010
0100
0000
,
1000
0010
0100
0000
0001
0010
0100
0000
,
1000
0001
0100
0001
0000
0010
0100
1000
,
0000
0001
0100
0010
0000
1000
0100
0010
,
0001
1000
0010
0000
1000
0001
0010
0000
,
0001
1000
0100
0000
0110
0000
1001
0000
,
0001
0100
0010
0000
1000
0010
0000
0010
0000
0000
1000
0000
0100
0010
0000
0000
,
0001
0100
0001
0100
0001
1000
0000
1000
0000
0000
0010
0000
0100
0001
0000
0000
,
1000
0000
0010
0000
0001
0000
0000
0010
1000
0000
0100
0000
0001
0000
0000
0100
,
1000
0000
0010
0000
0001
0000
0000
1000
0100
0000
0001
0000
0010
0000
0000
1000
,
0010
0010
0001
0001
,
1000
1000
0100
0100
,
1000
0010
1000
0000
0001
0010
0001
0000
,
1000
0100
1000
0000
0001
0100
0001
0000
,
1000
0010
1000
0010
0100
0000
0011
0000
,
0010
0001
0010
0001
0100
0000
1010
0000
,
0010
1000
0010
1000
0100
0010
0100
0010
,
0001
0000
0001
0100
0010
0000
0110
0000
,
1000
0010
0100
0000
0020
1000
1030
0000
1000
0000
0100
0000
0001
0000
0100
0000
,
1000
0001
0010
0002
0100
0100
0103
0000
0010
0000
1010
0000
1000
0200
0001
0000
,
1300
0000
1010
0000
0001
0100
0010
0000
,
1000
0000
1100
0000
0001
0010
0100
0000
,
2000
0000
0100
0000
3001
0100
0001
0010
,
0002
0000
0100
0000
1003
0100
1000
0000
,
0001
0100
0010
0000
0200
0001
0301
0000
0001
0000
0010
0000
1000
0000
0010
0000
,
0001
1000
0100
2000
0010
0010
3010
0000
0100
0000
0101
0000
0001
0020
1000
0000
,
0031
0000
0101
0000
1000
0010
0110
0000
,
0001
0000
0011
0000
1000
0100
0110
0000
,
0002
0000
0010
0000
1003
0010
1000
0100
,
2000
0000
0010
0000
3001
0010
0001
0000
,
1000
0100
1000
0000
0001
0010
0100
1000
,
0010
0000
0110
0000
1000
0001
1000
0000
,
0001
0100
0001
0000
1000
0010
1000
0100
,
0010
0000
0011
0000
0001
1000
0100
0000
,
1000
0010
0001
0000
0001
0010
1000
0000
,
0001
0100
0010
1000
0100
0000
1001
0000
,
0100
0000
0010
0000
0110
0000
0001
0010
,
0100
0001
0100
0000
1000
0001
0100
0001
,
1000
0010
0000
0000
1010
0000
0001
0100
,
0010
0000
1010
0000
0001
0010
0011
0000
,
1000
0001
0010
0000
0200
0000
2300
0000
,
3001
0010
0001
0100
0000
0100
0010
0000
,
1000
0001
0101
0000
0001
0010
0100
1000
,
0010
0000
0110
0000
1000
0001
1001
0000
,
1000
0100
0010
0001
0100
0010
1000
0000
,
0100
0010
0001
0100
0001
0000
1001
0000
,
0000
0000
0000
0000
;
#NOTES:
     dance-single:
     :
     Hard:
     17:
     :
0000
0000
0000
0000
,
0000
0000
0000
0000
,
0000
0000
0000
0000
,
0000
0000
0000
0000
,
0000
0000
0000
0000
,
1000
0100
0010
0001
1000
0100
0010
0001
1000
0000
1000
0000
1001
0000
0000
0000
,
0001
0100
0010
1000
0001
0100
0010
1000
0001
0000
0001
0000
1001
0000
1000
0010
,
1000
0100
0010
0001
1000
0010
0100
0001
1000
0100
1000
0100
0010
0000
0110
0000
,
1002
0000
0000
1000
0000
0000
1003
0000
0100
0000
0100
0000
0110
0000
0000
0000
,
2002
0000
0000
0000
,
0000
0000
0000
0000
,
0000
0000
0000
0000
,
0000
0000
0000
3003
,
0001
0100
1000
0000
0100
0010
1000
0100
,
0000
0110
0000
0110
,
1000
0100
0001
0000
0100
0010
0001
0100
,
0000
0110
0000
0110
,
0001
0100
0001
0100
0010
0001
0010
0001
,
1000
0100
1000
0100
0001
1000
0001
1000
,
0100
0001
0100
0001
1000
0010
1000
0010
,
0001
0000
1000
0000
0001
0000
0100
0000
0010
0100
0010
0100
0010
0000
1000
0000
,
0001
0010
0100
0010
0001
1000
0010
0100
,
0010
0000
1000
0000
0001
0000
0100
0000
0010
0000
1000
0000
0100
0000
0010
0001
,
1000
0010
0000
0100
0010
0000
0100
0010
,
0110
1001
0010
1001
,
0100
0010
1001
0000
0010
0100
1001
0000
,
1000
0100
0001
0100
0000
0100
0001
0100
,
1000
0001
0010
0100
1000
0010
0010
0000
,
0200
0000
0000
0000
0000
0000
1300
0100
,
0001
0000
0110
0000
1000
0001
0110
0000
,
1000
0010
0001
0010
1000
0100
0010
0001
,
1000
0000
0110
0000
0000
0001
0001
0001
,
1000
0010
0100
0001
0010
0000
1001
0100
,
0001
0000
1001
0100
1000
0010
0100
0010
,
1000
0100
0001
1000
0010
0001
1000
0100
,
0010
0000
1001
0000
0100
0100
0100
0000
,
1000
0000
0011
0000
1000
0100
0011
0000
,
0100
1000
0011
0000
1000
0100
0011
0000
,
0001
0100
0100
1000
0100
0100
0001
0010
,
0200
0001
1000
0300
,
1000
1000
0100
0010
0001
0100
0001
0010
,
0001
1000
0001
0000
0100
0000
0010
0000
0000
0000
0010
0000
0100
0000
0010
0000
,
1000
1000
0100
0010
1000
0001
0100
0010
,
0001
0000
0011
0100
0000
1010
0100
0100
,
0001
0001
0010
0100
1000
0010
1000
0100
,
1000
0001
1000
0000
0010
0000
0100
0000
0000
0000
0100
0000
0010
0000
0100
0000
,
0001
0001
0010
0100
0001
1000
0010
0100
,
1000
0000
0110
0000
0001
1000
0110
0000
,
0001
0001
0100
1000
0100
0001
1000
0100
,
0010
0001
0010
0000
0001
0000
1000
0000
0000
0000
1000
0000
0010
0000
0010
0000
,
1000
0110
0001
0110
,
1000
0101
0010
1100
,
0001
0000
0010
1000
0000
1000
0010
0001
,
0100
0000
1001
0000
0010
0010
1001
0000
,
1000
1000
0100
0100
0001
0001
0010
0010
,
2000
0000
0100
0000
0010
0010
3001
0000
,
1000
0100
1000
0000
0001
0100
0000
0110
0000
0010
1000
0000
0001
0100
0110
0000
,
1000
1000
1000
1000
0001
0010
0000
0110
0000
0100
0001
0000
0001
0100
0000
1000
,
1001
0000
0100
0000
0110
0000
0000
0001
1001
0000
0010
0000
0110
0000
0000
1000
,
1001
0001
0100
0000
1010
1000
0000
0001
0011
0010
0100
0000
0101
0001
0000
1000
,
0010
0010
0010
0010
,
0010
0010
0010
0010
,
1000
0100
0010
0001
0100
0010
0001
1000
,
0100
0010
1000
0100
0001
0100
1000
0010
,
0001
0010
0100
0001
0010
0100
1000
0010
,
0100
0010
1000
0100
0010
0001
0100
0010
,
1000
0100
1000
0100
1000
0100
1000
0100
0010
0001
0010
0001
0010
0001
0010
0001
,
1000
0000
1000
0001
0100
0000
0110
0000
,
1000
0000
0010
0000
0100
0000
0000
0000
0001
0010
0001
0010
0001
0010
0001
0010
0100
0000
0000
0000
0110
0000
0000
0000
0010
0000
0000
0000
1001
0000
0000
0000
,
0110
0000
0000
0000
0001
0000
1000
0100
1000
0100
1000
0100
1000
0100
1000
0000
0010
0000
0000
0000
0010
0000
0200
0000
1000
0000
0000
0000
0301
0000
0000
0000
,
0011
0000
0000
0000
0101
0000
0000
0000
1010
0000
0000
0000
1000
0100
0010
0001
,
0100
0000
0000
0000
1010
0000
0000
0000
1100
0000
0000
0000
0001
0010
0100
0000
,
1000
0000
0000
0000
1000
0000
0010
0000
1000
0000
0100
0010
0001
0010
0001
0000
,
1000
0000
1000
0001
0100
0100
0100
0100
,
0001
0000
0010
0000
0100
0000
0000
0000
1000
0010
1000
0010
1000
0010
1000
0010
0100
0000
0000
0000
0110
0000
0000
0000
0010
0000
0000
0000
1001
0000
0000
0000
,
0110
0000
0000
0000
1000
0000
0001
0100
0001
0100
0001
0100
0001
0100
0001
0000
0010
0000
0000
0000
0010
0000
0200
0000
0001
0000
0000
0000
1300
0000
1000
0000
,
0001
0000
0000
0000
0011
0000
0000
0000
0101
0000
0000
0000
0001
0100
0010
1000
,
0100
0010
0001
0010
0002
0000
0000
0000
0000
0000
0000
0000
0103
0000
0000
0000
,
0001
0000
0100
0000
1000
0000
0000
0000
0001
0000
0010
1000
0010
0000
0000
0000
,
1000
0000
0100
0010
0001
0000
0100
0010
1000
0010
1000
0010
0100
0000
0000
0000
,
0001
1000
0001
1000
0010
0100
0010
0100
,
0001
0000
0000
0000
0011
0000
0000
0000
1000
0010
0100
0001
0100
0000
0000
0000
,
0001
0000
0011
0000
1000
0100
0100
0100
,
1000
0000
0000
0000
1010
0000
0000
0000
0001
0100
0010
1000
0010
0000
0000
0000
,
1000
0100
0010
0001
1000
0001
0010
0100
,
1000
0000
0000
0000
1010
0000
0000
0000
0001
0010
0100
1000
0100
0000
0000
0000
,
1000
0010
1000
0000
1010
0000
1000
0100
,
0010
0001
0100
0001
0010
0100
0100
0100
,
1000
1010
0000
0001
0011
0000
1000
0100
,
0010
0001
1000
0010
0100
0000
0010
0000
0000
0000
0110
0000
1001
0000
0000
0000
,
0001
0000
0000
0010
0000
0000
1000
0000
0000
0010
0000
0000
0001
0000
0100
0000
0001
0000
1000
0000
0010
0000
1000
0000
,
0100
0001
0100
1100
0000
0010
1001
0000
,
0001
0011
1000
0100
0001
1000
0010
0001
,
0100
0010
1000
0010
0100
0000
0001
0000
0011
0000
0100
0000
1001
0000
0000
0000
,
0110
0000
0001
0000
0100
0000
0010
0000
1010
0000
0001
0000
0100
0001
1000
0010
,
0100
0000
0001
0010
0100
1000
0001
0000
0100
0000
0000
0000
1001
0000
0000
0000
,
0000
0000
0000
0000
;
#NOTES:
     dance-double:
     :
     Easy:
     10:
     :
00000000
00000000
00000000
00000000
,
00000000
00000000
00000000
00000000
,
00000000
00000000
00000000
00000000
,
00000000
00000000
00000000
00000000
,
00000000
00000000
00000000
00000000
,
00001000
00010000
00001000
00000000
01000000
00010000
01000000
00000000
,
00010000
00100000
01000000
00000000
10000000
00100000
01000000
00000000
,
00010000
00100000
00001000
00010000
00000100
00001000
00000100
00000010
,
00000001
00000000
00001001
00000000
00000001
00000100
00001000
00000000
,
00022000
00000000
00000000
00000000
,
00000000
00000000
00000000
00000000
,
00000000
00000000
00000000
00000000
,
00000000
00000000
00000000
00033000
,
00001000
00000000
00010000
00000000
00100000
00000000
00000000
01000000
,
00000000
01000000
00000000
00100000
,
10000000
00010000
00000000
00000000
01000000
00000000
00000000
00001000
,
00000000
00001000
00000000
00010000
,
00001000
00010000
00001000
00010000
,
00001000
00000010
00000001
00001000
,
00000100
00000010
00000100
00000010
,
00000001
00000100
00000010
00000000
,
00010000
00001000
00010000
00001000
,
00100000
00000000
00010000
00000000
01000000
00000000
00010000
00100000
,
00000000
01000000
00000000
00000000
01000000
00000000
00000000
01000000
,
00000000
10000000
00000000
00010000
,
00000000
01000000
00000000
00100000
,
10000000
01000000
00010000
00001000
,
00000010
00000001
00001000
00000000
,
00002002
00000000
00000000
00003003
,
00000000
00000001
00000000
00001000
,
00000001
00000100
00000010
00000100
,
00001000
00010000
00011000
00000000
,
00000000
00001000
00000000
00010000
,
00000000
01000000
00000000
00100000
,
00010000
10000000
00100000
01000000
,
00100000
00100000
00100000
00000000
,
00000000
10000000
00000000
00010000
,
00000000
01000000
00000000
00001000
,
00010000
00001000
00000100
00000001
,
00002000
00000000
00000000
00003000
,
00000001
00000100
00000000
00000000
00000001
00000000
00000000
00000000
,
00000100
00000010
00000000
00010000
00000000
00000000
00010000
00000000
,
00001000
00010000
01000000
10000000
,
00100000
01000000
00010000
00000000
,
10000000
01000000
00000000
00000000
10000000
00000000
00000000
00000000
,
01000000
00100000
00000000
00001000
00000000
00000000
00001000
00000000
,
00010000
00001000
00000100
00000001
,
00000010
00000100
00001000
00000000
,
00000001
00000010
00000000
00000000
00000100
00000000
00000000
00000000
,
00001000
00000010
00000000
00000100
00000000
00000000
00000100
00000000
,
00001000
00010000
00100000
01000000
,
00001000
00010000
01000000
00000000
,
10000000
01000000
00100000
00100000
,
00001000
00010000
00010000
00001000
,
00010000
00010000
00001000
00001000
,
00000010
00000100
00000110
00000000
,
00000011
00000000
00000101
00000000
,
00000010
00000100
00000010
00000100
00000000
00000000
00000000
00000000
00000110
00000000
00000000
00000000
00000000
00000000
00000000
00000000
,
00000001
00000100
00001000
00000000
00001000
00010000
00100000
00000000
,
10000000
01000000
00010000
00000000
00010000
00001000
00000010
00000000
,
00000001
00000100
00000001
00000100
,
00000010
00001000
00000010
00010000
,
00001000
00010000
00001000
01000000
,
00010000
00100000
00010000
00000000
,
10000000
00100000
10000000
00100000
,
01000000
00010000
01000000
00001000
,
00010000
00001000
00010000
00000010
,
00001000
00000100
00001000
00000000
,
00000001
00000100
00000020
00000000
00001030
00001000
00000100
00000000
,
00010000
00001000
00020000
00000000
00130000
00100000
01000000
00000000
,
00010000
00100000
00110000
00000000
,
10000000
01000000
11000000
00000000
,
10000000
00100000
00010000
00001000
,
00000010
00000001
00001001
00000000
,
00000001
00000010
00000200
00000000
00001300
00001000
00000010
00000000
,
00010000
00001000
00020000
00000000
01030000
01000000
00100000
00000000
,
00010000
01000000
01010000
00010000
,
10000000
00100000
00000000
10100000
,
10000000
01000000
00010000
00001000
,
00000100
00000001
00001001
00000000
,
00000001
00000100
00000010
00001000
,
00010000
01000000
00100000
00000000
,
10000000
01000000
00010000
01000000
,
10000000
00000000
10010000
00000000
,
10000000
01000000
00100000
00010000
,
00001000
00000100
00000010
00000000
,
00000001
00000100
00001000
00000100
,
00000001
00000000
00001001
00000000
,
00000001
00000100
00000001
00000010
,
00000100
00000000
00010000
00001000
00000000
00010000
00001000
00000000
,
01000000
00010000
00100000
00010000
,
01000000
00000000
01100000
00000000
,
10000000
01000000
00100000
00010000
,
01000000
00000000
00100000
10000000
00000000
00100000
01000000
00000000
,
00001000
00001000
00010000
00010000
,
00000100
00001000
00000100
00000000
00000010
00000000
00000110
00000000
,
00000000
00000000
00000000
00000000
;
#NOTES:
     dance-double:
     :
     Medium:
     14:
     :
00000000
00000000
00000000
00000000
,
00000000
00000000
00000000
00000000
,
00000000
00000000
00000000
00000000
,
00000000
00000000
00000000
00000000
,
00000000
00000000
00000000
00000000
,
00001000
00000000
00010000
00000000
00001000
01000000
00001000
00000000
00100000
00000000
00100000
00000000
00110000
00000000
00000000
00000000
,
00010000
00000000
10000000
00000000
01000000
00100000
01000000
00000000
10000000
00000000
10000000
00000000
10010000
00000000
00000000
00000000
,
00010000
00000000
00100000
00000000
00001000
00000000
00010000
00000000
00000100
00001000
00000100
00000010
00000100
00000000
00000000
00000000
,
00000010
00000000
00000000
00000010
00000000
00000000
00000010
00000000
00000001
00000000
00000001
00000000
00001000
00000000
00000000
00000000
,
00002002
00000000
00000000
00000000
,
00000000
00000000
00000000
00000000
,
00000000
00000000
00000000
00000000
,
00000000
00000000
00000000
00003003
,
00000001
00000000
00000100
00000000
00000010
00000000
00001000
00000010
,
00000000
00001001
00000000
00000000
,
00000001
00000100
00000000
00000100
00001000
00000000
00001000
00010000
,
00000000
00011000
00000000
00000000
,
00001000
00010000
00001000
00000000
01000000
00000000
00010000
00000000
,
00100000
01000000
00100000
00000000
00010000
00000000
10000000
00000000
,
01000000
00100000
00010000
00000000
00100000
00000000
00001000
00000000
,
00010000
00000100
00001000
00000000
00000010
00000000
00000100
00000000
,
00000001
00000010
00000100
00000000
00001000
00000000
00000010
00000000
,
00000100
00000010
00001000
00000000
00000010
00000000
00010000
00001000
,
00000000
00001000
00010000
00000000
00100000
01000000
00100000
01000000
,
00100000
10100000
00000000
01010000
,
00010000
00110000
00000000
11000000
,
10000000
00000000
01000000
00100000
00000000
01000000
00010000
00000000
,
00001000
00010000
00001000
00100000
00001000
00000000
00010000
00000000
,
00002000
00000000
00000000
00003100
,
00000001
00000011
00000000
00001100
,
00001000
00000001
00000100
00000000
00000001
00001000
00000100
00000000
,
00001000
00000000
00000010
00000000
00000001
00000010
00001000
00000000
,
00000010
00010000
00001000
00010000
00000000
00000000
00011000
00000000
,
00000000
01100000
00000000
10010000
,
10000000
01000000
00100000
00010000
01000000
00100000
10000000
00000000
,
01000000
01100000
00000000
00011000
,
00001000
00010000
00001000
00000000
00000010
00000100
00000010
00000000
,
00000001
00000110
00001000
00000110
,
00000001
00000010
00000000
00000100
00001000
00000000
00000100
00010000
,
00002000
00000000
00000000
00003000
,
00001000
00010000
00001000
00000000
01000000
00010000
00100000
00000000
,
01000000
10000000
00100000
10000000
00000000
01000000
00100000
00000000
,
00010000
00100000
00001000
00000000
00010000
00000010
00001000
00000000
,
00000100
00000010
00000001
00000000
00000100
00000010
00001000
00000000
,
00000001
00000100
00001000
00000000
00010000
00001000
00100000
00000000
,
00010000
01000000
00010000
00100000
00000000
01000000
10000000
00000000
,
00100000
01000000
00010000
00000000
00100000
01000000
10000000
00000000
,
01000000
00100000
00001000
00010000
00001000
00000000
00011000
00000000
,
00010000
00001000
00010000
00000000
00000010
00001000
00000100
00000000
,
00000010
00000001
00000100
00000001
00000000
00000010
00000100
00000000
,
00001000
00000100
00010000
00000000
00001000
01000000
00010000
00000000
,
00100000
01000000
10000000
00000000
00100000
01000000
00010000
00000000
,
10000000
00100000
00010000
00001000
00000000
00010000
00000100
00001000
,
00000000
00000010
00001000
00000100
00000000
00000010
00000001
00000000
,
00000100
00000010
00001000
00000000
00000100
00000010
00000001
00000000
,
00000010
00000100
00010000
00001000
00010000
00000000
00011000
00000000
,
00001000
00000000
00010000
00000000
01000000
10000000
00000000
10000000
00000000
00000000
00100000
00000000
10000000
01000000
00010000
00000000
,
00001000
00010000
00001000
00010000
00001000
00010000
00000000
00010000
00000000
00000000
00001000
00000000
00000010
00000001
00000000
00000000
,
00000001
00000000
00000100
00000000
00001000
00000000
00000000
00001000
00010000
00000000
00100000
00000000
10000000
00000000
00000000
10000000
,
01000000
00000000
00010000
00000000
00001000
00000000
00000000
00001000
00000010
00000000
00000001
00000000
00000100
00000000
00000000
00000100
,
00001000
00001000
00010000
00010000
,
00001000
00001000
00010000
00010000
,
00001000
00100000
00001000
00000000
00010000
00000010
00010000
00000000
,
00001000
01000000
00001000
00000000
00010000
00000100
00010000
00000000
,
00001000
00100000
00010000
01000000
00010000
00100000
01000000
00000000
,
10000000
00100000
01000000
00010000
00100000
00001000
00010000
00000000
,
00000100
00001000
00000100
00001000
00000010
00001000
00000010
00000100
,
00000001
00000010
00000001
00000100
00000001
00000000
00000000
00000000
,
00000001
00000010
00000100
00000000
00020000
00000000
00001000
00000000
00030100
00000000
00000010
00001000
00010000
00000000
00001000
00000000
,
00011000
00000000
00010000
00200000
01000000
00000000
10300000
00000000
00010000
00000000
01010000
00000000
10000000
01000000
00100000
00000000
,
00010000
00000000
00010000
00000000
01010000
00000000
10000000
01000000
,
00100000
00000000
00010000
00001000
00000100
00000000
00000110
00000000
,
00000020
00000000
00000100
00000000
00001030
00010000
00001000
01000000
,
00020000
00100000
01030000
01100000
,
10000000
00100000
01000000
00000000
00002000
00000000
00010000
00000000
01003000
00000000
00100000
00010000
00001000
00000000
00010000
00000000
,
00011000
00000000
00001000
00000020
00000100
00000000
00000031
00000000
00001000
00000000
00001100
00000000
00000001
00000100
00000010
00000000
,
00001000
00000000
00001000
00000000
00001100
00000000
00000001
00000100
,
00000010
00001000
00010000
00000000
01000000
00000000
01100000
00000000
,
00200000
00000000
01000000
00000000
00310000
00001000
00010000
00000100
,
00002000
00000010
00003100
00000110
,
00000001
00000010
00000001
00000000
00000100
00000010
00000100
00001000
,
00010000
00000000
00100000
01000000
00100000
00000000
01100000
00000000
,
10000000
01000000
00100000
00000000
00010000
01000000
00100000
00000000
,
10000000
01000000
00100000
00001000
00010000
00000000
00011000
00000000
,
00001000
00010000
00000010
00001000
00000100
00000010
00000001
00000000
,
00000010
00000100
00001000
00000000
00000010
00000100
00000001
00000000
,
00000010
00000001
00000100
00001000
00000100
00001000
00010000
00000000
,
00100000
01000000
00100000
10000000
00100000
00000000
01100000
00000000
,
10000000
01000000
00000000
01000000
00100000
00000000
00001000
00010000
,
00001000
00000000
00000010
00000000
00000001
00001000
00001001
00000000
,
00000001
00000100
00001000
00000000
00020000
00000000
00230000
00000000
,
01300000
00001000
00100000
00001000
01000000
00100000
10000000
00000000
,
00010000
10000000
01000000
10000000
00010000
01000000
00010000
00100000
,
00001000
00000000
00011000
00000000
00010000
00001000
00000010
00000000
,
00000001
00000100
00000010
00001000
00010000
01000000
00100000
00000000
,
10100000
00000000
10000000
01000000
00010000
00000000
00011000
00000000
,
00000000
00000000
00000000
00000000
;
#NOTES:
     dance-double:
     :
     Hard:
     17:
     :
00000000
00000000
00000000
00000000
,
00000000
00000000
00000000
00000000
,
00000000
00000000
00000000
00000000
,
00000000
00000000
00000000
00000000
,
00000000
00000000
00000000
00000000
,
10000000
01000000
00100000
00010000
01000000
00100000
00010000
00001000
00010000
00000000
00010000
00000000
00011000
00000000
00000000
00000000
,
00010000
00001000
00000100
00000010
00001000
00000100
00000010
00000001
00001000
00000000
00001000
00000000
00001001
00000000
00000000
00000000
,
00000001
00000100
00000010
00001000
00000100
00000010
00001000
00010000
01000000
00100000
00010000
01000000
00100000
00000000
01100000
00000000
,
20010000
00000000
00000000
00010000
00000000
00000000
30010000
00000000
10000000
00000000
01000000
00010000
00001000
00000000
00000000
00000000
,
00022000
00000000
00000000
00000000
,
00000000
00000000
00000000
00000000
,
00000000
00000000
00000000
00000000
,
00000000
00000000
00000000
00033000
,
00001000
00010000
00001000
00000000
00000010
00000100
00000010
00000001
,
00000000
00001001
00000000
00001001
,
00000001
00000100
00000010
00000000
00000100
00000010
00000100
00001000
,
00000000
00011000
00000000
00011000
,
00001000
01000000
00001000
01000000
00010000
00100000
00010000
00100000
,
01000000
10000000
01000000
10000000
00100000
01000000
00010000
00000000
,
10000000
01000000
10000000
01000000
00100000
00001000
00100000
00001000
,
00010000
00000000
00001000
00000000
00010000
00000000
00001000
00000000
00000010
00000100
00000010
00000100
00000010
00000000
00000000
00000000
,
00000001
00000100
00000010
00001000
00000100
00000010
00000100
00010000
,
00001000
00000000
01000000
00000000
00010000
00000000
00100000
00000000
00010000
00000000
01000000
00000000
00100000
00000000
10000000
00100000
,
10000000
01000000
00000000
01000000
00100000
00000000
00001000
00010000
,
00011000
00000100
00011000
01000000
,
00011000
00000100
00011000
01000000
,
00011000
00000000
00010000
00000100
00000000
00000100
00000001
00000100
,
00001000
00000010
00000100
00000010
00020000
00000000
00031000
00000000
,
00022000
00000000
00000000
00000000
00033000
00000000
00001000
00010000
,
00100000
01100000
10000000
01100000
,
10000000
01000000
00100000
00001000
00010000
01000000
00100000
00001000
,
00010000
00000000
00011000
00000000
00000000
00010000
00001000
00010000
,
00000010
00000100
00000001
00000000
00000010
00000100
00001000
00000000
,
00000001
00000100
00000110
00000000
00001000
00000100
00000110
00000000
,
00000001
00000100
00000010
00000100
00001000
00010000
00100000
01000000
,
00100000
10000000
00100000
00000000
01000000
00100000
01000000
00000000
,
00100000
00011000
00000010
00011000
,
00100000
00011000
00000010
00011000
,
00001000
00010000
00010000
00100000
00010000
00010000
00001000
00001000
,
00000200
00000001
00001000
00000300
,
00000001
00000010
00000001
00000100
00000010
00001000
00000010
00000000
,
00000100
00000010
00000100
00000000
00000010
00000000
00010000
00000000
00000000
00000000
00010000
00000000
00001000
00000000
00010000
00000000
,
00001000
00001000
00100000
00010000
00000000
01000000
00100000
10000000
,
00000000
01000000
00100000
00010000
00000000
10000000
01000000
00000000
,
10000000
00100000
10000000
01000000
00100000
00010000
00100000
00000000
,
01000000
00100000
01000000
00000000
00100000
00000000
00001000
00000000
00000000
00000000
00001000
00000000
00010000
00000000
00001000
00000000
,
00010000
00010000
00000010
00001000
00000000
00000100
00000010
00000001
,
00000000
00000100
00000010
00001000
00000000
00000001
00000100
00000000
,
00000001
00000001
00001000
00000010
00000100
00000100
00001000
00010000
,
00001000
00010000
00001000
00000000
00100000
00000000
00010000
00000000
00000000
00000000
00010000
00000000
01000000
00000000
01000000
00000000
,
00100000
00000000
10100000
00000000
01000000
00010000
01010000
00000000
,
00100000
00000000
00110000
00000000
10000000
01000000
11000000
00000000
,
10000000
00100000
10000000
01000000
00000000
01000000
00010000
00001000
,
00010000
00000000
00001000
00000010
00000001
00001000
00000001
00000000
,
00000100
00000100
00000010
00000010
00001000
00001000
00000100
00000100
,
00020000
00001000
00000100
00000010
,
00032000
00000000
00000000
00000000
00013000
01000000
00000000
01100000
00000000
00100000
10000000
00000000
00100000
00010000
10010000
00000000
,
10000000
10000000
00100000
00100000
01000000
00010000
00000000
00110000
00000000
00100000
00001000
00000000
00001000
00010000
00001000
00000000
,
00011000
00000000
00000010
00000000
00000110
00000000
00000000
00000001
00001001
00000000
00000100
00000000
00000110
00000000
00000000
00010000
,
00011000
00000000
00001000
00000000
01100000
00000000
00000000
01000000
00100000
00000000
10000000
00000000
10010000
00000000
00000000
00000000
,
10000000
10000000
00010000
00010000
,
00001000
00001000
00000001
00000001
,
00000001
00000100
00000010
00001000
00010000
01000000
00100000
00000000
,
10000000
01000000
00100000
00010000
00001000
00000100
00000010
00000000
,
00000001
00000100
00000001
00000100
00000010
00010000
00001000
00010000
,
00001000
01000000
00001000
01000000
00010000
00100000
01000000
00000000
,
10000000
00100000
10000000
00100000
10000000
00100000
10000000
00100000
01000000
00010000
01000000
00010000
01000000
00010000
01000000
00010000
,
01000000
00000000
00010000
00100000
00001000
00000000
00011000
00000000
,
00010000
00000000
00000100
00000000
00001000
00000000
00000000
00000000
00000010
00010000
00000010
00010000
00000010
00010000
00000010
00010000
00000010
00000000
00000000
00000000
00001000
00000000
00000000
00000000
00001010
00000000
00000000
00000000
00000000
00000000
00000000
00000000
,
00000001
00000000
00000000
00000000
00000010
00000000
00000100
00001000
00000100
00001000
00000100
00001000
00000100
00001000
00000100
00000000
00010000
00000000
00000000
00000000
00000010
00000000
00001000
00000000
00020000
00000000
00000000
00000000
00000000
00000000
00000000
00000000
,
01030000
00000000
00000000
00000000
01100000
00000000
00000000
00000000
10100000
00000000
00000000
00000000
10000000
01000000
00100000
00001000
,
00010000
00000000
00000000
00000000
00011000
00000000
00000000
00000000
00010100
00000000
00000000
00000000
00001000
00000100
00000010
00000000
,
00000001
00000000
00000000
00000000
00000010
00000000
00000100
00000000
00010000
00000000
00001000
00100000
00010000
00100000
00010000
00000000
,
01000000
00000000
00100000
00010000
00001000
00001000
00010000
00000000
,
00001000
00000000
01000000
00000000
00010000
00000000
00000000
00000000
00100000
00001000
00100000
00001000
00100000
00001000
00100000
00001000
00100000
00000000
00000000
00000000
00010000
00000000
00000000
00000000
00110000
00000000
00000000
00000000
00000000
00000000
00000000
00000000
,
10000000
00000000
00000000
00000000
00100000
00000000
01000000
00010000
01000000
00010000
01000000
00010000
01000000
00010000
01000000
00000000
00001000
00000000
00000000
00000000
00100000
00000000
00010000
00000000
00002000
00000000
00000000
00000000
00000000
00000000
00000000
00000000
,
00003100
00000000
00000000
00000000
00000110
00000000
00000000
00000000
00000011
00000000
00000000
00000000
00000001
00000100
00000010
00000000
,
00010000
00001000
00010000
00001000
00010000
00000000
00000000
00000000
00000000
00000000
00000000
00000000
00011000
00000000
00000000
00000000
,
00010000
00000000
01000000
00000000
10000000
00000000
00000000
00000000
00100000
00000000
00010000
00000000
00001000
00000100
00001000
00000000
,
00000100
00000000
00000010
00001000
00000010
00000000
00010000
00000100
00010000
00000000
00001000
00000000
00010000
00000000
00000000
00000000
,
00001000
01000000
00010000
00100000
00001000
01000000
00100000
00010000
,
00001000
00000000
00000000
00000000
00011000
00000000
00000000
00000000
00010000
00001000
01000000
00010000
01000000
00000000
00000000
00000000
,
00100000
00000000
10100000
00000000
10000000
01000000
01000000
01000000
,
10000000
00000000
00000000
00000000
10010000
00000000
00000000
00000000
00010000
01000000
00100000
01000000
00010000
00000000
00000000
00000000
,
00100000
00001000
00010000
00001000
00000010
00000001
00001000
00000100
,
00000010
00000000
00000000
00000000
00000011
00000000
00000000
00000000
00000001
00000100
00000001
00000100
00000001
00000000
00000000
00000000
,
00001000
00000010
00001000
00000000
00000001
00000010
00000001
00000000
,
00000100
00000010
00001000
00000100
00010000
00001000
00001000
00001000
,
00010000
00001000
00000000
00000000
01100000
00000000
00000000
00000000
,
10000000
00100000
10000000
00100000
01000000
00000000
00010000
00000000
00000000
00000000
10000000
00000000
01100000
00000000
00000000
00000000
,
10000000
00000000
00000000
01000000
00000000
00000000
00100000
00000000
00000000
00010000
00000000
00000000
00100000
00000000
00001000
00000000
00100000
00000000
00001000
00000000
00010000
00000000
00001000
00000000
,
00010000
00000010
00000100
00000001
00000000
00000100
00000110
00000000
,
00000001
00000010
00000100
00001000
00000010
00000100
00010000
00000000
,
01000000
00100000
01000000
00100000
10000000
00000000
00010000
00000000
00000000
00000000
01000000
00000000
01100000
00000000
00000000
00000000
,
10000000
01000000
00100000
00010000
01000000
00100000
00010000
00001000
,
00000100
00000000
00000010
00001000
00000001
00000010
00000001
00000000
00000100
00000000
00000000
00000000
00001001
00000000
00000000
00000000
,
00000000
00000000
00000000
00000000
;
