
//----- song ID: sadi -----//
#TITLE:SAYONARA☆ディスコライト;
#ARTIST:nana(Sevencolors) feat.ジゼル・クイン;
#TITLETRANSLIT:SAYONARA disco light;
#ARTISTTRANSLIT:nana(Sevencolors) feat. Giselle Quin;
#BANNER:SAYONARA disco light.png;
#BACKGROUND:SAYONARA disco light-bg.png;
#CDTITLE:./CDTitles/DDR A3.png;
#MUSIC:SAYONARA disco light.ogg;
#SAMPLESTART:54.34;
#SAMPLELENGTH:15;
#BPMS:0=159;
#BGSTAGE:2;
#NOTES:
     dance-single:
     :
     Beginner:
     3:
     :
0000
0000
0000
0000
,
0000
0000
0000
0000
,
0000
0000
0000
0000
,
0000
0000
0000
0000
,
0000
0000
0000
0000
,
0000
0000
0000
0000
,
0001
0000
0000
0000
,
1000
0000
0000
0000
,
0010
0000
0000
0000
,
0200
0000
0300
0000
,
0001
0000
1000
0000
,
0001
0000
1000
0000
,
0010
0000
0010
0000
,
0100
0000
0100
0000
,
0001
0000
1000
0000
,
0001
0000
1000
0000
,
0010
0000
0100
0000
,
0010
0000
0000
0000
,
1000
0000
0000
0000
,
0001
0000
0000
0000
,
0100
0000
0000
0000
,
0010
0000
0010
0000
,
1000
0000
0000
0000
,
0100
0000
0000
0000
,
0010
0000
0000
0000
,
0001
0000
0000
0000
,
1000
0000
1000
0000
,
1000
0000
0000
0000
,
0001
0000
0001
0000
,
0001
0000
0000
0000
,
0100
0000
0100
0000
,
0100
0000
0000
0000
,
0010
0000
0010
0000
,
0010
0000
0000
0000
,
1000
0000
0000
0000
,
2002
0000
0000
0000
0000
3003
0000
0000
,
0001
0000
1000
0000
,
0010
0000
0100
0000
,
0001
0000
1000
0000
,
0001
0001
0001
0000
,
1000
0000
0001
0000
,
0100
0000
0010
0000
,
1000
0000
0001
0000
,
0200
0000
0300
0000
,
0001
0000
1000
0000
,
0100
0000
0010
0000
,
0001
0000
1000
0000
,
0001
0001
0001
0000
,
1000
0000
0001
0000
,
0010
0000
0100
0000
,
1000
0000
0001
0000
,
0020
0000
0030
0000
,
0001
0000
0000
0000
,
1000
0000
0000
0000
,
0002
0000
0000
0000
,
2000
0000
3003
0000
,
0001
0000
1000
0000
,
0001
0000
1000
0000
,
0010
0000
0010
0000
,
0100
0000
0100
0000
,
0001
0000
1000
0000
,
0001
0000
1000
0000
,
0010
0000
0100
0000
,
0010
0000
0000
0000
,
0110
0000
0000
0000
,
0000
0001
1001
0000
,
0000
0000
0000
0000
;
#NOTES:
     dance-single:
     :
     Easy:
     6:
     :
0000
0000
0000
0000
,
0000
0000
0000
0000
,
0000
0000
0000
0000
,
0000
0000
0000
0000
,
0000
0000
0000
0000
,
0000
0000
0000
0000
,
0001
0001
0001
0000
,
1000
1000
1000
0000
,
0020
0000
0000
0030
,
0110
0000
1001
0000
,
0001
0100
1000
0100
,
0001
0100
1000
0100
,
0002
0023
0230
2300
,
3001
0100
0010
0000
,
1000
0100
0001
0100
,
1000
0100
0001
0100
,
2000
3020
0230
0302
,
1003
0100
0010
0000
,
0001
1000
0100
0010
,
0100
1000
0001
0000
,
0100
0000
0010
0000
,
1000
0001
0100
0000
,
0001
0010
0100
1000
,
0001
0100
0010
0000
,
0100
0000
0001
0000
,
1000
0000
0000
1000
0000
0000
0000
0000
,
0002
0100
0000
0103
,
2000
0010
0000
3010
,
0001
0100
1000
0010
,
0001
0000
1000
0000
,
0002
0010
0000
0013
,
2000
0100
0000
3100
,
0002
0000
0000
1003
,
1001
0000
0110
0000
,
0001
0000
0000
1000
0000
0000
1001
0000
,
0220
0000
0000
0000
0000
0330
0000
0000
,
0001
0100
1000
0010
,
0001
0100
1000
0010
,
0001
0000
1000
0000
,
0001
1000
0010
0110
,
1000
0010
0001
0100
,
1000
0010
0001
0100
,
1000
0000
0001
0000
,
0100
0000
0000
0010
0000
0000
0110
0000
,
0001
1001
0100
0110
,
0001
1001
0100
0110
,
0001
0000
1000
0000
,
0001
0001
0010
0100
,
1000
1001
0010
0110
,
1000
1001
0010
0110
,
1000
0000
0001
0000
,
1001
0000
0000
0110
0000
0000
1001
0000
,
0200
0000
0300
0000
,
0020
0000
0030
0000
,
2000
0000
0000
0000
,
0002
0000
3003
0000
,
0001
0100
1000
0100
,
0001
0100
1000
0100
,
0002
0023
0230
2300
,
3001
0100
0010
0000
,
1000
0100
0001
0100
,
1000
0100
0001
0100
,
2000
3020
0230
0302
,
1003
0100
0010
0000
,
0001
0000
0000
0100
0000
0100
0000
0100
,
0000
0001
1001
0000
,
0000
0000
0000
0000
;
#NOTES:
     dance-single:
     :
     Medium:
     9:
     :
0000
0000
0000
0000
,
0000
0000
0000
0000
,
0000
0000
0000
0000
,
0000
0000
0000
0000
,
0000
0000
0000
0000
,
0000
0000
0000
0000
,
0001
0001
0010
0100
,
1000
1000
0010
0100
,
0002
0000
0000
0003
,
0100
0000
0000
0010
0000
0000
1000
0000
1001
0000
0000
0000
0000
0000
0000
0000
,
0001
1000
0100
0000
0100
1000
0001
0000
,
0100
0001
0010
0000
0001
1000
0100
0000
,
0020
2030
3020
0032
,
1003
0010
0100
0000
0001
0000
1001
0000
,
1000
0001
0100
0000
0100
0001
1000
0000
,
0100
1000
0010
0000
1000
0001
0100
0000
,
0020
0032
0023
2030
,
3001
0010
0100
0000
1000
0000
1001
0000
,
0001
0000
0100
0000
0001
0000
1000
0100
,
0010
0000
0001
0000
0010
0000
0100
1000
,
0002
0000
0100
0000
1000
0000
0013
0100
,
1000
0000
0001
0100
0000
0010
1000
1000
,
0001
0000
0010
0000
0100
0000
1000
0001
,
0100
0000
0010
0000
1000
0000
0001
0200
,
0000
0000
0000
0000
0000
0300
0000
0001
,
1000
0000
0000
0100
0000
0000
0010
0000
0000
0000
0011
0000
0000
0000
0000
0000
,
2000
0100
3002
0100
,
2003
0100
3002
0100
,
1003
0001
0010
0100
,
1000
1000
0001
0001
0100
0000
0010
0000
,
2000
0010
3002
0010
,
2003
0010
3002
0010
,
1003
0000
0000
0001
,
1001
0000
0100
0010
,
1000
1000
0000
0001
0000
0100
0000
0001
,
1000
0000
0000
0100
0000
0000
0010
0000
0000
0000
1001
0000
0000
0000
0000
0000
,
1000
0100
0001
1000
,
0010
0001
0100
0001
,
1000
0000
0000
0001
0100
0100
0000
0010
,
0000
1000
0100
0020
0000
0000
0030
0000
,
0001
0100
1000
0001
,
0010
1000
0100
1000
,
0001
0000
0000
1000
1000
0000
0000
0001
,
0100
0000
0000
0001
0000
0000
0011
0000
0000
1000
0000
0000
1100
0000
0000
0000
,
0001
0100
1000
0001
,
0010
1000
0001
1000
,
0100
0001
1000
0010
,
0001
1000
0100
0010
,
0001
0100
1000
0001
,
0010
1000
0001
1000
,
0100
0010
0001
1000
,
0001
0000
0000
0100
0000
0000
0010
0000
0000
1000
0000
0000
1001
0000
0000
0000
,
0020
0000
0000
0030
,
2000
0000
0000
3000
,
0200
0000
0000
0000
,
0020
0000
0330
0000
,
0001
1000
0100
0000
0100
1000
0001
0000
,
0100
0001
0010
0000
0001
1000
0100
0000
,
0020
2030
3020
0032
,
1003
0010
0100
0000
0001
0000
1001
0000
,
1000
0001
0100
0000
0100
0001
1000
0000
,
0100
1000
0010
0000
1000
0001
0100
0000
,
0020
0032
0023
2030
,
3001
0010
0100
0000
1000
0000
1001
0000
,
0100
0100
0000
0010
0000
0010
0000
0100
,
0000
0001
1000
0000
2002
0000
0000
0000
,
3003
0000
0000
0000
,
0000
0000
0000
0000
;
#NOTES:
     dance-single:
     :
     Hard:
     13:
     :
0000
0000
0000
0000
,
0000
0000
0000
0000
,
0000
0000
0000
0000
,
0000
0000
0000
0000
,
0000
0000
0000
0000
,
0000
0000
0000
0000
,
0001
0100
0001
0010
0001
0100
0001
0010
,
0100
1000
0010
1000
0100
1000
0010
1000
,
0002
0000
0000
0003
,
0101
0000
0000
0110
0000
0000
0010
0000
1001
0000
0000
0000
0000
0000
0000
0000
,
1000
0001
1000
0000
0100
0000
0010
0000
0001
0000
0100
0000
0001
1000
0000
0000
,
0001
0010
0001
0000
0010
0000
0100
0000
1000
0000
0001
0000
0200
0000
0300
0000
,
0001
0020
0000
0030
0100
2000
0000
3000
0001
0100
0000
0010
0000
0000
1000
0000
,
0001
0100
1000
0100
0001
0010
0200
0300
,
1000
0100
1000
0000
0001
0000
0100
0000
0010
0000
0100
0000
0001
0010
0000
0000
,
0100
1000
0100
0000
0010
0000
0001
0000
1000
0000
0010
0000
0200
0000
0300
0000
,
0001
2000
0000
3000
0010
0200
0000
0300
0001
0010
0000
0100
0000
0000
1000
0000
,
0001
0010
1000
0010
0001
0100
1000
0000
,
0100
0010
0100
0010
0100
0010
0100
0001
,
0010
0100
0010
0100
0010
0100
0010
0001
,
0100
0010
1000
0010
0100
0010
1000
0001
,
0010
0000
0100
0000
1000
0000
0010
0000
1000
0000
0100
0000
0010
0000
0010
0001
,
0010
0100
1000
0100
0010
0100
1000
0001
,
0100
0010
0100
0001
0100
0010
0100
0001
,
1000
0010
0100
0010
1000
0010
0100
0001
,
0011
0000
0000
1100
0000
0000
0110
0000
0000
0000
0001
0000
0000
0000
1000
0000
,
0001
0200
1000
0000
0301
0020
1000
0000
,
0031
0200
1000
0000
0301
0010
0100
2000
,
3000
0010
0100
0002
0000
0003
0100
0010
,
1000
0000
0001
0000
0010
0000
0100
0000
1000
0100
1000
0000
0001
0000
0000
0000
,
1000
0200
0001
0000
1300
0020
0001
0000
,
1030
0200
0001
0000
1300
0010
0100
0002
,
0003
1000
0010
0200
0000
0000
0301
0000
,
1001
0000
1000
0000
0001
0010
0100
1000
,
0010
0110
0000
1010
0000
1001
0000
0000
,
0001
0010
0000
0100
1000
0000
0010
0100
0001
0000
2000
0000
0000
0000
3000
0000
,
0001
0010
1000
0001
1000
0010
0001
0100
,
0000
0000
0100
0000
0010
0000
1000
0001
0000
0000
0000
0000
0102
0000
0000
0000
,
0013
0000
0000
0000
0000
0000
0100
0000
1000
0010
0000
0100
0000
0000
0002
0000
,
0000
0000
2003
0000
3200
0000
0320
0000
0001
0000
0001
0000
0031
0000
0001
1000
,
0001
0100
1000
0001
1000
0100
0001
0010
,
0000
0000
0010
0000
0100
0000
1000
0001
0000
0000
0000
0000
0102
0000
0000
0000
,
0010
0000
0103
0001
0011
0000
0000
1000
,
0010
0000
0000
0100
0000
0000
0001
0000
0000
0010
0000
0000
1001
0000
0000
0000
,
1000
0100
0001
1000
0010
0001
0100
1000
,
0001
0010
1000
0100
0001
1000
0010
0001
,
0100
1000
0100
0001
0010
0100
1000
0020
,
0000
0000
0230
0000
0302
0000
0023
0000
0130
0000
1000
0000
0001
0000
0100
0010
,
0100
0001
0010
1000
0001
0100
1000
0010
,
0001
1000
0100
0001
0010
1000
0001
0100
,
1000
0010
0001
1000
0100
0001
0010
0100
,
1100
0000
0000
0110
0000
0000
0011
0000
0000
1001
0000
0000
0110
0000
0000
0000
,
0002
0000
0000
0000
0000
0000
0000
0003
,
0020
0000
0000
0000
0000
0000
0000
0030
,
0200
0000
0000
0300
2000
0000
0000
0000
,
0002
0000
3003
0000
,
0001
1000
0001
0000
0010
0000
0100
0000
1000
0000
0001
0000
0100
0010
0000
0000
,
1000
0001
1000
0000
0100
0000
0010
0000
0001
0000
1000
0000
0020
0000
0030
0000
,
1000
0200
0000
0300
0010
0002
0000
0003
0100
0010
0000
1000
0000
0000
0001
0000
,
1000
0100
0001
0100
1000
0010
0001
0000
,
0010
0100
0010
0000
1000
0000
0001
0000
0010
0000
0100
0000
1000
0001
0000
0000
,
0100
0010
0100
0000
0001
0000
1000
0000
0100
0000
0010
0000
0002
0000
0003
0000
,
1000
0020
0000
0030
0100
0002
0000
0003
1000
0100
0000
0010
0000
0000
0001
0000
,
1000
0010
0001
0010
1000
0100
0010
0000
,
0001
0011
0000
1100
0000
0101
0000
1001
,
0000
0100
0110
0000
2002
0000
0000
0000
,
3003
0000
0000
0000
,
0000
0000
0000
0000
;
#NOTES:
     dance-single:
     :
     Challenge:
     17:
     :
0000
0000
0000
0000
,
0000
0000
0000
0000
,
0000
0000
0000
0000
,
0000
0000
0000
0000
,
0000
0000
0000
0000
,
0000
0000
0000
0000
,
0001
0100
0001
0010
0001
0100
0001
0010
,
0100
1000
0010
1000
0100
1000
0010
0100
,
0002
0000
0000
0003
,
0011
0000
0000
1100
0000
0000
0001
0000
2002
0000
0000
0000
3003
0000
0000
0000
,
1000
0001
0100
0001
0100
0010
1000
0000
0100
0010
0001
0000
0100
0002
0000
0003
,
1000
0001
0010
0001
0010
0100
1000
0000
0001
0100
0010
0000
2000
0000
3000
0000
,
0001
0020
0000
0030
0100
2000
0000
3000
0001
0100
0000
0010
0000
0000
1000
0001
,
1000
0100
0010
0001
1000
0000
0001
0100
0001
0010
0100
1000
0010
0000
0100
0000
,
0001
1000
0100
1000
0100
0010
0001
0000
1000
0010
0100
0000
0001
0020
0000
0030
,
0001
1000
0010
1000
0010
0100
0001
0000
1000
0100
0010
0000
0002
0000
0003
0000
,
1000
0020
0000
0030
0100
0002
0000
0003
1000
0100
0000
0010
0000
0000
0001
1000
,
0100
1000
0010
0100
0001
0000
1000
0001
0010
0001
0100
0010
2000
0000
3000
0000
,
0001
1000
0100
0010
0100
1000
0001
0100
,
0010
1000
0001
1000
0100
0010
0001
1000
,
0001
0100
1000
0100
0001
0100
1000
0100
,
0001
0000
0010
0000
0100
0000
1000
0000
0001
0000
0100
0000
1000
0000
0001
0010
,
0100
0001
1000
0100
1000
0001
0100
0010
,
0100
0001
1000
0100
1000
0001
0010
0100
,
1000
0010
0001
0010
1000
0010
0001
0010
,
0100
0001
1000
0100
0001
0000
1000
0010
0001
1000
0010
0000
1000
0001
0010
0100
,
2000
0000
3020
0000
0230
0000
0320
0100
2030
0000
3200
0000
0320
0000
0230
0001
,
2300
0000
3020
1000
0230
0000
0302
1000
0023
0000
0230
0000
2300
0000
3020
0000
,
0130
0000
0001
0000
1000
0100
0000
0010
1000
0000
0001
0100
0000
1000
0010
0000
,
1000
0100
1000
0001
0100
0001
0010
0100
1000
0010
0100
0001
1000
0000
0100
0010
,
0002
0000
0203
0000
0320
0000
0230
0010
0302
0000
0023
0000
0230
0000
0320
1000
,
0032
0000
0203
0001
0320
0000
2030
0001
3200
0000
0320
0000
0032
0000
0203
0000
,
0301
0010
0100
2000
0000
0000
3010
0000
,
1001
0000
0000
1000
0001
0000
0100
0000
0001
0010
0100
0000
1000
0000
0010
0000
,
0001
0010
1000
0100
0001
0000
1000
0010
0001
0100
1000
0000
0100
0000
0001
0000
,
1000
0000
0000
0100
0000
0000
0000
0000
0000
0010
0000
0000
0001
0000
0000
0000
0000
0000
0100
0000
0000
0010
0000
0000
1000
0000
0001
0000
1000
0000
0002
0000
0000
0000
0000
0000
0000
0000
0000
0000
0000
0000
0003
0000
0000
0000
0000
0000
,
0100
0001
1000
0100
0010
0000
1000
0000
0010
0001
1000
0010
0100
0000
1000
0000
,
0100
0001
1000
0001
0010
0100
0001
0100
1000
0001
1000
0010
0100
1000
0100
0001
,
1000
0000
0100
0000
1000
0000
0010
0100
0001
1000
0000
0100
0000
0000
0020
0000
,
0000
0000
2030
0000
3020
0000
0032
0000
1000
0000
1000
0000
1003
0000
1000
0100
,
0010
0001
1000
0010
0100
0000
1000
0000
0100
0001
1000
0001
0010
0000
0100
0000
,
1000
0010
0001
0010
0100
0001
1000
0001
0010
1000
0010
0100
1000
0001
1000
0010
,
0100
0000
0001
0000
1000
0100
0000
0010
0001
0000
0010
0000
0100
0000
1000
0000
,
0001
0100
0001
0010
0001
0000
1000
0100
1000
0010
1000
0000
1001
0000
0000
0000
,
0001
1000
0001
0010
0100
0001
0100
1000
0001
1000
0010
0100
1000
0100
0001
1000
,
0001
0010
0100
0001
0100
1000
0001
1000
0010
0100
1000
0100
0001
1000
0001
0010
,
0100
0000
1000
0000
0010
0000
1000
0100
0010
0001
0000
0100
0000
0000
0020
0000
,
0000
0000
0032
0000
0023
0000
2030
0000
0001
0000
0001
0000
3001
0000
0001
1000
,
0001
0100
0010
0001
0010
1000
0001
1000
0100
0010
1000
0010
0001
1000
0001
0100
,
0010
0001
0010
1000
0001
1000
0100
0010
1000
0010
0001
0100
1000
0100
0010
1000
,
0001
0000
0010
0000
0001
0100
0000
0010
1000
0000
0001
0000
0010
0000
0100
0000
,
1000
0100
1000
0010
1000
0001
0100
0001
0010
0001
1000
0010
0100
0001
0010
0100
,
1000
0000
0000
0200
2300
3002
0203
0320
,
0000
0000
0032
0000
0023
0230
0302
2003
,
3001
0100
1000
0001
0010
1000
0001
0100
1000
0001
0010
1000
0001
0010
0100
1000
,
0001
0010
1000
0001
0100
1000
0001
0010
1000
0000
0000
0000
0010
0001
1000
0001
,
1000
0100
0010
0001
1000
0001
0100
0000
0010
1000
0001
0000
0010
0200
0000
0300
,
1000
0010
0100
0001
0100
0010
1000
0000
0001
0010
0100
0000
2000
0000
3000
0000
,
0001
0200
0000
0300
0010
2000
0000
3000
0001
0010
0000
0100
0000
0000
1000
0001
,
0100
0010
0100
0001
1000
0000
0100
1000
0010
0100
0001
1000
0100
0000
0010
0000
,
0001
0100
0001
1000
0100
0010
0001
0000
1000
0010
0100
0000
0001
2000
0000
3000
,
0001
0010
0001
0100
0010
0000
1000
0000
0010
0100
0001
0000
0020
0000
0030
0000
,
0001
0200
0000
0300
0010
2000
0000
3000
0100
0010
0000
0001
0000
0000
1000
0100
,
1000
0010
0100
0001
0010
0000
0100
1000
0010
0100
0001
1000
0200
0000
0300
0000
,
0010
0011
0000
1100
0000
1001
0000
0110
,
0000
0000
0000
1000
0100
0010
0001
0000
0000
0000
0000
0000
2002
0000
0000
0000
0000
0000
0000
0000
0000
0000
0000
0000
,
3003
0000
0000
0000
,
0000
0000
0000
0000
;
#NOTES:
     dance-double:
     :
     Easy:
     5:
     :
00000000
00000000
00000000
00000000
,
00000000
00000000
00000000
00000000
,
00000000
00000000
00000000
00000000
,
00000000
00000000
00000000
00000000
,
00000000
00000000
00000000
00000000
,
00000000
00000000
00000000
00000000
,
00010000
00000000
00010000
00000000
,
00001000
00000000
00001000
00000000
,
00010000
00000000
00000000
00000000
,
00001000
00000000
00000000
00000000
,
01000000
00010000
00100000
00000000
,
01000000
10000000
00010000
00000000
,
20000000
32000000
03020000
00032000
,
00013000
00000010
00000100
00000000
,
00000001
00001000
00000010
00000000
,
00000100
00000001
00001000
00000000
,
00000002
00000203
00002300
00023000
,
00031000
00100000
01000000
00000000
,
10000000
00010000
00010000
01000000
,
00001000
00000000
00010000
00000000
,
00000100
00001000
00001000
00000010
,
00000100
00000000
00000001
00000000
,
00000001
00000010
00000100
00001000
,
00000010
00000000
00010000
00000000
,
00001000
01000000
00010000
00100000
,
00110000
00000000
00000000
00000000
,
20000000
00100000
00000000
30100000
,
00020000
01000000
00000000
01030000
,
00001000
00000000
00010000
00000000
,
00000200
00000000
00000000
00001300
,
00000002
00000100
00000000
00000103
,
00002000
00000010
00000000
00003010
,
00010000
00001000
00000000
00001000
,
00011000
00000000
01100000
00000000
,
10000000
00000000
00000000
10000000
00000000
00000000
10000000
00000000
,
20020000
00000000
00000000
00000000
00000000
30030000
00000000
00000000
,
10000000
01000000
00010000
00001000
,
00010000
00001000
00000100
00000001
,
00000010
00000000
00000100
00000000
,
00001000
00000010
00000100
00000000
,
00000001
00000100
00001000
00010000
,
00001000
00010000
01000000
10000000
,
00100000
00000000
01000000
00000000
,
00010000
00000000
00000000
00010000
00000000
00000000
10010000
00000000
,
10000000
00100000
00010000
00001000
,
00010000
00001000
00000010
00000001
,
00000100
00000000
00000010
00000000
,
00001000
00000001
00000010
00000000
,
00000001
00000010
00001000
00010000
,
00001000
00010000
00100000
10000000
,
01000000
00000000
00100000
00000000
,
00001000
00000000
00000000
00010000
00000000
00000000
00011000
00000000
,
00002000
00000000
00003000
00000000
,
00020000
00000000
00030000
00000000
,
00000020
00000000
00000000
00000000
,
00000200
00000000
00000330
00000000
,
00000001
00001000
00000010
00000000
,
00000100
00000001
00001000
00000000
,
00000002
00000203
00002300
00023000
,
00031000
00100000
01000000
00000000
,
10000000
00010000
00100000
00000000
,
01000000
10000000
00010000
00000000
,
20000000
32000000
03020000
00032000
,
00013000
00000010
00000100
00000000
,
00000001
00000000
00000000
00001000
00000000
00000010
00000000
00000010
,
00000000
00010000
00011000
00000000
,
00000000
00000000
00000000
00000000
;
#NOTES:
     dance-double:
     :
     Medium:
     9:
     :
00000000
00000000
00000000
00000000
,
00000000
00000000
00000000
00000000
,
00000000
00000000
00000000
00000000
,
00000000
00000000
00000000
00000000
,
00000000
00000000
00000000
00000000
,
00000000
00000000
00000000
00000000
,
00001000
00001000
00100000
00001000
,
00010000
00010000
00000010
00010000
,
00002000
00000000
00000000
00003000
,
00010000
00000000
00000000
00001000
00000000
00000000
00100000
00000000
00110000
00000000
00000000
00000000
00000000
00000000
00000000
00000000
,
00001000
00010000
00000100
00000000
00000010
00000001
00001000
00000000
,
00000001
00000100
00001000
00000000
00010000
00000000
00000100
00000000
,
00000020
00002030
00023000
02030000
,
03100000
00010000
01000000
00000000
00010000
00000000
10010000
00000000
,
10000000
00010000
01000000
00000000
00100000
10000000
00010000
00000000
,
10000000
01000000
00010000
00000000
00001000
00000000
01000000
00000000
,
00200000
00320000
00032000
00003200
,
00000310
00001000
00000001
00000000
00001000
00000000
00001001
00000000
,
00000001
00000100
00001000
00010000
,
01000000
10000000
00100000
01000000
,
00010000
00000000
10000000
00000000
01000000
00000000
10000000
00010000
,
01000000
00000000
00010000
00100000
00000000
01000000
00000000
00000000
,
10010000
10000000
01000000
00010000
,
00001000
00000000
00000100
00000000
00000001
00000000
00000010
00000200
,
00000000
00000000
00000000
00000000
00000000
00000300
00000000
00010000
,
00001000
00000000
00000000
01000000
00000000
00000000
00010000
00000000
00000000
00000000
00100000
00000000
00000000
00000000
00000000
00000000
,
00001000
00011000
00100000
00110000
,
00001000
00011000
00100000
00110000
,
00001000
00010000
01000000
00100000
,
00001000
00010000
00001000
00000000
,
00010000
00011000
00000010
00001010
,
00010000
00011000
00000010
00001010
,
00010000
00001000
00000000
00001000
,
00011000
00000000
00010000
00000000
00000100
00001000
00000010
00000000
,
00010000
00010000
00000000
00001000
00000000
01000000
00000000
00000000
,
00010000
00000000
00000000
00100000
00000000
00000000
00001000
00000000
00000000
00000000
00011000
00000000
00000000
00000000
00000000
00000000
,
00010000
01000000
10000000
00100000
,
00010000
00001000
00010000
01000000
,
00100000
00000000
00000000
00001000
00010000
00010000
00000000
00000100
,
00000000
00000010
00001000
00020000
00000000
00000000
00030000
00000000
,
00001000
00000100
00000001
00000010
,
00001000
00010000
00001000
00000100
,
00000010
00000000
00000000
00010000
00001000
00000000
00000000
00001000
,
01000000
00000000
00000000
00010000
00000000
00000000
00100000
00000000
00000000
00001000
00000000
00000000
00011000
00000000
00000000
00000000
,
00010000
01000000
10000000
00010000
,
01000000
10000000
01000000
00010000
,
10000000
01000000
00010000
00001000
,
01000000
00100000
00010000
00011000
,
00001000
00000100
00000001
00001000
,
00000100
00000001
00000100
00001000
,
00000001
00000100
00001000
00010000
,
00001000
00000000
00000000
00100000
00000000
00000000
01000000
00000000
00000000
10000000
00000000
00000000
00010000
00000000
00000000
00000000
,
02000000
00000000
00000000
03000000
,
00002000
00000000
00000000
00003000
,
00020000
00000000
00000000
00000000
,
00000000
00000000
00030000
00000000
,
00010000
00001000
01000000
00000000
00100000
10000000
00010000
00000000
,
10000000
01000000
00010000
00000000
00001000
00000000
01000000
00000000
,
00200000
00320000
00032000
00003200
,
00000310
00001000
00000100
00000000
00001000
00000000
00001001
00000000
,
00000001
00001000
00000100
00000000
00000010
00000001
00001000
00000000
,
00000001
00000100
00001000
00000000
00010000
00000000
00000100
00000000
,
00000020
00002030
00023000
02030000
,
03100000
00010000
10000000
00000000
00010000
00000000
10010000
00000000
,
10000000
10000000
00000000
01000000
00000000
00010000
00000000
00001000
,
00000000
00010000
00000010
00000000
00000220
00000000
00000000
00000000
,
00000330
00000000
00000000
00000000
,
00000000
00000000
00000000
00000000
;
#NOTES:
     dance-double:
     :
     Hard:
     14:
     :
00000000
00000000
00000000
00000000
,
00000000
00000000
00000000
00000000
,
00000000
00000000
00000000
00000000
,
00000000
00000000
00000000
00000000
,
00000000
00000000
00000000
00000000
,
00000000
00000000
00000000
00000000
,
00001000
00010000
00001000
00010000
00001000
00010000
01000000
00100000
,
00001000
00010000
00001000
00010000
00001000
00000100
00000010
00010000
,
00002000
00000000
00000000
00003000
,
00010000
00000000
00000000
00001000
00000000
00000000
00011000
00000000
00010010
00000000
00000000
00000000
00000000
00000000
00000000
00000000
,
00010000
00000000
00001000
00000000
00000100
00000000
00000001
00000000
00000010
00000000
00000100
00000000
00001000
00000010
00000000
00000000
,
00010000
01000000
10000000
00100000
01000000
00010000
00100000
00000000
,
00001000
00010000
00000000
00000000
00000100
00001000
00000000
00000000
00000001
00000100
00000000
00000010
00000000
00000000
00001000
00000000
,
00000001
00000010
00001000
00010000
00001000
00000100
00000001
00000000
,
00000001
00000000
00000010
00000000
00000100
00000000
00001000
00000000
00000010
00000000
00010000
00000000
00001000
00010000
00000000
00000000
,
00001000
01000000
00100000
00010000
00100000
10000000
00010000
00000000
,
10000000
01000000
00000000
00000000
00010000
00001000
00000000
00000000
00000010
00000001
00000000
00001000
00000000
00000000
00000010
00000000
,
00000100
00000001
00000010
00000100
00001000
00000001
00000100
00000000
,
00000001
00000010
00000001
00000010
00000001
00000010
00000001
00000010
,
00000100
00010000
00001000
00010000
00001000
00010000
00001000
00010000
,
00001000
00000100
00001000
00000100
00001000
00000100
00001000
00000100
,
00000001
00000010
00001000
00010000
00100000
01000000
00010000
00000000
,
00100000
01000000
00100000
01000000
00100000
01000000
00100000
00010000
,
01000000
00100000
01000000
00100000
01000000
00100000
00010000
00001000
,
00000010
00000100
00000010
00000100
00000010
00000100
00000010
00001000
,
00010000
00000000
00000000
00001000
00000000
00000000
01000000
00000000
00000000
00000000
10100000
00000000
00000000
00000000
00010000
00000000
,
10000000
01000000
00010000
00000000
10000000
00100000
00001000
00000000
,
00010000
00000010
00001000
00000100
00000010
00000001
00001000
00000020
,
00000030
00001000
00000100
00000020
00000000
00000030
00001000
00020000
,
00030000
00000100
00000010
00000002
00000000
00000000
00000003
00000000
,
00000001
00000100
00001000
00000000
00000001
00000010
00010000
00000000
,
00001000
00100000
00010000
01000000
00000000
00100000
10000000
00020000
,
00030000
00100000
01000000
20000000
00000000
00000000
30000000
00000000
,
00100000
00000000
00020000
00030000
00001000
00010000
00000100
00000010
,
00000002
00000000
00000000
00000003
00000000
00000010
00000000
00001000
,
00010000
00001000
00000000
00100000
00010000
00000000
01000000
00100000
00000000
00000000
10010000
00000000
00000000
00000000
00000000
00000000
,
10000000
01000000
00010000
10000000
00100000
00001000
00000010
00000001
,
00000000
00000000
00001000
00000000
00000010
00000000
00000100
00000010
00000000
00000000
00000000
00000000
00010000
00000000
00000000
00000000
,
00012000
00000000
00003000
00100000
01000000
10000000
00100000
00020000
,
00000000
00030200
00000320
00000032
00000000
00001003
00000100
00000010
,
00000001
00000100
00001000
00000001
00000010
00010000
00100000
10000000
,
00000000
00000000
01000000
00000000
00100000
00000000
00010000
00100000
00000000
00000000
00000000
00000000
00001000
00000000
00000000
00000000
,
00012000
00000000
00003000
00010000
00000020
00000000
00000030
00000100
,
00000001
00000000
00000000
00000010
00000000
00000000
00001000
00000000
00000000
01000000
00000000
00000000
00100000
00000000
00000000
00000000
,
10000000
01000000
00010000
10000000
00100000
00001000
00000010
00000000
,
00000001
00000100
00001000
00000001
00000010
00010000
00100000
00000000
,
10000000
01000000
00010000
10000000
00100000
00001000
00000010
00000000
,
00000001
00000001
00001000
00001000
,
00000001
00000100
00001000
00000001
00000010
00010000
00100000
00000000
,
10000000
01000000
00010000
10000000
00100000
00001000
00000010
00000000
,
00000001
00000100
00001000
00000001
00000010
00010000
00100000
00000000
,
10000000
00000000
00000000
01000000
00000000
00000000
00100000
00000000
00000000
00010000
00000000
00000000
10000000
00000000
00000000
00000000
,
10020000
00000000
00000000
00000000
,
00230000
00000000
02300000
00000000
,
23000000
00000000
30200000
00000000
,
00320000
00000000
00030000
00000000
,
00000001
00000000
00000010
00000000
00000100
00000000
00001000
00000000
00000001
00000000
00000100
00000000
00001000
00010000
00000000
00000000
,
00100000
10000000
01000000
00100000
00010000
10000000
00100000
00000000
,
10000000
01000000
00000000
00000000
00010000
00001000
00000000
00000000
00000010
00000001
00000000
00001000
00000000
00000000
00000001
00000000
,
00000100
00000001
00000010
00001000
00010000
00001000
01000000
00000000
,
00010000
00000000
00100000
00000000
01000000
00000000
10000000
00000000
00010000
00000000
01000000
00000000
00100000
01000000
00000000
00000000
,
00001000
00010000
00000100
00000010
00001000
00000010
00000001
00000000
,
00000100
00000010
00000000
00000000
00010000
00001000
00000000
00000000
01000000
00100000
00000000
10000000
00000000
00000000
01000000
00000000
,
10000000
00100000
00010000
00001000
00000010
00000001
00001000
00000000
,
00000001
00000100
00000000
00000110
00000000
00010010
00000000
00011000
,
00000000
00010000
01000000
00000000
02200000
00000000
00000000
00000000
,
03300000
00000000
00000000
00000000
,
00000000
00000000
00000000
00000000
;
#NOTES:
     dance-double:
     :
     Challenge:
     17:
     :
00000000
00000000
00000000
00000000
,
00000000
00000000
00000000
00000000
,
00000000
00000000
00000000
00000000
,
00000000
00000000
00000000
00000000
,
00000000
00000000
00000000
00000000
,
00000000
00000000
00000000
00000000
,
00001000
00010000
00000100
00001000
00000010
00010000
00001000
01000000
,
00010000
00100000
00001000
00010000
00000100
00001000
00000010
00010000
,
00001000
01000000
00010000
00100000
01000000
10000000
00010000
01000000
,
01100000
00000000
00000000
10100000
00000000
00000000
00010000
00000000
20020000
00000000
00000000
00000000
30030000
00000000
00000000
00000000
,
10000000
01000000
10000000
01000000
00100000
00010000
00100000
00000000
00001000
00010000
00001000
00000000
00010000
00000200
00000000
00000300
,
00001000
00000001
00000010
00000100
00001000
00000001
00001000
00000000
00000001
00000100
00000010
00000000
00002000
00000000
00003000
00000000
,
00000100
00000020
00000000
00000030
00001000
00020000
00000000
00030000
00001000
01000000
00000000
00100000
00000000
00000000
10000000
00010000
,
10000000
01000000
00100000
00010000
00100000
00000000
00001000
00010000
00001000
00010000
00000100
00001000
00000001
00000000
00000100
00000000
,
00000001
00000010
00000001
00000010
00000100
00001000
00000100
00000000
00010000
00001000
00010000
00000000
00001000
02000000
00000000
03000000
,
00010000
10000000
01000000
00100000
00010000
10000000
00010000
00000000
10000000
00100000
01000000
00000000
00020000
00000000
00030000
00000000
,
01000000
00200000
00000000
00300000
00010000
00002000
00000000
00003000
00010000
00000100
00000000
00000010
00000000
00000000
00000001
00001000
,
00000001
00000010
00000100
00001000
00000100
00000000
00010000
00001000
00100000
00010000
00100000
01000000
20000000
00000000
30000000
00000000
,
00010000
01000000
00010000
00100000
01000000
10000000
01000000
00100000
,
00001000
00010000
00000100
00010000
00001000
00010000
00000010
00001000
,
00000100
00001000
00000010
00000100
00000001
00000010
00000100
00001000
,
00000010
00000000
00010000
00000000
00001000
00000000
01000000
00000000
00001000
00000000
00010000
00000000
00010000
00000000
00010000
00001000
,
00010000
00000100
00001000
00000001
00000100
00000010
00001000
00000100
,
00010000
00001000
01000000
00010000
00100000
01000000
10000000
00100000
,
10000000
01000000
00100000
00010000
01000000
00001000
00010000
00001000
,
00010000
00001000
00010000
00000010
00001000
00000000
00000010
00010000
00001000
00100000
00010000
00000000
00100000
00001000
00010000
00001000
,
00020000
00030020
00002030
00003200
00000320
00000032
00002003
00003020
,
00000230
00002300
00023000
00230000
02300000
03020000
00230000
00302000
,
00013000
00000000
00000100
00001000
00000000
00000010
00001000
00000000
00000001
00000000
00001000
00000000
00000100
00000000
00001000
00000000
,
00000001
00000100
00000001
00000010
00000100
00001000
00000001
00000100
00000001
00000010
00000100
00001000
00000010
00000100
00000001
00001000
,
00000200
00000320
00000230
00020300
00032000
02003000
03020000
00230000
,
02300000
03020000
00032000
00003020
00000230
00002300
00003020
00000230
,
00000301
00000010
00000100
00002000
00000000
00000000
00003010
00000000
,
00010010
00000000
00000000
00010000
00001000
00000000
00010000
00000000
00001000
00100000
00010000
00000000
01000000
00000000
00100000
00000000
,
10000000
01000000
00100000
00010000
00100000
00000000
00001000
00010000
00000100
00000010
00000001
00000000
00001000
00000000
00000001
00000000
,
00000100
00000000
00000000
00000010
00000000
00000000
00000000
00000000
00000000
00010000
00000000
00000000
00001000
00000000
00000000
00000000
00000000
00000000
01000000
00000000
00000000
00100000
00000000
00000000
10000000
00000000
00010000
00000000
10000000
00000000
00020000
00000000
00000000
00000000
00000000
00000000
00000000
00000000
00000000
00000000
00000000
00000000
00030000
00000000
00000000
00000000
00000000
00000000
,
10000000
01000000
10000000
01000000
00100000
00000000
00001000
00000000
00010000
00001000
00010000
00000100
00010000
00000000
00001000
00000000
,
00000010
00000001
00000010
00000100
00001000
00000001
00001000
00000010
00000100
00000001
00001000
00000001
00001000
00000100
00000010
00000001
,
00001000
00000000
00000001
00000000
00000100
00000000
00001000
00000000
00010000
00100000
00000000
01000000
00000000
00000000
00002000
00000000
,
00000000
00000000
00203000
00000000
02300000
00000000
23000000
00000000
00100000
00000000
00100000
00000000
30100000
00000000
00100000
10000000
,
00010000
10000000
01000000
00100000
00010000
00000000
00100000
00000000
00001000
00010000
00001000
00010000
00000100
00000000
00001000
00000000
,
00000001
00000010
00000100
00001000
00000100
00010000
00001000
00010000
00001000
00100000
00010000
00100000
00010000
00100000
01000000
10000000
,
00010000
01000000
00100000
01000000
00010000
00000000
10000000
00000000
01000000
10000000
01000000
00100000
00010000
00000000
00100000
00000000
,
00001000
00000000
00000000
00011000
00000000
00000000
00010100
00000000
00000000
00001100
00000000
00000000
00001001
00000000
00000000
00000000
,
00000001
00000010
00000100
00001000
00000001
00000100
00000010
00000100
00000001
00001000
00000100
00001000
00000001
00000100
00000010
00001000
,
00000010
00010000
00001000
00010000
00001000
01000000
00010000
01000000
00010000
00100000
01000000
10000000
00010000
01000000
00100000
01000000
,
00010000
10000000
00100000
00000000
01000000
00000000
00001000
00000000
00010000
00001000
00000000
00000010
00000000
00000000
00000002
00000000
,
00000000
00000000
00000023
00000000
00000230
00000000
00020300
00000000
00001000
00000000
00001000
00000000
00031000
00000000
00001000
01000000
,
00010000
01000000
00010000
10000000
01000000
00100000
00010000
10000000
00010000
01000000
00100000
10000000
01000000
00100000
00010000
00100000
,
00001000
00010000
00001000
00010000
00000010
00001000
00000001
00000100
00000001
00000010
00000100
00001000
00000001
00000100
00000001
00000010
,
00000100
00001000
00000010
00010000
00001000
00010000
00000100
00001000
00000010
00010000
00001000
01000000
00010000
00100000
01000000
10000000
,
00010000
00000000
00000000
01100000
00000000
00000000
10100000
00000000
00000000
10010000
00000000
00000000
01100000
00000000
00000000
00000000
,
20010000
00000000
00000000
00000000
,
30200000
00000000
00000000
00000000
,
00320000
00000000
00030200
00000000
,
00000020
00000000
00000330
00000000
,
00000001
00000100
00000001
00000100
00000010
00001000
00000010
00000000
00010000
00001000
00010000
00000000
00001000
02000000
00000000
03000000
,
00010000
10000000
00100000
01000000
00010000
10000000
00010000
00000000
10000000
01000000
00100000
00000000
00020000
00000000
00030000
00000000
,
01000000
00200000
00000000
00300000
00010000
00002000
00000000
00003000
00010000
00000100
00000000
00000010
00000000
00000000
00000001
00001000
,
00000001
00000100
00000010
00001000
00000010
00000000
00010000
00001000
00010000
00001000
01000000
00010000
00100000
00000000
00010000
00000000
,
10000000
00100000
10000000
00100000
01000000
00010000
01000000
00000000
00001000
00010000
00001000
00000000
00010000
00000200
00000000
00000300
,
00001000
00000001
00000100
00000010
00001000
00000001
00001000
00000000
00000001
00000010
00000100
00000000
00002000
00000000
00003000
00000000
,
00000100
00000020
00000000
00000030
00001000
00020000
00000000
00030000
00001000
01000000
00000000
00100000
00000000
00000000
10000000
00010000
,
10000000
00100000
01000000
00010000
01000000
00000000
00001000
00010000
00000010
00001000
00000010
00000100
00000002
00000000
00000003
00000000
,
00000010
00000011
00000000
00010100
00000000
00011000
00000000
00101000
,
00000000
00000000
00000000
00100000
00010000
00100000
01000000
00000000
00000000
00000000
00000000
00000000
20020000
00000000
00000000
00000000
00000000
00000000
00000000
00000000
00000000
00000000
00000000
00000000
,
30030000
00000000
00000000
00000000
,
00000000
00000000
00000000
00000000
;
