
//----- song ID: saya -----//
#TITLE:SAY A PRAYER;
#ARTIST:Des-ROW Ft. Maxi Priest;
#BANNER:SAY A PRAYER.png;
#BACKGROUND:SAY A PRAYER-bg.png;
#CDTITLE:./CDTitles/DDR II.png;
#MUSIC:SAY A PRAYER.ogg;
#SAMPLESTART:79.176;
#SAMPLELENGTH:15;
#BPMS:0=97;
#STAGE:3;
#NOTES:
     dance-single:
     :
     Beginner:
     2:
     :
0000
0000
0000
0000
,
0000
0000
0000
0000
,
0000
0000
0000
0000
,
1000
0000
0000
0000
,
0000
0000
0000
0000
,
0100
0000
0000
0000
,
0000
0000
0000
0000
,
0001
0000
0000
0000
,
0000
0000
0000
0000
,
0010
0000
0000
0000
,
0000
0000
0000
0000
,
1000
0000
0000
0000
,
1000
0000
0000
0000
,
0001
0000
0000
0000
,
0001
0000
0000
0000
,
0100
0000
0000
0000
,
0100
0000
0000
0000
,
0010
0000
0000
0000
,
0010
0000
0000
0000
,
1000
0000
0000
0000
,
1000
0000
0000
0000
,
0010
0000
0010
0000
,
0010
0000
0000
0000
,
0110
0000
0000
0000
,
0010
0000
0000
0000
,
0010
0000
0000
0000
,
0001
0000
0000
0000
,
0001
0000
0000
0000
,
0100
0000
0000
0000
,
0100
0000
0000
0000
,
1000
0000
0000
0000
,
1000
0000
0000
0000
,
0001
0000
0001
0000
,
0001
0000
0000
0000
,
0010
0000
0010
0000
,
0010
0000
0000
0000
,
1000
0000
1000
0000
,
1000
0000
0000
0000
,
0100
0000
0100
0000
,
0100
0000
0000
0000
,
1000
0000
0000
0000
,
1000
0000
0000
0000
,
0010
0000
0000
0000
,
0010
0000
0000
0000
,
0001
0000
0000
0000
,
0001
0000
0000
0000
,
0100
0000
0000
0000
,
0100
0000
0000
0000
,
0110
0000
0000
0000
,
0000
0000
0000
0000
;
#NOTES:
     dance-single:
     :
     Easy:
     4:
     :
0000
0000
0000
0000
,
0000
0000
0000
0000
,
0000
0000
0000
0000
,
1000
0000
0000
0000
,
0100
0000
0000
0000
,
0010
0000
0000
0000
,
0001
0000
0100
0000
,
0001
0000
0000
0000
,
0100
0000
0000
0000
,
0010
0000
0000
0000
,
1000
0000
0100
0000
,
1000
0000
0010
0000
,
0100
0000
0001
0000
,
0010
0000
0100
0000
,
1000
0000
0010
0100
,
0001
0000
0010
0000
,
0100
0000
1000
0000
,
0010
0000
0100
0000
,
0001
0000
1000
0000
,
1001
0000
1001
0000
,
1001
0000
1001
0000
,
0010
0010
0100
0100
,
0110
0000
1000
0000
,
1000
0100
0010
0001
,
0010
0100
1000
0000
,
0001
0100
0010
1000
,
0010
0100
0001
0000
,
1000
0100
1000
0010
,
1000
0000
1000
0000
,
0001
0100
0001
0010
,
0001
0000
0001
0000
,
0220
0000
0330
0000
,
1000
0100
0001
0100
,
1000
0100
1000
0000
,
0001
0100
1000
0100
,
0001
0100
0001
0000
,
1000
0010
0001
0010
,
1000
0010
1000
0000
,
0001
0010
1000
0010
,
0001
0010
0001
0000
,
1000
0010
0000
0010
,
0000
0100
0000
0100
,
0000
0001
0000
0001
,
0000
1000
0000
1000
,
0001
0010
0000
0010
,
0000
0100
0000
0100
,
1000
0001
0000
0001
,
1000
0010
0000
0010
,
0100
0000
0000
0000
,
0000
0000
0000
0000
;
#NOTES:
     dance-single:
     :
     Medium:
     6:
     :
0000
0000
0000
0000
,
0000
0000
0000
0000
,
0000
0000
0000
0000
,
2000
0000
3000
0010
,
0200
0000
0300
0001
,
0010
0000
0000
0100
0000
0000
0000
0000
,
1000
0000
0010
0100
0000
0000
0001
0000
,
1000
0100
0010
0000
,
0001
0100
0010
0000
,
1000
0001
0100
0000
,
0010
0100
0001
0000
0010
0000
0100
0000
,
2000
0000
3001
0100
,
0020
0000
1030
0100
,
2000
0000
0000
3020
0000
0000
0030
1000
,
0100
0000
0010
0000
0100
0000
1000
0002
,
0000
0000
1003
0010
,
2000
0000
3100
0010
,
0001
0000
0010
0000
0100
0000
0000
1100
,
0000
0000
0110
0000
0000
0000
0001
0010
,
0100
1000
0010
0100
,
0010
0000
1000
0000
0100
0010
0100
0000
,
0011
0010
0001
0001
,
0100
0100
1010
0000
,
1100
0000
1000
0100
0010
0000
0001
0000
,
0100
0000
0010
0100
0010
0000
1000
0000
,
0001
0010
0001
0000
1000
0000
0100
0000
,
1000
0000
0010
0100
0001
1000
0010
0000
,
2000
3100
0002
0103
,
1000
0000
0010
0100
0001
0000
0010
0000
,
0100
1000
0010
0100
,
0001
0010
0100
1100
,
2002
0000
3003
1010
,
1000
0100
1000
0000
0100
0010
0100
0000
,
0010
0001
0010
0000
0001
0100
0002
0000
,
2003
0000
0010
0000
3010
0100
0010
1000
,
0100
0000
0010
0000
0001
0010
0001
0000
,
0001
0100
0001
0000
0100
0010
0100
0000
,
0010
1000
0010
0000
1000
0100
2000
0000
,
3002
0000
0010
0000
0013
0100
0010
0001
,
0100
0000
0010
0000
1000
0010
0100
0000
,
0001
0000
0100
0000
0010
0000
0100
0010
,
1000
0000
0100
0000
0010
0000
0100
0010
,
0001
0100
0010
1000
,
0001
0000
0010
0100
0000
0010
0000
0220
,
0000
0330
1000
0100
,
1000
0000
0010
0100
0000
0001
0000
0202
,
0000
0000
0000
0303
0000
0000
0000
0000
1000
0000
0000
0000
0010
0000
0000
0000
,
1000
0000
0100
0010
0000
0100
0000
1000
,
0001
0000
0000
0000
,
0000
0000
0000
0000
;
#NOTES:
     dance-single:
     :
     Hard:
     8:
     :
0000
0000
0000
0000
,
0000
0000
0000
0000
,
0000
0000
0000
0000
,
0002
0000
0010
0000
1003
0000
1000
0010
,
2000
0100
3001
0100
,
0020
0000
0000
2030
0000
0000
3000
0000
,
0001
0000
0010
0100
0000
0000
1000
0010
,
1000
0100
0010
0001
0010
0000
0001
0100
,
0001
0100
0010
1000
0100
0000
1000
0010
,
1000
0010
1000
0100
0010
0000
0000
0000
,
0001
0100
1000
0000
0100
0000
0010
1000
,
0100
0000
0010
0000
0001
0000
1000
0100
,
0001
0000
0100
0000
1000
0010
0100
0000
,
0001
0000
1000
0200
0000
0000
0300
0010
,
0001
0000
1000
0001
0100
0000
0010
1000
,
0100
1000
0010
0100
0001
0000
1000
0010
,
2000
0100
3002
0100
,
0013
0000
0100
0000
1000
0000
0010
1000
,
0000
0001
0010
0000
0001
0000
0100
0010
,
0110
0001
1001
1000
,
1100
0000
0001
1000
0000
0010
0000
0100
,
0110
0110
1010
1100
,
1001
0000
0011
0000
2000
0000
3010
0110
,
0000
1000
0100
0001
0100
0010
0001
0000
,
1000
0010
0100
1000
0100
0000
0001
0100
,
0010
0100
0010
0000
1000
0000
0100
0000
1000
0000
0100
0000
0001
0000
0100
0000
,
1000
0000
0000
0001
0100
0010
1000
0100
,
0000
1000
0010
1010
0000
0001
0010
0011
,
0001
0000
0100
0010
0000
1000
0000
0100
,
0010
0000
0001
0100
0001
0000
1000
0010
,
1010
1010
0011
0011
,
2002
0000
0000
0000
0000
0000
0000
0000
3003
0000
0000
0001
0100
0000
0001
0000
,
1000
0100
1000
0100
0010
0001
0020
0000
,
0031
0100
0001
0100
0010
1000
0020
0000
,
1030
0100
0001
1000
0010
0001
0010
0001
,
1000
0000
0010
0000
0100
0000
0010
0100
,
0001
0100
0001
0100
0010
1000
0002
0000
,
1003
0100
1000
0100
0010
0001
2000
0000
,
3001
0100
1000
0001
0010
1000
0010
1000
,
0001
0000
0010
0000
0100
0000
1000
0100
,
2000
0000
0001
0000
0010
0000
3100
0010
,
0002
0000
1000
0000
0010
0000
0103
0010
,
2000
3200
0320
0032
,
1003
0000
0010
0100
0000
0001
0000
0020
,
0100
0000
0001
0000
0100
0000
0031
1000
,
0100
0000
0010
0001
0000
1000
0000
0020
,
0100
0000
1000
0000
0100
0000
1030
0001
,
0010
0000
0100
1000
0000
0010
0000
0100
,
0001
0000
0000
0000
,
0000
0000
0000
0000
;
#NOTES:
     dance-double:
     :
     Easy:
     4:
     :
00000000
00000000
00000000
00000000
,
00000000
00000000
00000000
00000000
,
00000000
00000000
00000000
00000000
,
10000000
00000000
00000000
00000000
,
00100000
00000000
00000000
00000000
,
01000000
00000000
00000000
00000000
,
00001000
00000000
00010000
00000000
,
00000100
00000000
00000000
00000000
,
00001000
00000000
00000000
00000000
,
00000010
00000000
00000000
00000000
,
00000100
00000000
00000001
00000000
,
00001000
00000000
00000100
00000000
,
00010000
00000000
00001000
00000000
,
00100000
00000000
00010000
00000000
,
10000000
00000000
00100000
01000000
,
00001000
00000000
00010000
00000000
,
00000100
00000000
00001000
00000000
,
00000001
00000000
00000010
00000000
,
00000100
00000000
00000010
00000000
,
00000011
00000000
00000011
00000000
,
00001010
00000000
00001010
00000000
,
00010000
00010000
00001000
00001000
,
00011000
00000000
10010000
00000000
,
10000000
00100000
01000000
00001000
,
00010000
00000010
00001000
00000000
,
00000001
00000010
00000100
00010000
,
00001000
00100000
00010000
00000000
,
10000000
01000000
00010000
00001000
,
00000010
00000000
00000001
00000000
,
00000100
00001000
00010000
00100000
,
10000000
00000000
01000000
00000000
,
00220000
00000000
00330000
00000000
,
10000000
00100000
01000000
00001000
,
00010000
00001000
00010000
00000000
,
00000100
00001000
00000010
00000100
,
00000001
00000100
00000001
00000000
,
00001000
00000001
00000010
00000100
,
00001000
00000100
00010000
00000000
,
00001000
00100000
00010000
01000000
,
00100000
01000000
00100000
00000000
,
10000000
01000000
00000000
00010000
,
00000000
00001000
00000000
00000010
,
00000000
00000100
00000000
00001000
,
00000000
00000001
00000000
00000100
,
00000010
00000100
00000000
00000010
,
00000000
00010000
00000000
00001000
,
00010000
00001000
00000000
00100000
,
00010000
00100000
00000000
01000000
,
10000000
00000000
00000000
00000000
,
00000000
00000000
00000000
00000000
;
#NOTES:
     dance-double:
     :
     Medium:
     6:
     :
00000000
00000000
00000000
00000000
,
00000000
00000000
00000000
00000000
,
00000000
00000000
00000000
00000000
,
20000000
00000000
30000000
00100000
,
02000000
00000000
03000000
00001000
,
00010000
00000000
00000000
00000010
00000000
00000000
00000000
00000000
,
00001000
00000000
00000100
00000010
00000000
00000000
00000001
00000000
,
00000100
00000010
00010000
00000000
,
00001000
00100000
00010000
00000000
,
01000000
00100000
10000000
00000000
,
00010000
01000000
00100000
00000000
10000000
00000000
01000000
00000000
,
00200000
00000000
00301000
00010000
,
00000200
00000000
00001300
00000010
,
00000200
00000000
00000000
00000302
00000000
00000000
00000000
00000013
,
00000100
00000000
00010000
00000000
00001000
00000000
00100000
00020000
,
00000000
00000000
10030000
01000000
,
00200000
00000000
00310000
00000000
,
01100000
00000000
00000000
00000000
10000000
00000000
00000000
01010000
,
00000000
00000000
00011000
00000000
00000000
00000000
00001000
00000010
,
00000001
00000100
00000010
00010000
,
00001000
00000000
01000000
00000000
00010000
00100000
01000000
00000000
,
11000000
10000000
00100000
00100000
,
01000000
01000000
01010000
00000000
,
11000000
00000000
10000000
01000000
00100000
00000000
00010000
00000000
,
01000000
00000000
00001000
00010000
00000010
00000000
00001000
00000000
,
00000001
00000010
00000100
00000000
00001000
00000000
00000010
00000000
,
00010000
00000000
00001000
00100000
00010000
01000000
00100000
00000000
,
20000000
31000000
00200000
00301000
,
00010000
00000000
00000100
00010000
00000010
00000000
00001000
00000000
,
00000001
00000010
00000100
00010000
,
00001000
00100000
00010000
11000000
,
20020000
00000000
30030000
11000000
,
10000000
00100000
10000000
00000000
01000000
00100000
01000000
00000000
,
00100000
00001000
00100000
00000000
00001000
00010000
00002000
00000000
,
00023000
00000000
00000010
00000000
00030100
00001000
00000010
00000100
,
00000001
00000000
00001000
00000000
00000100
00000010
00000001
00000000
,
00000001
00000010
00000001
00000000
00000100
00000010
00000100
00000000
,
00000010
00001000
00000010
00000000
00010000
00001000
00020000
00000000
,
00032000
00000000
00100000
00000000
01003000
00010000
00100000
01000000
,
10000000
00000000
00010000
00000000
01000000
00100000
10000000
00000000
,
00100000
00000000
01000000
00000000
00010000
00000000
00100000
00001000
,
00010000
00000000
00000100
00000000
00001000
00000000
00000100
00000010
,
00000001
00000100
00000010
00010000
,
00001000
00000000
01000000
00010000
00000000
00100000
00000000
22000000
,
00000000
33000000
10000000
00100000
,
01000000
00000000
00001000
00010000
00000000
00000010
00000000
00002020
,
00000000
00003030
00000001
00000010
,
00000100
00000000
00010000
00001000
00000000
00100000
00000000
00010000
,
01000000
00000000
00000000
00000000
,
00000000
00000000
00000000
00000000
;
#NOTES:
     dance-double:
     :
     Hard:
     8:
     :
00000000
00000000
00000000
00000000
,
00000000
00000000
00000000
00000000
,
00000000
00000000
00000000
00000000
,
00020000
00000000
00000100
00000000
00030010
00000000
00010000
00000010
,
00002000
00000001
00003010
00001000
,
00000200
00000000
00000000
00020300
00000000
00000000
00030000
00000000
,
00001000
00000000
00100000
00010000
00000000
00000000
01000000
00100000
,
10000000
01000000
00100000
00010000
00100000
00000000
01000000
00100000
,
00001000
00010000
00000100
00001000
00000010
00000000
00001000
00000001
,
00000100
00000001
00001000
00000010
00010000
00000000
00000000
00000000
,
00001000
01000000
00010000
00000000
00100000
00000000
01000000
10000000
,
00020000
00000000
00100000
00000000
10030000
00000000
00010000
00100000
,
00002000
00000000
00100000
00000000
00013000
00000010
00001000
00000000
,
00000010
00000000
00000100
00000002
00000000
00000000
00000000
00000103
,
00000010
00000000
00010000
00001000
00100000
00000000
00010000
00200000
,
01000000
00000000
00010000
00000000
01300000
00000000
10000000
01000000
,
00200000
00301000
00020000
00030010
,
00002000
00000000
00003100
00000000
00001000
00000000
00000001
00000100
,
00000000
00000010
00010000
00000000
00001000
00000000
00100000
00010000
,
20000000
32000000
03200000
00302000
,
00013000
00000000
00000100
00001000
00000000
00000010
00000000
00000100
,
00000101
00000101
00001010
00010010
,
00011000
00000000
00101000
00000000
00100000
00000000
00010000
10000000
,
00000000
10000000
01000000
00100000
01000000
00010000
00001000
00000000
,
00010000
00000010
00001000
00000001
00000100
00000000
00000010
00010000
,
00001000
00010000
00001000
00000000
01000000
00000000
00010000
00000000
00100000
00000000
01000000
00000000
10000000
00000000
00100000
00000000
,
10000000
00000000
00000000
01000000
00100000
00001000
00010000
00001000
,
00000000
00010000
00000100
00010100
00000000
00000100
00001000
00001001
,
00000001
00000000
00000100
00000010
00000000
00001000
00000000
00000100
,
00010000
00000000
00001000
00010000
00001000
00000000
00100000
00010000
,
01010000
10100000
00110000
11000000
,
20020000
00000000
00000000
00000000
00000000
00000000
00000000
00000000
30030000
00000000
00000000
10000000
00100000
00000000
01000000
00000000
,
00010000
01000000
00010000
00100000
00001000
00010000
00002000
00000000
,
00013000
00000100
00010000
00000010
00001000
00000100
00002000
00000000
,
00003001
00000100
00001000
00010000
00100000
10000000
01000000
00100000
,
00002000
00000000
00023000
00000000
00030200
00000000
00001300
00000001
,
00001000
00000100
00001000
00000010
00010000
00001000
00020000
00000000
,
00031000
01000000
00001000
00100000
00010000
01000000
00020000
00000000
,
10030000
01000000
00010000
00001000
00000010
00000001
00000100
00000010
,
00020000
00000000
00032000
00000000
02003000
00000000
03010000
10000000
,
00020000
00000000
01000000
00000000
00130000
00000000
00001000
00010000
,
00000020
00000000
00001000
00000000
00000130
00000000
00000010
00000100
,
00000002
00000010
00000103
00000010
,
00020000
00000000
00031000
00200000
00000000
00320000
00000000
10030000
,
00100000
00000000
01000000
00000000
00010000
00000000
10000000
01000000
,
20000000
00000000
30100000
02000000
00000000
03001000
00000000
00010000
,
00000010
00000000
00001000
00000000
00000100
00000000
00001000
00000001
,
00000200
00000000
00000310
00020000
00000000
00031000
00000000
01000000
,
00010000
00000000
00000000
00000000
,
00000000
00000000
00000000
00000000
;
