
//----- song ID: ryum -----//
#TITLE:量子の海のリントヴルム;
#ARTIST:黒猫ダンジョン;
#TITLETRANSLIT:Ryoushi no umi no Lindwurm;
#ARTISTTRANSLIT:Kuro neko dungeon;
#BANNER:Ryoushi no umi no Lindwurm.png;
#BACKGROUND:Ryoushi no umi no Lindwurm-bg.png;
#CDTITLE:./CDTitles/jb copious.png;
#MUSIC:Ryoushi no umi no Lindwurm.ogg;
#SAMPLESTART:72.001;
#SAMPLELENGTH:15;
#BPMS:0=280;
#NOTES:
     dance-single:
     :
     Beginner:
     5:
     :
0000
0000
0000
0000
,
0000
0000
0000
0000
,
0000
0000
0000
0000
,
0000
0000
0000
0000
,
0000
0000
0000
0000
,
0000
0000
0000
0000
,
0000
0010
0000
0000
,
0000
0000
0000
0000
,
1000
0000
0000
0000
0000
0000
0000
0001
,
0000
0000
0000
1000
,
0000
0000
0000
0000
,
0000
0000
0100
0000
,
0000
0000
0000
0000
,
0000
0001
0000
0000
,
0000
0010
0000
0000
0000
0000
0000
0000
,
0100
0000
0000
0000
,
0000
0000
0000
1000
,
0000
0000
0000
0000
0000
0001
0000
0000
,
0000
0000
0100
0000
,
0000
0000
0000
0010
0000
0000
0000
0000
,
0000
0100
0000
0000
,
0000
0100
0000
0000
,
0000
0001
0000
0000
,
0000
0001
0000
0000
,
0000
1000
0000
0000
,
0000
1000
0000
0000
,
0000
0010
0000
0000
,
0000
0010
0000
0000
,
0000
1000
0000
0000
,
0001
0000
0000
1000
,
0000
0000
0010
0000
,
0000
0100
0000
0000
,
0010
0000
0000
1000
,
0000
0000
0001
0000
,
0000
1001
0000
0000
,
0000
0000
0000
0000
0000
0000
0000
0110
,
0000
0000
0000
0000
,
0000
0000
0000
0000
,
0000
0010
0000
0000
,
0000
0000
0000
0100
0000
0000
0000
0000
,
0000
0000
0010
0000
,
0000
0000
0000
0000
0000
1000
0000
0000
,
0000
0000
0000
0000
0000
0001
0000
0000
,
0000
0000
0000
0100
0000
0000
0000
0000
,
0000
0000
0010
0000
,
0000
0100
0000
0000
,
0000
0001
0000
0000
,
0000
0010
0000
0000
,
0000
0100
0000
0000
,
0000
0010
0000
0000
,
0000
0001
0000
0000
,
0000
1000
0000
0000
,
0000
0010
0000
0000
,
0000
1000
0000
0000
,
0000
0001
0000
0000
,
0000
0100
0000
0000
,
0000
0010
0000
0000
,
0000
1000
0000
0000
,
0000
0010
0000
0000
,
0000
0000
0000
0000
,
0000
0000
1000
0000
,
0000
0001
0000
0000
,
0000
0010
0000
0000
,
0000
0100
0000
0000
,
0000
1000
0000
0000
,
0000
0001
0000
0000
,
0000
0000
0000
0000
,
0000
0000
0100
0000
,
0000
0010
0000
0000
,
0200
0000
0000
0300
,
0000
0000
0020
0000
,
0000
0030
0000
0000
,
0100
0000
0000
0000
,
0000
0000
0000
0000
,
0001
0000
0000
0000
,
0000
1000
0000
0000
,
0000
0000
0001
0000
,
0000
0000
0000
0100
,
0000
0000
0000
0000
,
0010
0000
0000
0000
,
0000
1000
0000
0000
,
0000
0000
0001
0000
,
0000
0000
0000
0010
,
0000
0000
0000
0000
,
0100
0000
0000
0000
,
1000
0000
0000
0000
,
0100
0000
0000
0000
,
1000
0000
0000
0000
,
0001
0000
0000
0000
,
0010
0000
0000
0000
,
0001
0000
0000
0000
,
0010
0000
0100
0000
,
0010
0000
0000
0000
,
1000
0000
0000
0000
,
0010
0000
0000
0000
,
1000
0000
0000
0000
,
0100
0000
0000
0000
,
0010
0000
0000
0000
,
0100
0000
0000
0000
,
0010
0000
0001
0000
,
2000
0000
0000
0000
,
0000
0000
3000
0000
,
0002
0000
0000
0000
,
0000
0003
0000
0000
0000
0000
0000
0000
,
0200
0000
0000
0000
,
0000
0000
0300
0000
,
0020
0000
0000
0000
,
0000
0030
0000
0000
0000
0000
0000
0000
,
1000
0000
0000
0100
,
0000
0000
0100
0000
,
0000
0010
0000
0000
,
1000
0000
0000
0001
,
0000
0000
0001
0000
,
0000
0010
0000
0000
,
0100
0000
0000
0010
,
0000
0000
0010
0000
,
0000
1000
0000
0000
,
0001
0000
0000
0100
,
0000
0000
0100
0000
,
0000
0010
0000
0000
,
1000
0000
0000
0002
,
0000
0000
0000
0000
,
0000
0000
0003
0000
0000
2000
0000
0000
,
0000
0000
0000
0000
,
0000
0000
0000
0000
,
0000
3000
0000
0000
0000
0000
0000
0000
,
0000
0000
0000
0000
;
#NOTES:
     dance-single:
     :
     Easy:
     10:
     :
0000
0000
0000
0000
,
0000
0000
0000
0000
,
0000
0000
0000
0000
,
0000
0000
0000
0000
,
0000
0000
0000
1000
,
0000
0000
0100
0000
,
0000
0020
0000
0000
,
0000
0032
0000
0000
0000
0000
0000
0000
,
2003
0000
0000
0000
0000
0000
0000
3001
,
0000
0100
0000
0001
,
0000
1000
0000
0000
0000
0000
0001
0000
,
0000
0000
0020
0000
,
0000
0000
0000
0032
0000
0000
0000
0000
,
0000
0203
0000
0000
,
0000
0310
0000
0000
1000
0000
0000
0000
,
0010
0000
0000
0100
0000
0000
0000
0000
,
0001
0000
0000
1000
,
0000
0000
0000
0000
0000
0010
0000
0000
,
0010
0000
0100
0000
,
0000
0000
0000
0001
0000
0000
0001
0000
,
0000
0100
0000
0010
,
0000
0100
0000
0001
,
0000
1000
0000
0100
,
0000
0010
0000
0100
,
0000
1000
0000
0010
,
0000
0100
0000
0001
,
0000
1000
0000
0001
,
0000
0100
0000
0010
,
0000
0000
1000
0000
0000
1000
0000
0000
,
0001
0000
0000
0001
0000
0000
0010
0000
,
0000
0010
0000
0000
0100
0000
0000
0100
,
0000
0000
1000
0000
0000
0100
0000
0000
,
0010
0000
0000
0001
0000
0000
1000
0000
,
0000
0100
0000
0000
0001
0000
0000
0100
,
0000
0000
1000
0000
0000
0001
0000
0001
,
0000
0000
0000
0010
0000
0000
0000
0100
,
0000
0000
1000
0000
0000
0010
0000
0010
,
0000
0000
0000
1000
0000
0000
0000
0001
,
0000
0000
0010
0000
0000
0010
0000
0000
,
0100
0000
0000
1000
0000
0000
1000
0000
,
0000
0010
0000
0000
0100
0000
0000
0100
,
0000
0000
0001
0000
0000
1000
0000
0000
,
1000
0000
0000
0000
0000
0001
0000
0000
,
0001
0000
0000
0100
0000
0000
0010
0000
,
0000
0010
0000
0000
1000
0000
0000
0001
,
0000
0002
0000
2003
,
0000
0000
3001
0000
0000
0100
0000
0000
,
0010
0000
0000
1000
0000
0000
0010
0000
,
0000
0000
1000
0000
0000
0010
0000
0000
,
0000
0000
0100
0000
0000
0001
0000
0000
,
0000
0000
1000
0000
0000
0100
0000
0000
,
0010
0000
0000
0001
0000
0000
0010
0000
,
0000
0000
0001
0000
0000
1000
0000
0000
,
0000
0000
0010
0000
0000
0100
0000
0000
,
0000
0001
0010
0001
,
0000
1000
1000
0000
,
0000
0010
0100
0010
,
0000
1000
0010
0100
,
0001
0000
0000
1000
0000
0000
0010
0000
,
0000
0001
0000
0000
0010
0000
0000
1000
,
0000
0001
0000
0000
0010
0000
0010
0000
,
0010
0001
0100
0001
,
1000
0100
0010
0000
,
0000
0001
1000
0100
,
0010
0100
1000
0000
,
0000
0000
0000
0001
0000
0000
0010
0000
,
0000
1000
0000
0000
0010
0000
0000
0001
,
0000
1000
0000
0000
0100
0000
0100
0000
,
0100
0010
0000
0000
,
0002
0000
0000
0203
0000
0000
0320
0000
,
0000
2030
0000
0000
3002
0000
0000
0203
,
0000
0000
2300
0000
0000
3200
0000
0000
,
0301
0000
0000
0000
,
0000
0000
0000
0020
0000
0000
0030
0000
,
0001
0000
0010
0000
,
0100
0000
0010
0000
,
0001
0000
1000
0000
,
0100
0000
0010
0100
,
0000
1000
0000
0001
,
1000
0000
0010
0000
,
0100
0000
0010
0000
,
1000
0000
0001
0000
,
0010
0000
0100
0010
,
0000
0001
0000
1000
,
0100
0000
0010
0000
,
0001
0010
0100
0000
,
0110
0000
1001
0000
,
1000
0100
0010
0000
,
0001
0000
0000
0100
0000
0100
0000
0000
,
1000
0000
0000
0100
0000
0100
0000
0000
,
0001
0000
0010
0000
,
0100
0010
0100
0000
,
1000
0000
0001
0000
,
1000
0010
0100
0000
,
0110
0000
1001
0000
,
0001
0100
0010
0000
,
1000
0000
0000
0100
0000
0100
0000
0000
,
0001
0000
0000
0100
0000
0100
0000
0000
,
1000
0000
0010
0000
,
0100
0010
0100
0000
,
0001
0000
0000
1000
0000
0000
2002
0000
,
0000
0000
0000
3003
,
0100
0000
0000
0010
0000
0000
0100
0000
,
0000
0220
0000
0000
0000
0000
0330
0000
,
1000
0000
0000
0001
0000
0000
2002
0000
,
0000
0000
0000
3003
,
0010
0000
0000
0100
0000
0000
0010
0000
,
0000
0220
0000
0000
0000
0000
0330
0000
,
0001
0000
0000
1000
,
0100
1000
0100
0010
,
0001
1000
0010
0100
,
0001
0100
0001
0010
,
0100
0010
0100
1000
,
0001
0100
0010
1000
,
0100
1000
0100
0010
,
0001
0010
0001
0100
,
0010
1000
0100
0010
,
0001
1000
0001
1000
,
0010
1000
0010
0100
,
0001
0010
0100
1000
,
0001
0010
0100
2000
,
3000
0000
0000
0002
0000
0003
0000
0000
,
0200
0000
0300
0000
0000
0020
0000
0000
,
0000
0000
0000
0000
,
0000
0000
0000
0000
,
0000
0030
0000
0000
0000
0000
0000
0000
,
0000
0000
0000
0000
;
#NOTES:
     dance-single:
     :
     Medium:
     14:
     :
0000
0000
0000
0000
,
0000
0000
0000
0000
,
0000
0000
0000
0000
,
0000
0000
0000
0000
,
0000
0000
0000
1000
,
0000
0000
0010
0000
,
0000
0000
0110
0000
0000
0001
0000
0100
,
0000
0010
0100
0000
0001
0000
0010
0000
,
0100
1000
0000
0001
0000
1000
0000
0010
,
0000
0100
0000
0110
,
1000
0100
0010
0001
,
0100
0000
0010
0000
0110
0000
0000
1000
,
0000
0100
0000
0010
0100
0000
1000
0000
,
0010
0000
0100
0001
0000
1000
0000
0001
,
0000
0010
0000
0000
0100
0000
0000
0000
,
0110
0001
0100
0010
,
1000
0100
0010
0110
,
0000
0001
0000
0100
0000
0010
0100
0000
,
0110
0000
0000
0000
1001
0000
0000
1000
,
0000
0100
0000
0010
0100
0000
0110
0000
,
0010
0001
0100
0010
,
0100
0001
1000
0010
,
1000
0100
0010
0001
,
1000
0000
0010
0000
0100
0000
0001
0100
,
0001
1000
0100
0010
,
0100
1000
0001
0010
,
0001
0100
0010
1000
,
0001
0000
0010
0000
0100
0000
1000
0100
,
1000
0000
1100
0000
0000
0001
0000
0000
,
0101
0000
0000
1000
0000
0000
1010
0000
,
0000
0001
0000
0000
0011
0000
0000
0100
,
0000
0000
0110
0000
0000
0001
0000
0000
,
1001
0000
0000
0010
0000
0000
1001
0000
,
0000
0100
0000
0000
1001
0000
0000
0010
,
0000
0000
0100
0100
0000
0010
0000
0010
,
0000
0000
1000
0100
1000
0100
1000
0100
,
0000
0000
0010
0010
0000
0100
0000
0100
,
0000
0000
0010
0001
1000
0001
1000
0001
,
0000
0000
1000
0000
0000
0100
0000
0000
,
0010
0000
0000
0001
0010
0000
0001
0000
,
0000
0100
0000
0000
0010
1000
0000
0010
,
0000
0000
0100
0000
0000
0001
0010
0000
,
0001
0000
0000
0000
0000
0100
0000
0000
,
0010
0000
0000
1000
0001
0000
1000
0000
,
0000
0100
0000
0000
0010
0001
0000
0010
,
0000
0000
0001
0100
0001
0100
0010
1000
,
0010
1000
0010
0000
1000
0000
0100
0000
,
0010
0001
1000
0010
,
0100
0001
1000
0010
,
0100
0000
0001
0000
0100
0010
0000
0000
,
0100
0001
0010
0100
,
1000
0001
0010
0100
,
1000
0001
0100
0010
,
1000
0000
0001
0000
1000
0100
0000
0010
,
0100
1000
0100
0010
,
0100
0000
0010
0001
0010
0001
0000
0000
,
1000
0001
0100
0001
,
1000
0000
0100
0000
0010
0100
0000
0000
,
1000
0000
0000
0001
0000
0000
0100
0000
,
0000
1000
0000
0000
0100
0000
0000
0001
,
0000
1000
0000
0000
0100
0000
0100
0000
,
0100
0010
0001
0100
,
0010
0000
1000
0100
1000
0100
0000
0000
,
0010
0100
1000
0010
,
0100
0000
0001
0010
0001
0010
0000
0000
,
0100
0000
0000
1000
0000
0000
0010
0000
,
0000
0001
0000
0000
0010
0000
0000
1000
,
0000
0001
0000
0000
0010
0000
0010
0000
,
0010
0001
0100
0001
,
2000
0000
0000
3200
0000
0000
0302
0000
,
0000
0203
0000
0000
2300
0000
0000
3020
,
0000
0000
0032
0000
0000
0023
0000
0000
,
1030
0000
0000
0000
,
0000
0000
0000
0100
1000
0100
1000
0000
,
0100
0000
0010
0000
0001
0010
0000
0010
,
0001
0100
0010
1000
,
0100
0010
0001
0100
,
1000
0100
0001
0001
,
0100
1000
0100
0001
,
0100
0000
0010
0000
1000
0010
0000
0010
,
1000
0100
0010
0001
,
0100
0010
1000
0100
,
0001
0100
1000
1000
,
0100
0001
0100
1000
,
0001
0100
0001
1000
,
0010
0100
0010
0000
0010
1000
0010
0000
,
1000
0100
0010
0001
,
1000
0000
0100
1000
0000
0100
0000
0010
,
0001
0000
1000
0100
0000
1000
0000
0010
,
0100
0000
0001
1000
0000
0100
0000
0010
,
0100
1000
0001
0010
,
0100
1000
0100
0000
0100
0010
0100
0000
,
1000
0100
1000
0001
,
0010
0100
0010
0000
0010
0001
0010
0000
,
0001
0100
0010
1000
,
0001
0000
0100
0001
0000
0100
0000
0010
,
1000
0000
0001
0100
0000
0001
0000
0010
,
0100
0000
1000
0001
0000
0100
0000
0010
,
0100
0001
1000
0010
,
0100
0010
0100
0000
1000
0010
1000
0000
,
1001
0000
0000
0101
0000
0000
0021
0000
,
0000
0100
0100
0130
,
0110
0000
0000
0011
0000
0000
0101
0000
,
0000
2002
0000
0000
0000
0000
3003
0000
,
1001
0000
0000
1100
0000
0000
1020
0000
,
0000
0100
0100
0130
,
0110
0000
0000
1010
0000
0000
1100
0000
,
0000
2002
0000
0000
0000
0000
3003
0000
,
0010
0010
0010
0001
,
0100
0001
0100
0000
0010
0000
1000
0010
,
1000
0000
0100
0000
0010
0100
0010
0000
,
0001
0000
1000
0010
0100
0001
1000
0000
,
0100
1000
0100
0000
0010
0000
0001
0010
,
0001
0000
0100
0000
0010
0100
0010
0000
,
1000
0000
0001
0010
0100
1000
0001
0000
,
1000
0100
1000
0000
0010
0000
0100
0001
,
0100
0000
0001
0000
0010
0100
0010
0000
,
0100
0000
1000
0001
0100
0010
1000
0000
,
0001
0100
0001
0000
0010
0000
0100
1000
,
0100
0000
1000
0000
0010
0100
0010
0000
,
0100
0000
0001
1000
0100
0010
0200
0000
,
0300
0000
0000
2000
0000
3000
0000
0000
,
0002
0000
0003
0000
0000
0220
0000
0000
,
0000
0000
0000
0000
,
0000
0000
0000
0000
,
0000
0330
0000
0000
0000
0000
0000
0000
,
0000
0000
0000
0000
;
#NOTES:
     dance-single:
     :
     Hard:
     17:
     :
0000
0000
0000
0000
,
0000
0000
0000
0000
,
0000
0000
0000
0000
,
0000
0000
0000
0000
,
0000
0000
0000
0000
0000
0000
0100
0010
,
1000
0001
1000
0000
0001
0010
0100
1000
,
0001
0000
1001
0000
0000
1000
0000
0010
,
0000
0100
0010
0000
1000
0000
0100
0000
,
0010
0001
0000
0100
0000
0001
0000
1000
,
0100
0010
0100
1000
0100
0000
1100
0000
,
0001
0100
0001
0100
0010
0000
1000
0010
,
1000
0010
0100
0000
1001
0000
0000
0001
,
0000
0010
0000
0100
0010
0000
0001
0000
,
0100
0000
0010
1000
0000
0100
0000
1000
,
0000
0001
0100
0010
0100
0001
0100
0000
,
0101
0000
1000
0100
1000
0100
0010
0000
,
0001
0010
0001
0010
0100
0000
1100
0000
,
0000
0001
0000
1000
0000
0010
1000
0000
,
1010
0000
0000
0000
0101
0000
0000
1000
,
0000
0001
0000
0010
0001
0000
0011
0000
,
0110
0000
1000
0100
1000
0001
0010
0100
,
1000
0000
0001
0100
0001
1000
0100
0010
,
0001
0000
1000
0010
1000
0010
0100
0001
,
0100
0001
0010
0001
1000
0100
0010
0001
,
1000
0000
0001
0100
0010
0100
0001
1000
,
0010
0000
1000
0100
0010
0100
1000
0001
,
0010
0000
0001
0100
0001
0100
0010
1000
,
0010
1000
0100
0010
0001
1000
0100
0010
,
0001
0000
0011
0000
0000
1001
0000
0100
,
1000
0000
0000
1010
0000
0010
0100
0000
,
0000
0101
0000
0001
0010
0000
0000
0011
,
0000
0010
0100
0000
0000
1100
0000
1000
,
0010
1000
0010
0100
0000
0001
1000
0000
,
0010
1000
0000
0001
0100
0000
1000
0100
,
0000
0001
1000
1000
0000
0010
0000
0010
,
0000
0000
0100
0001
0001
0001
0001
0001
,
0000
0000
0010
0010
0000
0100
0000
0100
,
0000
0000
1000
0010
0010
0010
0010
0010
,
0000
0000
1000
0001
0000
1000
0100
0001
,
0100
0000
0000
1000
0010
0000
0001
0010
,
1000
0010
0000
0000
0100
0010
0000
1000
,
0100
0010
0001
0000
0000
0100
0010
1000
,
0001
0000
0000
0000
0000
1010
0000
0000
,
0101
0000
0000
1000
0100
0000
0001
0100
,
1000
0100
0000
0000
0010
0001
0000
0100
,
0001
0010
0001
1000
0100
0010
0001
1000
,
0100
0010
0001
0100
0001
1000
0100
1000
,
0001
0010
0001
1000
0010
1000
0001
0010
,
0100
1000
0001
0100
0001
1000
0100
1000
,
0001
0010
0001
0100
0010
1000
0000
0001
,
0001
0000
1000
0100
1000
0001
0100
0001
,
1000
0010
1000
0001
0010
0001
1000
0010
,
0100
0001
1000
0100
1000
0001
0100
0001
,
1000
0010
1000
0100
0010
0001
0000
1000
,
1000
0000
0001
0100
1000
0100
0001
0100
,
0000
0010
1000
0100
0001
0100
0000
1000
,
0001
0000
1000
0010
0001
0010
1000
0010
,
0000
0100
0001
0010
1000
0010
0000
0001
,
1000
0001
0000
0100
0100
0000
0010
0010
,
0000
1000
1000
0000
0001
0001
0000
0011
,
0000
1100
0000
0000
1010
0000
1010
0000
,
0101
0000
1000
0010
0001
0010
1000
0100
,
1000
0001
1000
0100
0010
0001
0000
1000
,
0010
0000
1000
0100
0001
0100
1000
0010
,
1000
0001
1000
0010
0100
0001
0000
0100
,
0010
0100
0000
0001
0001
0000
1000
1000
,
0000
0100
0100
0000
0010
0010
0000
0011
,
0000
1100
0000
0000
0101
0000
0101
0000
,
1010
0000
0001
0100
0001
0010
0100
1000
,
0001
0100
1000
0001
0010
1000
0001
0010
,
1000
0001
0100
1000
0001
0100
1000
0001
,
0010
1000
0001
0010
1000
0001
0100
1000
,
0001
0000
0000
0000
,
0000
0000
0000
0010
0010
0010
0010
0000
,
1000
0100
1000
0100
0010
0001
0000
0001
,
0100
0010
0100
0010
1000
0001
1000
0100
,
0010
0001
0010
0001
1000
0010
0100
0010
,
0001
0010
0000
1000
0100
0010
0001
0010
,
0100
0010
1000
0010
0100
0001
0100
1000
,
0001
0100
0001
0100
0010
1000
0000
1000
,
0100
0010
0100
0010
0001
1000
0001
0100
,
0010
1000
0010
1000
0001
0010
0100
0010
,
1000
0010
0000
0001
0100
0001
0100
0010
,
0100
1000
0100
0010
1000
0100
0001
0100
,
1000
0001
0100
0001
0010
0001
0100
0000
,
0001
0010
0100
0010
0001
1000
0001
0000
,
0101
0011
1010
1100
,
0001
1000
0100
0010
0100
0001
0100
0010
,
0001
1000
0010
0100
0000
0110
0000
1010
,
0001
0010
0100
1000
0000
1100
0000
1001
,
0001
0010
0100
0010
0001
0100
0010
0100
,
0001
0010
0100
0010
1000
0010
0001
0100
,
0001
1000
0100
1000
0010
1000
0100
0000
,
1000
0010
0100
0010
1000
0001
1000
0000
,
1100
1010
0011
0101
,
1000
0001
0100
0010
0100
1000
0100
0010
,
1000
0001
0010
0100
0000
0110
0000
0011
,
1000
0010
0100
0001
0000
0101
0000
1001
,
1000
0010
0100
0010
1000
0100
0010
0100
,
1000
0010
0100
0010
0001
0010
1000
0010
,
0110
0000
0000
1010
0000
0000
1001
0000
,
0000
0001
0100
1000
0100
0001
0100
0010
,
0110
0000
0000
1010
0000
0000
1100
0000
,
0000
1001
0000
0000
0001
0000
0001
0010
,
0110
0000
0000
1100
0000
0000
1001
0000
,
0000
1000
0100
0001
0100
1000
0010
0100
,
0110
0000
0000
1010
0000
0000
0101
0000
,
0000
1001
0000
0000
1000
0010
1000
0010
,
0100
0001
0100
0001
1000
0010
1000
0100
,
0010
0001
0010
1000
0010
0100
1000
0100
,
0001
0100
0010
0001
0010
0100
0010
0001
,
1000
0100
0000
1000
0010
0100
0001
0100
,
0010
1000
0010
0001
0010
0100
0001
0100
,
1000
0100
0010
1000
0010
0100
0010
1000
,
0001
0100
0000
0001
0010
0100
1000
0100
,
0001
0100
1000
0001
0010
0001
0100
0001
,
0010
0100
1000
0010
0001
0010
1000
0001
,
0010
0100
0000
1000
0010
0100
0001
0100
,
1000
0100
0001
1000
0010
1000
0100
1000
,
0010
0100
0001
0010
1000
0010
0001
1000
,
0010
0100
0001
0010
0001
0100
0202
0000
,
0303
0000
0000
2020
0000
3030
0000
0000
,
0220
0000
0330
0000
0000
2002
0000
0000
,
0000
0000
0000
0000
,
0000
0000
0000
0000
,
0000
3003
0000
0000
0000
0000
0000
0000
,
0000
0000
0000
0000
;
#NOTES:
     dance-single:
     :
     Challenge:
     18:
     :
0000
0000
0000
0000
,
0000
0000
0000
0000
,
0000
0000
0000
0000
,
0000
0000
0000
0000
,
0000
0000
0000
0000
0000
0000
1000
0100
,
0001
0100
1000
0000
0010
0100
0001
0010
,
1000
0010
0110
0000
0100
1100
0000
1010
,
0000
0001
0101
0000
0110
0000
1001
0000
,
1000
1100
0000
0011
0000
0101
0000
1000
,
0100
0010
0001
1000
0100
0000
0110
0000
,
0001
0100
0010
1000
0001
0000
1000
0100
,
0010
0001
1000
0000
1100
0000
0001
0101
,
0000
0110
0000
1000
1100
0000
0110
0000
,
1001
0000
0001
0101
0000
1010
0000
1100
,
0000
0001
0100
0010
1000
0001
0100
0000
,
0110
0000
1000
0010
0001
0010
1000
0000
,
0001
0000
0000
0100
0000
0000
1000
0000
0000
0100
0000
0000
0010
0000
1000
0000
0010
0000
1000
0000
0000
0001
0000
0000
,
0100
0101
0000
1010
0000
1000
1001
0000
,
0011
0000
0000
0000
0000
0000
0010
0000
0001
0000
0010
0000
0001
0000
0000
1000
0000
0000
0100
0000
0000
1100
0000
0000
,
0000
0011
0000
0001
1001
0000
1010
0000
,
0010
0100
0001
0010
0100
1000
0001
0100
,
0010
0100
0001
0010
0100
1000
0001
0100
,
1000
0100
0010
1000
0100
0010
0100
1000
,
0010
0100
0010
0001
0010
0001
0010
0100
,
0010
0000
0000
1000
0000
0000
0001
0000
0100
0000
0001
0000
0100
0000
0000
0010
0000
0000
1000
0000
0000
0100
0000
0000
,
0010
0000
0000
0001
0000
0000
1000
0000
0010
0000
1000
0000
0010
0000
0000
0100
0000
0000
0001
0000
0000
0100
0000
0000
,
1000
0000
0000
0100
0000
0000
0001
0000
0010
0000
0001
0000
0010
0000
0000
0100
0000
0000
1000
0000
0000
0010
0000
0000
,
0001
0000
0000
0010
0000
0000
1000
0000
0100
0000
1000
0000
0100
0000
0000
0010
0000
0000
0001
0000
0100
0000
0001
0000
,
0100
0000
0010
1000
0001
1001
0000
1000
,
1100
0100
0010
0011
0000
0001
0101
0010
,
1000
1010
0000
0010
0110
1000
0001
1001
,
0000
1000
1100
0001
0010
0110
0000
0100
,
1100
1000
0010
0110
0001
0100
1001
0010
,
1000
0010
0100
0001
0101
1000
0010
0110
,
1000
0001
1000
1100
0000
0011
0000
0210
,
0000
0000
0310
0001
0001
0001
0001
0001
,
0000
0000
0100
0100
0000
0110
0000
1020
,
0000
0000
0130
1000
1000
1000
1000
1000
,
0000
0000
0001
0100
0010
1000
0001
0010
,
0100
0001
1000
0010
0100
1000
0001
0100
,
0010
1000
0001
0100
1000
0001
0010
1000
,
0010
1000
0001
0100
0010
1000
0100
1000
,
0010
0100
0100
0001
1000
0100
0010
0001
,
1000
0010
0100
1000
0001
0010
0100
0001
,
1000
0100
0010
0001
1000
0100
0001
1000
,
0010
0001
0010
0001
1000
0100
0010
0001
,
1000
0001
1000
0010
0001
1000
0100
0001
,
1000
0100
0001
1000
0010
0001
0100
0001
,
0010
0001
1000
0010
0001
1000
0100
0001
,
1000
0100
0001
0100
1000
1100
0000
0010
,
0110
0000
0001
0010
1000
0001
0100
1000
,
0001
0100
1000
0001
0010
1000
0100
1000
,
0010
1000
0001
0010
1000
0001
0100
1000
,
0001
0100
1000
0100
0001
0101
0000
1000
,
0010
0000
0100
0000
0010
0000
0100
0000
0000
0001
0000
0000
0100
0000
0000
0010
0000
0000
0100
0000
0000
1000
0000
0000
,
0000
0010
0001
0010
1000
0100
0000
0110
,
0001
0000
1000
0100
0010
0100
0001
0100
,
0000
0010
1000
0010
0001
1000
0100
0001
,
1000
0010
0001
1000
1000
0000
0001
0001
,
0100
1000
1000
0000
0100
0100
0000
0101
,
0000
1100
0000
0000
0011
0000
1001
0000
,
0101
0000
0001
0010
1000
0010
0001
0100
,
0001
1000
0001
0100
0010
0110
0000
0001
,
0010
0100
1000
0010
0001
0010
1000
0100
,
1000
0001
1000
0100
0010
0110
0000
1000
,
0100
0010
0100
0010
0010
0000
0100
0100
,
1000
0010
0010
0000
0100
0100
0000
0101
,
0000
0011
0000
0000
1010
0000
1001
0000
,
1010
0000
0001
0010
0100
1000
0010
0100
,
1010
0100
0001
0011
0100
1000
1010
0100
,
0001
0011
0100
1000
1100
0010
0001
0101
,
0010
1000
1100
0010
0001
0101
0010
1000
,
1001
0000
0000
0000
,
0000
0000
0000
0001
0001
0001
0001
0000
,
1000
0010
0001
0010
0100
0010
0000
1000
,
0100
0010
0001
0010
0100
1000
0100
0001
,
0100
0001
0100
0010
0001
0100
0010
0100
,
1000
0100
0010
0100
0010
1000
0100
0010
,
0100
0001
0100
0010
0100
0010
0001
0100
,
0001
0010
1000
0010
0100
0010
0000
0001
,
0100
0010
1000
0010
0100
0001
0100
1000
,
0100
1000
0100
0010
1000
0100
0010
0100
,
0001
0000
0000
0100
0000
0000
0010
0000
0000
0100
0000
0000
0010
0000
0000
0001
0000
0000
1000
0000
0100
0000
0010
0000
,
0001
1000
0100
0010
0100
1000
0010
0100
0001
1000
0010
0100
,
0001
0100
0001
0010
0001
0100
0001
0010
,
0100
1000
0100
0001
1000
0010
0001
0010
,
0001
0100
0010
0100
1000
0100
0010
1000
,
0100
0010
0100
1000
0010
0001
0010
0001
,
0010
1000
0001
1001
0000
1100
0000
1010
,
0100
0001
0010
0011
0000
1001
0000
0101
,
1000
0010
1000
0100
0010
0001
1000
0010
,
0100
0010
1000
0010
0001
0010
0001
0010
,
1000
0100
1000
0010
1000
0100
1000
0010
,
0100
0001
0100
1000
0001
0010
1000
0010
,
1000
0100
0010
0100
0001
0100
0010
0001
,
0100
0010
0100
0001
0010
1000
0010
1000
,
0010
0001
1000
1001
0000
0101
0000
0011
,
0100
1000
0010
1010
0000
1001
0000
1100
,
0001
0010
0001
0100
0010
1000
0001
0010
,
0100
0010
0001
0010
1000
0010
1000
0010
,
0110
0001
1000
1100
0001
0010
0110
1000
,
0100
0010
0100
0010
0100
0001
0100
1000
,
1100
0000
0001
0011
0000
0100
0110
1000
,
0001
0022
0000
0000
0000
0000
0033
0000
,
0110
1000
0001
0101
1000
0010
0110
0001
,
0100
0010
0100
0010
0100
1000
0100
0001
,
0101
0000
1000
1010
0000
0100
0110
0001
,
1000
2020
0000
0000
0000
0000
3030
0000
,
0110
0110
0000
0001
0100
0010
1000
0100
,
0001
0100
0010
0100
1000
0010
0001
0010
,
0100
0010
1000
0100
0010
0001
1000
0100
,
1100
1100
0000
0101
0101
1000
0001
0100
,
1000
0100
0010
0100
0001
0010
1000
0010
,
0100
0010
0001
0100
0010
1000
0001
0100
,
0101
0101
0000
1100
1100
0001
1000
0100
,
0010
0100
0001
0100
0010
0001
0100
0001
,
0010
0001
0100
0010
1000
0100
1000
0010
,
1010
1010
0000
0011
0011
1000
0001
0100
,
0010
0100
1000
0100
0010
1000
0100
1000
,
0010
1000
0100
0010
0001
0100
0001
0010
,
0001
0000
0000
0100
0000
0000
1000
0000
0000
0001
0000
0000
0010
0000
0000
1000
0000
0000
0010
0000
0100
0000
0010
0000
,
0100
0000
0000
0000
0000
0000
0000
0000
0000
0001
0000
0010
0000
0001
0000
0010
0000
0000
0000
0000
0000
0000
0000
0000
,
1000
0000
0010
0000
1000
0000
0010
0000
0000
0000
0000
0000
0000
0000
0000
0220
0000
0000
0000
0000
0000
0000
0000
0000
,
0000
0000
0000
0000
,
0000
0000
0000
0000
,
0000
0330
0000
0000
0000
0000
0000
0000
,
0000
0000
0000
0000
;
#NOTES:
     dance-double:
     :
     Easy:
     9:
     :
00000000
00000000
00000000
00000000
,
00000000
00000000
00000000
00000000
,
00000000
00000000
00000000
00000000
,
00000000
00000000
00000000
00000000
,
00000000
00000000
00000000
00000001
,
00000000
00000000
00001000
00000000
,
00000000
00000002
00000000
00000000
,
00000000
00002003
00000000
00000000
00000000
00000000
00000000
00000000
,
00003200
00000000
00000000
00000000
00000000
00000000
00000000
00010300
,
00000000
00001000
00000000
00100000
,
00000000
00010000
00000000
00000000
00000000
00000000
10000000
00000000
,
00000000
00000000
00200000
00000000
,
00000000
00000000
00000000
02300000
00000000
00000000
00000000
00000000
,
00000000
03020000
00000000
00000000
,
00000000
00130000
00000000
00000000
00001000
00000000
00000000
00000000
,
00010000
00000000
00000000
00001000
00000000
00000000
00000000
00000000
,
00010000
00000000
00000000
00000010
,
00000000
00000000
00000000
00000000
00000000
00000100
00000000
00000000
,
00000100
00000000
00000001
00000000
,
00000000
00000000
00000000
00001000
00000000
00000000
00001000
00000000
,
00000000
00000100
00000000
00010000
,
00000000
00001000
00000000
01000000
,
00000000
00010000
00000000
10000000
,
00000000
01000000
00000000
00001000
,
00000000
00010000
00000000
00000010
,
00000000
00001000
00000000
00000001
,
00000000
00000100
00000000
00001000
,
00000000
00010000
00000000
00001000
,
00000000
00000000
01000000
00000000
00000000
01000000
00000000
00000000
,
00010000
00000000
00000000
00010000
00000000
00000000
10000000
00000000
,
00000000
10000000
00000000
00000000
00010000
00000000
00000000
00010000
,
00000000
00000000
00100000
00000000
00000000
00001000
00000000
00000000
,
00010000
00000000
00000000
00000100
00000000
00000000
00001000
00000000
,
00000000
00000100
00000000
00000000
00000001
00000000
00000000
00000100
,
00000000
00000000
00001000
00000000
00000000
00000010
00000000
00000010
,
00000000
00000000
00000000
00010000
00000000
00000000
00000000
00001000
,
00000000
00000000
00100000
00000000
00000000
00010000
00000000
00010000
,
00000000
00000000
00000000
10000000
00000000
00000000
00000000
00100000
,
00000000
00000000
01000000
00000000
00000000
01000000
00000000
00000000
,
00001000
00000000
00000000
00010000
00000000
00000000
00010000
00000000
,
00000000
00000100
00000000
00000000
00001000
00000000
00000000
00001000
,
00000000
00000000
00000001
00000000
00000000
00000100
00000000
00000000
,
00000100
00000000
00000000
00000000
00000000
00000010
00000000
00000000
,
00000010
00000000
00000000
00001000
00000000
00000000
00000100
00000000
,
00000000
00000100
00000000
00000000
00010000
00000000
00000000
00001000
,
00000000
00001000
00000000
01000000
,
00000000
00000000
00010000
00000000
00000000
10000000
00000000
00000000
,
01000000
00000000
00000000
00100000
00000000
00000000
00010000
00000000
,
00000000
00000000
00100000
00000000
00000000
00001000
00000000
00000000
,
00000000
00000000
00010000
00000000
00000000
00000010
00000000
00000000
,
00000000
00000000
00001000
00000000
00000000
00000001
00000000
00000000
,
00000010
00000000
00000000
00000100
00000000
00000000
00001000
00000000
,
00000000
00000000
00000100
00000000
00000000
00010000
00000000
00000000
,
00000000
00000000
00001000
00000000
00000000
01000000
00000000
00000000
,
00000000
00010000
10000000
00010000
,
00000000
00100000
00100000
00000000
,
00000000
00001000
00010000
00001000
,
00000000
00010000
00001000
00000100
,
00000001
00000000
00000000
00001000
00000000
00000000
00000100
00000000
,
00000000
00010000
00000000
00000000
00001000
00000000
00000000
00100000
,
00000000
00010000
00000000
00000000
10000000
00000000
10000000
00000000
,
10000000
00010000
00100000
00001000
,
00010000
00001000
00000100
00000000
,
00000000
00000001
00000100
00000010
,
00001000
00000100
00010000
00000000
,
00000000
00000000
00000000
00001000
00000000
00000000
00010000
00000000
,
00000000
00100000
00000000
00000000
10000000
00000000
00000000
00100000
,
00000000
01000000
00000000
00000000
00010000
00000000
00010000
00000000
,
00010000
00100000
00000000
00000000
,
00002000
00000000
00000000
00023000
00000000
00000000
00030020
00000000
,
00000000
00002030
00000000
00000000
00003200
00000000
00000000
00020300
,
00000000
00000000
00032000
00000000
00000000
02003000
00000000
00000000
,
03010000
00000000
00000000
00000000
,
00000000
00000000
00000000
20000000
00000000
00000000
30000000
00000000
,
01000000
00000000
00100000
00000000
,
00010000
00000000
00100000
00000000
,
00001000
00000000
00010000
00000000
,
00001000
00000000
00000010
00000100
,
00000000
00001000
00000000
00000001
,
00000100
00000000
00000010
00000000
,
00001000
00000000
00000100
00000000
,
00010000
00000000
00001000
00000000
,
00010000
00000000
00100000
01000000
,
00000000
00010000
00000000
10000000
,
01000000
00000000
00100000
00000000
,
00010000
00000000
00100000
00000000
,
00011000
00000000
00010100
00000000
,
00000100
00000000
00001000
00000000
,
00000001
00000000
00000000
00000100
00000000
00000100
00000000
00000000
,
00001000
00000000
00000000
00010000
00000000
00010000
00000000
00000000
,
00001000
00000000
00100000
00000000
,
00010000
01000000
00010000
00000000
,
10000000
00000000
00100000
00000000
,
01000000
00000000
00010000
00000000
,
01010000
00000000
00011000
00000000
,
00010000
00000000
00000100
00000000
,
00001000
00000000
00000000
00000010
00000000
00000010
00000000
00000000
,
00000100
00000000
00000000
00000001
00000000
00000001
00000000
00000000
,
00001000
00000000
00000100
00000000
,
00010000
00001000
00010000
00000000
,
00001000
00000000
00000000
00100000
00000000
00000000
00020000
00000000
,
00000000
00000000
00000000
00030000
,
10000000
00000000
00000000
00100000
00000000
00000000
10000000
00000000
,
00000000
02000000
00000000
00000000
00000000
00000000
03000000
00000000
,
00100000
00000000
00000000
00001000
00000000
00000000
00020000
00000000
,
00000000
00000000
00000000
00030000
,
00000100
00000000
00000000
00001000
00000000
00000000
00000100
00000000
,
00000000
00000020
00000000
00000000
00000000
00000000
00000030
00000000
,
00000001
00000000
00000000
00001000
,
00000100
00001000
00000100
00000000
,
00000000
00010000
00001000
00010000
,
00001000
00000000
00000000
00100000
,
00010000
00100000
00010000
00000000
,
00000000
10000000
00100000
10000000
,
00100000
00000000
00000000
01000000
,
00001000
01000000
00001000
00000000
,
00000000
00010000
00000010
00010000
,
00000010
00000000
00000000
00001000
,
00000001
00000100
00000010
00000000
,
00000000
00010000
00001000
00100000
,
00010000
00000000
00000000
20000000
,
30000000
00000000
00000000
00200000
00000000
00300000
00000000
00000000
,
00020000
00000000
00030000
00000000
00000000
00002000
00000000
00000000
,
00000000
00000000
00000000
00000000
,
00000000
00000000
00000000
00000000
,
00000000
00003000
00000000
00000000
00000000
00000000
00000000
00000000
,
00000000
00000000
00000000
00000000
;
#NOTES:
     dance-double:
     :
     Medium:
     13:
     :
00000000
00000000
00000000
00000000
,
00000000
00000000
00000000
00000000
,
00000000
00000000
00000000
00000000
,
00000000
00000000
00000000
00000000
,
00000000
00000000
00000000
00010000
,
00000000
00000000
00001000
00000000
,
00000000
00000000
00011000
00000000
00000000
00100000
00000000
00010000
,
00000000
10000000
01000000
00000000
00100000
00000000
00010000
00000000
,
00100000
00001000
00000000
00010000
00000000
00000100
00000000
00001000
,
00000000
00000001
00000000
00001001
,
00000001
00000100
00000010
00001000
,
00000100
00000000
00010000
00000000
00011000
00000000
00000000
00001000
,
00000000
00100000
00000000
00010000
00100000
00000000
01000000
00000000
,
10000000
00000000
00100000
10000000
00000000
00010000
00000000
00100000
,
00000000
00001000
00000000
00000000
00010000
00000000
00000000
00000000
,
00011000
00010000
00000010
00001000
,
00000001
00000010
00000100
00000110
,
00000000
00001000
00000000
00000100
00000000
00010000
00001000
00000000
,
00011000
00000000
00000000
00000000
01010000
00000000
00000000
10000000
,
00000000
00100000
00000000
01000000
00010000
00000000
00100000
00000000
,
00001000
00010000
00000010
00001000
,
00000010
00000100
00000001
00000010
,
00000100
00001000
00000010
00010000
,
00001000
00100000
00010000
01000000
,
00100000
10000000
00010000
01000000
,
00010000
10000000
01000000
00010000
,
00001000
00000010
00000001
00001000
,
00000010
00001000
00000100
00010000
,
00001000
00000000
00011000
00000000
00000000
00100000
00000000
00000000
,
00110000
00000000
00000000
10000000
00000000
00000000
10100000
00000000
,
00000000
01000000
00000000
00000000
01010000
00000000
00000000
00001000
,
00000000
00000000
00011000
00000000
00000000
00010000
00000000
00000000
,
00010100
00000000
00000000
00000100
00000000
00000000
00001001
00000000
,
00000000
00000001
00000000
00000000
00000101
00000000
00000000
00001000
,
00000000
00000000
00000010
00000010
00000000
00010000
00000000
00010000
,
00000000
00000000
00001000
00010000
00001000
00010000
00001000
00010000
,
00000000
00000000
00001000
00001000
00000000
00100000
00000000
00100000
,
00000000
00000000
00010000
01000000
00010000
01000000
00010000
01000000
,
00000000
00000000
00100000
00000000
00000000
10000000
00000000
00000000
,
01000000
00000000
00000000
00010000
00001000
00000000
00010000
00000000
,
00000000
00001000
00000000
00000000
00000100
00000000
00000000
00000001
,
00000000
00000000
00001000
00000000
00000000
00000100
00001000
00000000
,
00000100
00000000
00000000
00000000
00000000
00000001
00000000
00000000
,
00000010
00000000
00000000
00001000
00010000
00000000
00001000
00000000
,
00000000
00010000
00000000
00000000
00100000
00000000
00000000
10000000
,
00000000
00000000
01000000
00100000
01000000
00100000
00010000
00100000
,
00010000
00100000
00001000
00010000
,
00000100
00001000
00000010
00000100
,
00000001
00001000
00000100
00010000
,
01000000
00000000
10000000
00000000
00010000
01000000
00000000
00000000
,
00100000
10000000
01000000
00100000
,
00010000
01000000
00001000
00000100
,
00000001
00001000
00000100
00000010
,
00000001
00000000
00001000
00000000
00000100
00010000
00000000
00001000
,
00010000
00001000
01000000
00010000
,
10000000
00000000
00100000
01000000
00100000
01000000
00000000
00000000
,
00010000
00100000
00001000
00010000
,
00000100
00000000
00001000
00000000
00000001
00000010
00000000
00000000
,
00000001
00000000
00000000
00000100
00000000
00000000
00001000
00000000
,
00000000
00010000
00000000
00000000
00100000
00000000
00000000
10000000
,
00000000
00010000
00000000
00000000
01000000
00000000
01000000
00000000
,
01000000
00001000
00010000
00000010
,
00001000
00000000
00000001
00000010
00000001
00000010
00000000
00000000
,
00000100
00010000
00001000
01000000
,
00010000
00000000
10000000
00100000
10000000
00100000
00000000
00000000
,
10000000
00000000
00000000
01000000
00000000
00000000
00010000
00000000
,
00000000
00001000
00000000
00000000
00000010
00000000
00000000
00000001
,
00000000
00001000
00000000
00000000
00000010
00000000
00000010
00000000
,
00000010
00001000
00000010
00000100
,
00000002
00000000
00000000
00000203
00000000
00000000
00002300
00000000
,
00000000
00023000
00000000
00000000
00032000
00000000
00000000
00023000
,
00000000
00000000
02030000
00000000
00000000
23000000
00000000
00000000
,
30010000
00000000
00000000
00000000
,
00000000
00000000
00000000
00200000
00000000
00000000
00300000
00000000
,
10000000
01000000
00100000
00010000
,
00100000
00001000
00000010
00000001
,
00001000
00000001
00000100
00001000
,
00010000
00001000
00100000
00001000
,
00010000
01000000
00010000
00001000
,
00100000
00010000
10000000
00100000
,
01000000
00010000
01000000
00001000
,
00000100
00000001
00000010
00001000
,
00010000
00001000
00100000
00001000
,
00010000
01000000
10000000
00010000
,
10000000
00010000
01000000
00100000
,
10000000
01000000
00010000
00001000
,
00010000
00000100
00010000
00000010
,
00001000
00000001
00000010
00000100
,
00001000
00000000
00000100
00010000
00000000
00001000
00000000
00010000
,
00001000
00000000
01000000
00010000
00000000
01000000
00000000
00100000
,
10000000
00010000
01000000
00001000
,
00010000
00000010
00001000
00001000
,
00000001
00001000
00000100
00000010
,
00000001
00000100
00001000
00010000
,
00001000
01000000
00001000
00100000
,
00010000
10000000
00100000
01000000
,
00010000
00000000
01000000
00001000
00000000
00010000
00000000
00001000
,
00010000
00000000
00000100
00001000
00000000
00000100
00000000
00000010
,
00000001
00001000
00000100
00010000
,
00001000
00100000
00010000
00010000
,
11000000
00000000
00000000
01010000
00000000
00000000
00022000
00000000
,
00000000
00000000
00000000
00033000
,
00010100
00000000
00000000
00001100
00000000
00000000
00000110
00000000
,
00000000
00000022
00000000
00000000
00000000
00000000
00000033
00000000
,
00000101
00000000
00000000
00001100
00000000
00000000
00022000
00000000
,
00000000
00000000
00000000
00033000
,
01001000
00000000
00000000
01010000
00000000
00000000
01100000
00000000
,
00000000
20200000
00000000
00000000
00000000
00000000
30300000
00000000
,
00010000
00010000
00010000
00100000
,
00001000
00010000
00001000
00000000
00010000
00000000
00000010
00001000
,
00000010
00000000
00001000
00000000
00000001
00000010
00000001
00000000
,
00001000
00000100
00001000
00000010
,
00010000
00001000
00010000
00000000
00001000
00000000
01000000
00010000
,
01000000
00000000
00010000
00000000
10000000
00100000
10000000
00000000
,
00010000
01000000
00010000
10000000
,
01000000
00100000
01000000
00000000
00100000
00000000
00001000
00010000
,
00001000
00000000
00010000
00000000
00000010
00000100
00000010
00000000
,
00001000
00000001
00000100
00000001
,
00000010
00000100
00000010
00000000
00000100
00000000
00010000
00001000
,
00010000
00000000
00001000
00000000
01000000
00100000
01000000
00000000
,
00010000
10000000
00100000
20000000
,
30000000
00000000
00000000
02000000
00000000
03000000
00000000
00000000
,
00020000
00000000
00030000
00000000
00000000
00022000
00000000
00000000
,
00000000
00000000
00000000
00000000
,
00000000
00000000
00000000
00000000
,
00000000
00033000
00000000
00000000
00000000
00000000
00000000
00000000
,
00000000
00000000
00000000
00000000
;
#NOTES:
     dance-double:
     :
     Hard:
     17:
     :
00000000
00000000
00000000
00000000
,
00000000
00000000
00000000
00000000
,
00000000
00000000
00000000
00000000
,
00000000
00000000
00000000
00000000
,
00000000
00000000
00000000
00000000
00000000
00000000
00000100
00000001
,
00001000
00000100
00010000
00000000
00001000
00100000
00010000
01000000
,
00100000
00000000
11000000
00000000
00000000
00010000
00000000
00100000
,
00000000
00001000
00010000
00000000
00000010
00000000
00001000
00000000
,
00000100
00000010
00000000
00000001
00000000
00001000
00000000
00000100
,
00010000
00000010
00010000
00001000
00010000
00000000
00011000
00000000
,
00001000
00100000
00010000
00100000
00010000
00000000
10000000
00100000
,
10000000
00100000
01000000
00000000
01010000
00000000
00000000
00001000
,
00000000
00010000
00000000
00000010
00001000
00000000
00000001
00000000
,
00000100
00000000
00000010
00001000
00000000
00000100
00000000
00010000
,
00000000
00001000
00100000
00001000
01000000
00001000
00010000
00000000
,
00011000
00000000
00001000
01000000
00010000
01000000
00010000
00000000
,
10000000
01000000
10000000
01000000
00100000
00000000
00010000
00000000
,
00000000
10000000
00000000
01000000
00000000
00010000
00001000
00000000
,
00011000
00000000
00000000
00000000
00001000
00000000
00000000
00010000
,
00000000
00001000
00000000
00000100
00000001
00000000
00001000
00000000
,
00000010
00000000
00001000
00000100
00001000
00000010
00010000
00001000
,
00100000
00000000
00010000
01000000
00010000
10000000
01000000
00100000
,
00010000
00000000
01000000
00001000
00010000
00001000
00010000
00000010
,
00001000
00000010
00001000
00000100
00000010
00000001
00001000
00000100
,
00010000
00000000
00001000
01000000
00010000
00100000
01000000
10000000
,
00010000
00000000
00100000
00001000
00010000
00000010
00001000
00000001
,
00000100
00000000
00000010
00001000
00000010
00001000
00000100
00010000
,
00000100
00010000
00001000
01000000
00010000
00100000
01000000
10000000
,
00010000
00000000
00110000
00000000
00000000
00011000
00000000
00000010
,
00001000
00000000
00000000
00000110
00000000
00000001
00000010
00000000
,
00000000
00001100
00000000
00000100
00010000
00000000
00000000
00011000
,
00000000
00001000
00100000
00000000
00000000
00110000
00000000
00010000
,
10000000
00100000
10000000
00100000
00000000
10000000
01000000
00000000
,
00010000
00001000
00000000
00000010
00000001
00000000
00000100
00001000
,
00000000
00010000
00001000
00001000
00000000
00100000
00000000
00100000
,
00000000
00000000
00010000
01000000
01000000
01000000
01000000
01000000
,
00000000
00000000
00001000
00001000
00000000
00010000
00000000
00010000
,
00000000
00000000
00000010
00001000
00001000
00001000
00001000
00001000
,
00000000
00000000
00000001
00001000
00000000
00000001
00000100
00001000
,
00000100
00000000
00000000
00000010
00010000
00000000
00001000
00010000
,
01000000
10000000
00000000
00000000
00010000
00100000
00000000
01000000
,
10000000
01000000
00010000
00000000
00000000
00001000
00010000
00000010
,
00001000
00000000
00000000
00000000
00000000
00000101
00000000
00000000
,
00001010
00000000
00000000
00000100
00010000
00000000
00001000
00010000
,
00100000
01000000
00000000
00000000
00100000
10000000
00000000
00010000
,
00100000
00001000
00010000
00000100
00001000
00000100
00000010
00000001
,
00001000
00000100
00010000
00001000
00010000
00001000
00100000
00010000
,
00100000
00010000
10000000
01000000
10000000
01000000
00010000
00001000
,
00010000
00001000
00010000
00000010
00010000
00000010
00001000
00000100
,
00001000
00000001
00000100
00000010
00001000
00000100
00000000
00010000
,
00001000
00000000
01000000
00010000
01000000
00010000
10000000
00100000
,
10000000
00100000
01000000
00001000
01000000
00001000
00010000
00001000
,
00000010
00000001
00000100
00000010
00000100
00000010
00001000
00000100
,
00010000
00001000
00100000
00010000
00100000
01000000
00000000
10000000
,
00010000
00000000
00100000
00001000
01000000
00001000
00100000
00001000
,
00000000
00010000
00001000
00000100
00000001
00000100
00000000
00000010
,
00001000
00000000
00000100
00010000
00000010
00010000
00000100
00010000
,
00000000
00001000
00010000
00100000
10000000
00100000
00000000
01000000
,
00100000
01000000
00000000
00010000
00010000
00000000
01000000
01000000
,
00000000
00001000
00001000
00000000
00010000
00010000
00000000
00011000
,
00000000
00010100
00000000
00000000
00001100
00000000
00001001
00000000
,
00001010
00000000
00000001
00000010
00001000
00010000
00001000
00010000
,
01000000
10000000
00010000
00100000
00001000
00100000
00000000
00010000
,
10000000
00000000
10000000
00100000
00010000
00001000
00010000
00001000
,
00000100
00000001
00000010
00000100
00001000
00000100
00000000
00010000
,
00001000
00010000
00000000
00001000
00001000
00000000
00100000
00100000
,
00000000
00010000
00010000
00000000
10000000
10000000
00000000
10100000
,
00000000
01100000
00000000
00000000
00110000
00000000
10010000
00000000
,
01010000
00000000
00001000
00010000
00000100
00001000
00000010
00001000
,
00000001
00000010
00000100
00001000
00000010
00010000
00001000
00100000
,
00010000
01000000
00100000
10000000
01000000
00100000
00010000
01000000
,
00001000
00010000
00000100
00001000
00000010
00000100
00000001
00000010
,
00000100
00000000
00000000
00000000
,
00000000
00000000
00000000
00010000
00010000
00010000
00010000
00000000
,
00001000
00100000
00001000
00100000
00010000
10000000
00000000
10000000
,
01000000
00100000
00010000
00100000
00010000
01000000
00001000
00010000
,
00001000
01000000
00001000
00010000
00000100
00001000
00000010
00000100
,
00000001
00001000
00000000
00000001
00000100
00000010
00001000
00000100
,
00010000
00000010
00010000
00000100
00010000
00001000
00100000
00010000
,
01000000
00100000
01000000
00100000
10000000
00010000
00000000
00100000
,
00001000
00010000
00001000
00010000
00000100
00001000
00000010
00000100
,
00000010
00000001
00000010
00001000
00000100
00010000
00000100
00001000
,
00000100
00010000
00000000
00001000
00100000
00001000
01000000
00010000
,
01000000
00100000
01000000
10000000
01000000
00100000
10000000
01000000
,
00100000
00010000
01000000
00001000
00010000
00000010
00001000
00000000
,
00000001
00000010
00000100
00000010
00000001
00001000
00000100
00000000
,
00010100
00011000
01001000
01010000
,
10000000
00100000
01000000
00010000
00100000
00001000
00010000
00000000
,
00000100
00010000
00000010
00010000
00000000
00010100
00000000
00011000
,
00001000
01000000
00001000
00100000
00000000
01001000
00000000
00011000
,
00010000
00000010
00001000
00000010
00000100
00000001
00001000
00000001
,
00000010
00000100
00001000
00000100
00010000
00001000
00010000
00000000
,
00000010
00001000
00000100
00010000
00001000
00100000
00010000
00000000
,
10000000
00100000
01000000
00100000
10000000
00010000
01000000
00000000
,
01001000
00011000
00010100
00001100
,
00000001
00000010
00000100
00001000
00000010
00010000
00001000
00000000
,
00100000
00001000
01000000
00001000
00000000
00101000
00000000
00011000
,
00010000
00000010
00010000
00000100
00000000
00010010
00000000
00011000
,
00001000
00100000
00010000
00100000
01000000
10000000
00010000
10000000
,
00100000
01000000
00010000
01000000
00001000
00010000
00001000
00000000
,
00011000
00000000
00000000
00001010
00000000
00000000
00000011
00000000
,
00000000
00000001
00000100
00001000
00010000
00001000
00010000
00000000
,
00011000
00000000
00000000
00110000
00000000
00000000
10100000
00000000
,
00000000
11000000
00000000
00000000
00010000
00000000
01000000
00010000
,
01010000
00000000
00000000
00011000
00000000
00000000
00001010
00000000
,
00000000
00000001
00000010
00001000
00010000
00001000
00010000
00000000
,
00011000
00000000
00000000
01010000
00000000
00000000
11000000
00000000
,
00000000
10100000
00000000
00000000
00010000
00100000
00010000
00100000
,
00010000
01000000
00000000
00001000
00010000
00001000
00010000
00000000
,
00001000
00000100
00000001
00000100
00001000
00000000
00010000
01000000
,
10000000
01000000
00010000
00000000
00001000
00010000
00000100
00001000
,
00000001
00001000
00000000
00000100
00010000
00000000
00001000
00000000
,
00010000
00100000
10000000
00100000
00010000
00000000
00001000
00000010
,
00000001
00000010
00001000
00000000
00010000
00001000
00100000
00010000
,
10000000
00100000
00000000
01000000
00010000
00000000
10000000
00000000
,
01000000
00010000
00001000
00000010
00000001
00000000
00000100
00001000
,
00010000
00100000
10000000
00000000
00010000
00100000
00001000
00010000
,
00000010
00001000
00000000
00000001
00000100
00000000
00000001
00000000
,
00000010
00001000
00010000
01000000
10000000
00000000
00100000
00010000
,
00001000
00000100
00000001
00000000
00001000
00000010
00010000
00001000
,
00100000
00010000
10000000
01000000
00100000
00010000
00220000
00000000
,
00330000
00000000
00000000
00022000
00000000
00033000
00000000
00000000
,
00002020
00000000
00003030
00000000
00000000
00002002
00000000
00000000
,
00000000
00000000
00000000
00000000
,
00000000
00000000
00000000
00000000
,
00000000
00003003
00000000
00000000
00000000
00000000
00000000
00000000
,
00000000
00000000
00000000
00000000
;
#NOTES:
     dance-double:
     :
     Challenge:
     18:
     :
00000000
00000000
00000000
00000000
,
00000000
00000000
00000000
00000000
,
00000000
00000000
00000000
00000000
,
00000000
00000000
00000000
00000000
,
00000000
00000000
00000000
00000000
00000000
00000000
10000000
01000000
,
00010000
01000000
00010000
00000000
00001000
00010000
00001000
00000010
,
00000001
00000010
00000011
00000000
00001000
00000100
00000000
00011000
,
00000000
00001000
00100000
00000000
00110000
00000000
10010000
00000000
,
10000000
00100000
00000000
01010000
00000000
01001000
00000000
00001000
,
00010000
00000100
00001000
00000010
00000100
00000000
00000101
00000000
,
00001000
00000100
00010000
00001000
00010000
00000000
00001000
01000000
,
00010000
10000000
00100000
00000000
10100000
00000000
00010000
01000000
,
00000000
00011000
00000000
00010000
00000010
00000000
00001010
00000000
,
00001001
00000000
00000001
00000010
00000000
00001100
00000000
00010100
,
00000000
00010000
00001000
01000000
00010000
00100000
01000000
00000000
,
11000000
00000000
00010000
01000000
00001000
00010000
00001000
00000000
,
00010000
00000100
00001000
00000001
00000010
00000000
00000001
00000100
,
00000010
00000110
00000000
00001010
00000000
00010000
00011000
00000000
,
01001000
00000000
00000000
00000000
01000000
00010000
00100000
00110000
,
00000000
10010000
00000000
10000000
10100000
00000000
01010000
00000000
,
00011000
00000000
00000010
00001000
00000001
00000010
00000100
00001000
,
00000100
00010000
00001000
00010000
00100000
10000000
00010000
10000000
,
01000000
00010000
00001000
00100000
00001000
00010000
00001000
01000000
,
00010000
00100000
00001000
00010000
00001000
00000100
00000001
00001000
,
00000010
00000000
00001000
00000100
00010000
00001000
01000000
00010000
,
00100000
01000000
10000000
00100000
00010000
00001000
00010000
00000100
,
00010000
00000010
00001000
00000100
00010000
00001000
00000010
00000001
,
00000100
00000001
00001000
00000100
00000001
00001000
00000010
00000100
,
00001000
00000000
00000100
00010000
00001000
00011000
00000000
00000000
,
00100000
00010000
01000000
01010000
00000000
00000000
10000000
00100000
,
01000000
01010000
00000000
00000000
00010000
00100000
00001000
00011000
,
00000000
00000000
00010000
00000010
00001000
00001010
00000000
00000000
,
00000001
00000100
00000010
00000110
00000000
00000000
00000001
00000100
,
00001000
00010000
01000000
10000000
00100000
00010000
00001000
00000100
,
00000001
00001000
00000010
00001010
00000000
00011000
00000000
01010000
,
00000000
00000000
10000000
00100000
00100000
00100000
00100000
00100000
,
00000000
00000000
01000000
01000000
00000000
00011000
00000000
00001010
,
00000000
00000000
00000001
00000100
00000100
00000100
00000100
00000100
,
00000000
00000000
00000001
00000010
00000100
00001000
00000100
00010000
,
00001000
01000000
00010000
00100000
01000000
10000000
00100000
01000000
,
00010000
10000000
00100000
00010000
00001000
00000100
00000001
00000100
,
00000001
00001000
00000100
00010000
00001000
00100000
00010000
00100000
,
00010000
10000000
10000000
00100000
01000000
00010000
01000000
00001000
,
00010000
00000100
00001000
00000010
00000100
00000001
00000010
00000100
,
00001000
00000001
00000010
00001000
00010000
01000000
10000000
01000000
,
10000000
00010000
01000000
00001000
00010000
00001000
00010000
00000010
,
00001000
00000001
00000100
00001000
00010000
00001000
00010000
00100000
,
00010000
00100000
10000000
01000000
00010000
10000000
00100000
00010000
,
00100000
00010000
10000000
01000000
00010000
00001000
00000010
00000001
,
00001000
00000010
00010000
00001000
01000000
00010000
00000000
10000000
,
01000000
00000000
01000000
00010000
00001000
00010000
00001000
00000010
,
00001000
00000010
00000001
00000100
00001000
00000001
00000010
00001000
,
00000010
00001000
00000001
00000100
00001000
00010000
00100000
10000000
,
00010000
00100000
00001000
00010000
00000100
00001000
00000000
00000001
,
00000100
00000000
00000010
00001000
00000100
00010000
00001000
00010000
,
00000000
00001000
00010000
00100000
00010000
00001000
00000000
01000000
,
00010000
00000000
10000000
00100000
01000000
00010000
00100000
00001000
,
00000000
00010000
00001000
00000010
00001000
00000010
00000001
00001000
,
00000001
00000000
00000000
00001000
00001000
00000000
00000100
00000100
,
00000000
00010000
00010000
00000000
00001000
00001000
00000000
00110000
,
00000000
11000000
00000000
00000000
01010000
00000000
00011000
00000000
,
00001100
00000000
00000001
00000010
00001000
00000010
00001000
00010000
,
00001000
01000000
00010000
00100000
01000000
10000000
00000000
00010000
,
01000000
00100000
10000000
01000000
00010000
01000000
00010000
00001000
,
00010000
00000010
00001000
00000100
00000010
00000001
00000000
00001000
,
00000100
00010000
00000000
00001000
00001000
00000000
01000000
01000000
,
00000000
00010000
00010000
00000000
10000000
10000000
00000000
01010000
,
00000000
00011000
00000000
00000000
00001010
00000000
00000011
00000000
,
00000110
00000000
00000001
00001000
00000010
00000100
00000001
00001000
,
00001100
00010000
00001000
00010000
01000000
10000000
10100000
00010000
,
01000000
00001000
00100000
00001000
00011000
00010000
00000010
00001010
,
00000100
00000001
00001001
00000100
00010000
00011000
01000000
00010000
,
10010000
00000000
00000000
00000000
,
00000000
00000000
00000000
00010000
00010000
00010000
00010000
00000000
,
00100000
00001000
01000000
00001000
00010000
00001000
00000000
00010000
,
00000100
00001000
00000100
00000010
00000100
00000001
00000100
00001000
,
00000001
00000100
00000001
00001000
00000010
00010000
00100000
00010000
,
00100000
01000000
00010000
10000000
01000000
00100000
00010000
01000000
,
00001000
00000100
00001000
00000100
00000001
00001000
00000001
00001000
,
00000010
00010000
00000100
00010000
00001000
00010000
00000000
00001000
,
01000000
00010000
01000000
00100000
01000000
10000000
01000000
00010000
,
10000000
01000000
10000000
00010000
00100000
00001000
00000010
00001000
,
00000010
00000100
00001000
00000001
00000100
00000010
00001000
00000100
,
00010000
01000000
00010000
01000000
10000000
00010000
10000000
01000000
,
00010000
00001000
00000010
00001000
00010000
01000000
00010000
00001000
,
00010000
00000100
00001000
00000010
00010000
00001000
00100000
00001000
,
00010000
00000010
00001000
00000010
00000100
00000010
00000001
00000010
,
00001000
00000001
00000100
00001000
00010000
01000000
10000000
00000000
,
00010000
00100000
00001000
00011000
00000000
00010100
00000000
00001100
,
00000001
00000010
00000100
00001100
00000000
00010100
00000000
00011000
,
00001000
00100000
00010000
10000000
01000000
00100000
00010000
00100000
,
00001000
00010000
00000100
00001000
00000001
00001000
00000010
00010000
,
00001000
00010000
01000000
00010000
00001000
00000010
00001000
00010000
,
00001000
00100000
00010000
01000000
00001000
00010000
00000100
00010000
,
00001000
01000000
00010000
01000000
00100000
01000000
10000000
01000000
,
00010000
10000000
00100000
00010000
00001000
00000010
00000001
00000000
,
00001000
00000100
00010000
00011000
00000000
00101000
00000000
00110000
,
10000000
01000000
00100000
00110000
00000000
00101000
00000000
00011000
,
00010000
00000100
00001000
00000001
00000010
00000100
00001000
00000100
,
00010000
00001000
00100000
00010000
10000000
00010000
01000000
00001000
,
00011000
00010000
00000010
00001000
00000001
00000010
00000110
00000000
,
00001000
00000100
00010000
00001000
00010000
00000010
00100000
00001000
,
00011000
00000000
01000000
01010000
00000000
00010000
10010000
00000000
,
10000000
11000000
00000000
00000000
00010000
00000000
00100000
00001000
,
00011000
00010000
00000100
00001000
00000001
00000100
00000110
00000000
,
00001000
00000010
00010000
00001000
00010000
00000100
01000000
00001000
,
00011000
00000000
00100000
00110000
00000000
00010000
10010000
00000000
,
10000000
10100000
00000000
00010000
00000000
01000000
00010000
01000000
,
00001000
00001000
00000000
00010000
00001000
00010000
00000100
00001000
,
00000001
00000100
00001000
00010000
00001000
00100000
00010000
10000000
,
01000000
00010000
00001000
00010000
00001000
00000010
00000001
00001000
,
00001100
00001100
00000000
00011000
00011000
00000000
01000000
00010000
,
10000000
01000000
00010000
00001000
00010000
00000010
00001000
00000001
,
00000100
00001000
00010000
00001000
00010000
00100000
10000000
00010000
,
01010000
01010000
00000000
00011000
00011000
00000000
00010000
00001000
,
00000100
00001000
00010000
01000000
00001000
00000100
00000001
00000100
,
00010000
00001000
00010000
00100000
10000000
00100000
00010000
00001000
,
00001100
00001100
00000000
00000101
00000101
00000000
00000001
00000010
,
00001000
00010000
00001000
00000010
00010000
00100000
10000000
00100000
,
00010000
00001000
01000000
00001000
00000100
00000001
00000100
00001000
,
00010000
00000000
00000000
00001000
00000000
00000000
00100000
00000000
00000000
10000000
00000000
00000000
00010000
00000000
00000000
01000000
00000000
00000000
10000000
00000000
00100000
00000000
10000000
00000000
,
00100000
00000000
00000000
00000000
00000000
00000000
00000000
00000000
00000000
01000000
00000000
00001000
00000000
01000000
00000000
00001000
00000000
00000000
00000000
00000000
00000000
00000000
00000000
00000000
,
00010000
00000000
00000100
00000000
00010000
00000000
00000100
00000000
00000000
00000000
00000000
00000000
00000000
00000000
00000000
00002002
00000000
00000000
00000000
00000000
00000000
00000000
00000000
00000000
,
00000000
00000000
00000000
00000000
,
00000000
00000000
00000000
00000000
,
00000000
00003003
00000000
00000000
00000000
00000000
00000000
00000000
,
00000000
00000000
00000000
00000000
;
