
//----- song ID: riao -----//
#TITLE:Rise As One;
#ARTIST:Relect;
#BANNER:Rise As One.png;
#BACKGROUND:Rise As One-bg.png;
#CDTITLE:./CDTitles/DDR A3.png;
#MUSIC:Rise As One.ogg;
#SAMPLESTART:2.667;
#SAMPLELENGTH:15;
#DISPLAYBPM:90:180;
#BPMS:0=90,12=180,24=90,26=180,54=90,56=180,68=90,70=180,82=90,84=180,95.5=90,98=180,99.5=90,100=180,112=90,114=180,120=90,121=180,129=90,139=180,151=90,153=180,181=90,199=180,227=90,233=180,249=90,253=180,277=90;
#STOPS:92=0.167,92.5=0.125,92.875=0.125,93.25=0.125,93.625=0.125,94=0.125,94.375=0.125,94.75=0.125,95.125=0.083,95.375=0.042,98=0.125,98.375=0.125,98.75=0.125,99.125=0.125;
#STAGE:27;
#NOTES:
     dance-single:
     :
     Beginner:
     2:
     :
0000
0000
0000
0000
,
0000
0000
0000
0000
,
0000
0000
0000
0000
,
0001
0000
0000
0000
,
1000
0000
0000
0000
,
0001
0000
0000
0000
,
0000
0000
0010
0000
,
0000
0000
0010
0000
,
0000
0000
0100
0000
,
0000
0000
0100
0100
,
0000
0000
0001
0000
,
0000
0000
1000
0000
,
0000
0000
0001
0000
,
0000
0000
1000
0000
,
0002
0000
0000
0000
,
0003
0000
0000
0000
,
2000
0000
0000
0000
,
3000
0000
0010
0000
,
0000
0000
1000
0000
,
0000
0000
0001
0000
,
0000
0000
0100
0000
,
0001
0000
0000
0000
,
0010
0000
0000
0000
,
0100
0000
0000
0000
,
1000
0000
0000
0000
,
0001
0000
0000
0000
,
1000
0000
0000
0000
,
0001
0000
0000
0000
,
0000
0000
0010
0000
,
0000
0000
0100
0000
,
0000
0010
0000
0000
,
0000
0100
0000
0000
,
0000
0000
0000
2000
,
0000
3000
0000
0002
,
0000
0003
0000
2000
,
0000
0000
0000
3000
,
0000
0000
0000
0002
,
0000
0000
0000
0003
,
0000
1000
0000
1000
,
0000
0010
0000
0000
,
0000
0001
0000
0001
,
0000
0010
0000
0000
,
0000
1000
0000
1000
,
0000
0100
0000
0000
,
0000
0001
0000
0001
,
0000
0100
0000
0020
,
0000
0030
0000
2000
,
0000
3000
0000
0200
,
0000
0300
0000
0002
,
0000
0003
0000
1001
,
0000
0000
0000
1001
,
0000
0000
0000
1001
,
0000
0000
0000
0010
,
0010
0000
0000
1001
,
0000
0000
0000
1001
,
0000
0000
0000
1001
,
0000
0000
0000
1001
,
0000
0100
0000
0100
,
0000
1000
0000
0001
,
0000
1000
0000
0001
,
0000
1000
0000
1000
,
0000
0001
0000
0001
,
0000
1000
0000
0000
,
0000
0010
0000
0010
,
0000
0100
0000
0100
,
0000
0010
0000
0010
,
0000
0100
0000
0000
,
0000
1001
0000
0000
,
0000
1001
0000
0000
,
0000
0010
0000
0100
,
0000
1001
0000
0000
,
0000
0000
0000
0000
;
#NOTES:
     dance-single:
     :
     Easy:
     7:
     :
0000
0000
0000
0000
,
0000
0000
0000
0000
,
0000
0000
0000
0000
,
0001
0000
1000
0000
,
0001
0000
1000
1000
,
0001
0100
0010
1000
,
0000
0000
0000
0000
1001
0000
0000
0010
,
0000
0000
0010
0000
1001
0000
0000
0100
,
0000
0000
0100
0000
1001
0000
0000
0010
,
0000
0010
1001
0110
,
0000
0000
1000
0000
0110
0000
0000
0001
,
0000
0000
0001
0000
0110
0000
0000
1000
,
0000
0000
1000
0000
0000
0001
0000
0100
,
0000
0001
0000
0000
2002
0000
3003
0000
,
0010
0010
1000
1000
,
0100
0100
0001
0001
,
0010
1000
0100
0001
,
0220
0330
0010
0001
,
0100
0100
0010
1000
,
0100
0100
0010
0001
,
0100
0100
0220
0330
,
0001
0100
1000
0100
,
0001
0010
1000
0010
,
0001
0000
0000
0000
,
1000
0001
1000
0000
,
0001
0100
0010
0100
,
0001
0100
0010
0000
,
1000
0100
0010
0001
,
2002
3003
1000
0100
,
0010
0100
1000
0100
,
0010
0002
0000
0000
,
0003
2000
0000
0000
,
3000
0000
0000
0001
,
0000
0100
0000
1000
,
0000
0010
0000
0001
,
0000
0100
0000
1000
,
0000
0010
0000
0001
,
0100
1000
0010
0000
,
0000
0110
1000
0100
,
0010
0110
0001
0100
,
0010
0110
1000
0100
,
0010
1001
0110
0000
,
0100
0110
0001
0010
,
0100
0110
1000
0010
,
0100
0000
0000
0010
0000
0010
0000
0100
,
0000
1001
0000
0020
,
0030
0002
0003
0200
,
0300
2000
3000
0010
,
0001
0100
1000
0010
,
0001
0200
0300
1001
,
1001
1100
1100
1001
,
1001
0101
0101
1001
,
1001
1100
1100
0001
,
1000
0000
0001
0110
,
0110
1010
1010
0110
,
0110
0011
0011
1000
,
0001
0010
0100
2002
,
3003
0010
0000
0100
,
0000
1010
1010
0101
,
1010
0100
0010
0001
,
1000
0110
0110
1001
,
0110
1001
1001
0110
,
1001
0200
0300
0020
,
0030
0001
0100
0010
,
1000
0001
0100
0010
,
0000
1000
0100
0010
,
0001
1100
0000
0000
,
0000
0000
1001
0000
0000
0100
0000
0000
,
0100
0000
1001
0000
0000
0010
0000
0000
,
0010
0100
0000
0010
,
0000
2002
0000
3003
,
0000
0000
0000
0000
;
#NOTES:
     dance-single:
     :
     Medium:
     12:
     :
0000
0000
0000
0000
,
0000
0000
0000
0000
,
0000
0000
0000
0000
,
0110
0000
0000
0001
0010
0000
0000
1000
,
0010
0000
0000
0001
0010
0000
1000
0001
,
0100
0010
1000
0100
0010
0001
0100
0010
,
1000
0000
0000
0000
1001
0000
0000
1100
,
0000
0010
0001
0100
0110
0000
0000
1001
,
0000
0100
1000
0010
1010
0000
0000
0110
,
0000
1000
0001
0100
0101
0000
1100
0000
,
0001
1000
0100
1000
1001
0000
0000
0101
,
0000
0010
1000
0001
1001
0000
0000
0110
,
0000
0001
0010
0100
0000
1001
0000
0110
,
0000
1000
0100
0010
0002
0000
0000
0000
,
1003
0100
0001
0010
,
1000
0100
0001
0000
0001
0100
1000
0000
,
0001
0100
0010
1000
0100
0010
0001
0100
,
0020
0000
0000
0030
0110
0000
1000
0010
,
1000
0100
0010
0001
0110
0000
1000
0001
,
1000
0010
0100
0001
0110
0000
1000
0100
,
1000
0010
0100
0001
2000
0000
0000
0000
,
3001
0000
1000
0100
0001
0100
1000
0001
,
1001
0000
1000
0010
0001
0010
1000
0000
,
0110
0000
0000
0000
1000
0000
0000
0010
0000
0000
0001
0000
0000
0010
0000
0000
1000
0000
0000
0010
0000
0000
0001
0000
0000
0010
0000
0000
1000
0000
0000
0000
,
0100
0000
0000
0000
0010
0000
0000
0000
0001
0000
0000
0000
1000
0000
0000
0000
0001
0000
0000
0100
0000
0000
1000
0000
0000
0100
0000
0000
0001
0000
0000
0000
,
1000
0100
1000
0100
0001
0100
0001
0100
,
0010
0100
0010
0100
0010
0100
0100
0100
,
0001
0100
0001
0100
1000
0100
1000
0000
,
2002
0000
0000
3003
0001
0100
0001
0100
,
0010
0100
0010
0100
1000
0100
1000
0100
,
0010
0000
0000
0000
0120
0000
0000
1000
0000
0000
1000
0000
0000
1000
0000
0000
,
1030
0000
0001
0000
0020
0000
0000
0001
0000
0000
0001
0000
0000
0001
0000
0000
,
0031
1000
0000
0000
0000
0000
0001
0010
,
0010
0010
1000
0010
0010
0010
0001
0100
,
0100
0100
1000
0100
0100
0100
1000
0100
,
0010
0000
0001
0100
0010
0000
1000
0010
,
0100
0000
0001
0010
0100
0000
1000
0001
,
0100
0010
1000
0100
0010
0001
0200
0000
,
0000
0300
0110
0000
0001
0100
0010
0100
,
1000
0100
0110
0000
1000
0100
0010
0100
,
0001
0100
0110
0000
0001
0100
0010
0100
,
1000
0100
0101
0000
2100
0000
0000
0001
,
0001
3001
0110
0000
1000
0010
0100
0010
,
0001
0010
0110
0000
0001
0010
0100
0010
,
1000
0010
0000
0011
0000
1100
0000
0001
,
0100
0000
0010
0000
2000
0000
0000
0000
3000
0000
0100
0010
0002
0000
0000
1000
,
0000
0000
1003
0000
0110
0000
1001
0000
0010
1000
0100
0000
1001
0000
0001
0010
,
0000
0100
0010
0000
1001
0000
0110
0000
0001
0100
1000
0000
0100
0000
0001
0000
,
0010
0000
1000
0000
0100
0000
1000
0000
0010
0000
0001
0000
1000
0010
0100
0001
,
1000
0100
0010
0001
1000
0000
0001
0000
0110
0000
0000
0000
1001
0000
0000
0000
,
1000
0100
0001
0100
1000
0100
0110
0000
,
0001
0100
1000
0100
0001
0100
0110
0000
,
1000
0100
0001
0100
1000
0100
0110
0000
,
1001
0000
0000
0010
0001
0100
0110
0000
,
1000
0010
0001
0010
1000
0010
0110
0000
,
0001
0010
1000
0010
0001
0010
0100
0100
,
0010
0010
0000
0001
0100
0010
2000
0000
,
3000
0000
0000
0000
1001
0000
0000
0100
0010
0000
1000
0010
0000
0001
0010
0000
,
1000
0010
0100
0000
1001
0000
0000
0000
0100
0000
0010
0000
0001
0000
0100
0000
,
0010
1000
0100
1000
0010
1000
0001
0100
,
0010
1000
1001
0000
0001
0100
0010
0100
,
1000
0100
0110
0000
1000
0100
0010
0100
,
0001
0100
0020
0000
0032
0000
0203
0000
,
0310
0000
1000
0010
1000
0010
0100
0010
,
0100
0010
0001
0010
0001
0010
1000
0001
,
0100
0000
0001
0010
0001
0010
0100
0010
,
0100
0000
0000
0000
1100
0000
0000
0001
0000
0000
0002
0000
0000
0000
0000
0000
,
0103
0000
1000
1010
0000
0100
0110
0000
,
0010
1000
0001
0011
0000
0100
0110
0000
,
1000
0001
0100
0010
2000
0000
0100
0000
,
3010
0000
0202
0000
0000
0000
0000
0303
,
0000
0000
0000
0000
;
#NOTES:
     dance-single:
     :
     Hard:
     18:
     :
0000
0000
0000
0000
,
0000
0000
0000
0000
,
0000
0000
0000
0000
,
0011
0000
0000
1000
1010
0000
0000
0001
,
0101
0000
0000
1000
1100
0000
0001
1000
,
0100
0010
0001
0100
0010
1000
0100
0010
,
0001
0000
0000
0000
0000
0100
0010
0100
1001
0000
0000
0000
0001
0000
0101
0000
,
0000
0010
1000
0100
0110
0000
1001
0001
,
0000
0100
0001
0010
1100
0000
0001
0011
,
0000
1000
0001
0010
1100
0000
0011
0000
,
1000
0000
0001
0100
0010
1000
0001
0000
0101
0000
0000
0000
1000
0000
1100
0000
,
0001
0000
0100
0010
1000
0010
0100
0000
1001
0000
0000
0000
0110
0000
1000
0000
,
0001
0000
0010
0001
1000
0001
0010
0000
0000
0000
1100
0000
0000
0000
0101
0000
,
0000
0011
1000
0010
0200
0000
0000
0000
,
0301
0100
1000
0010
,
0001
0100
0010
1000
0001
0100
0010
1000
,
0100
1000
0001
0100
0010
1000
0001
0010
0100
1000
0001
0100
0010
1000
0001
0010
,
0200
0000
0000
1000
0000
0010
0010
0310
0110
0000
0001
1000
0100
0000
1000
0000
,
0001
1000
0010
0000
0100
0001
1000
0000
0110
0000
0001
1000
0010
0000
1000
0000
,
0001
1000
0100
0000
0010
0001
1000
0000
0110
0000
0001
1000
0100
0000
1000
0000
,
0001
1000
0010
0000
0100
0001
1000
0001
0200
0000
0000
0000
0000
0000
0000
0000
,
0310
0000
0000
0000
1001
0000
1000
0100
0010
0000
0001
0100
0010
0000
0100
0000
,
0100
0000
0010
1000
0001
0000
0010
0000
0001
1000
0010
0000
1000
0001
0100
0001
,
1000
0000
0000
0000
0001
0000
0000
0010
0000
0000
1000
0000
0000
0100
0000
0000
0001
0000
0000
0010
0000
0000
1000
0000
0000
0100
0000
0001
1000
0000
0000
0000
,
0001
0000
0100
0000
0010
0000
0100
0000
1000
0000
0100
0000
0010
0000
0100
0000
0001
0000
0000
0100
0000
0000
1000
0000
0000
0010
0000
0000
0001
0000
0000
0000
,
1001
0000
0100
1000
0100
0000
0010
0001
0010
0000
0100
1000
0100
0000
0010
0001
,
0010
0000
0100
1000
0100
0000
0010
0001
0020
0000
0100
0000
0100
0000
0130
0000
,
1001
0000
0100
0001
0100
0000
0010
1000
0010
0000
0100
0001
0100
0000
0000
0000
,
1001
0000
0000
0100
0000
0010
0010
0010
0110
0000
1000
0100
1000
0000
0100
0010
,
0100
0000
0010
0001
0010
0000
0001
0100
0001
0000
0100
0010
0100
0000
0010
1000
,
0020
0000
0230
0000
0310
0000
1000
0100
0000
0001
0100
0000
1000
0100
0000
0001
,
0100
0000
1000
0001
0100
0000
0010
1000
0000
0010
0001
0000
0010
1000
0000
0010
,
0100
0010
0100
0010
0000
0000
0000
0000
0000
0000
0000
0000
0101
0000
0100
0000
,
0010
1000
1000
0100
0010
0001
0001
0100
,
0010
1000
1000
0100
0010
0001
0001
0100
,
0001
0100
0010
1000
0010
1000
0100
1000
,
0100
0000
1000
0000
0001
0000
0010
0000
0001
0000
0010
0000
0100
1000
0001
0100
,
0010
1000
0100
0010
0001
1000
0001
0100
0010
1000
0100
0010
0002
0000
0000
1000
,
0000
0010
0010
0013
1001
0000
0000
0000
0110
0000
1000
0100
0010
0000
0001
0100
,
0010
1000
0100
0010
0001
0000
0000
0000
0110
0000
0001
0100
0010
0000
1000
0100
,
0010
0001
0100
0010
1000
0000
0000
0000
0110
0000
0001
0100
0010
0000
1000
0100
,
0010
0001
0100
0010
1000
0000
0000
0000
0101
0000
0000
0000
0110
0000
1000
0001
,
0100
0001
1000
0000
0110
0000
0000
0000
1001
0000
0001
0100
1000
0000
0100
0001
,
1000
0100
0010
0001
1000
0000
0000
0000
0110
0000
1000
0100
0001
0000
0100
1000
,
0001
0100
0010
1000
0001
0000
0011
0000
0100
0000
0110
0000
1000
0000
1100
0000
,
0101
0000
0000
0000
0110
0000
0000
0000
2002
0000
0000
0000
0000
0000
0000
0000
3003
0000
0000
0000
1000
0000
0010
0000
2000
0000
0000
0000
3000
0000
0001
0100
,
0001
0000
1000
0100
1000
0100
1000
0000
1001
0000
0000
0000
0110
0000
0001
0010
0001
0000
1000
0010
1000
0010
1000
0000
0011
0000
0010
0001
1000
0001
0010
0000
,
0100
1000
0001
1000
0100
0000
0010
0000
1001
0000
0000
0000
0110
0000
0000
0000
1001
0000
1000
0010
1000
0100
0010
0000
0001
0000
0010
0000
0001
0000
0010
0000
,
0100
0000
1000
0000
0100
0000
1000
0000
0001
0000
0100
0000
0001
0000
0100
0000
0010
0000
1000
0000
0010
0000
1000
0000
0001
0100
0010
1000
0001
0100
0010
1000
,
0001
0010
0100
1000
0001
0010
0100
1000
0001
0000
0000
0000
0110
0000
0000
0000
1001
0000
0010
0000
0010
0000
0010
0000
2002
0000
0000
0000
3003
0000
0000
0000
,
2001
0000
3010
0000
1002
0000
0103
0000
2001
0000
3010
0100
0220
0000
0330
0000
,
0210
0000
0301
0000
0120
0000
1030
0000
0210
0000
0301
1000
2200
0000
3300
0000
,
2100
0000
3001
0000
1200
0000
0310
0000
1100
0000
0001
0100
0101
0000
0000
0000
,
1100
0000
0010
0001
1000
0000
0110
0000
1001
0000
0110
0000
2002
0000
3003
0000
,
1002
0000
0013
0000
2001
0000
3100
0000
1002
0000
0013
0100
0220
0000
0330
0000
,
0210
0000
1300
0000
0120
0000
0031
0000
0210
0000
1300
0001
0101
0000
0110
0000
,
1010
0000
1001
0000
0010
0000
0011
0000
0100
1000
0001
0100
0020
0000
0000
0000
,
0200
0000
0000
0000
0330
0000
0000
0000
1010
0000
0000
0000
0000
0000
0100
0000
0010
0000
1000
0100
0010
0100
1000
0000
0001
0100
0010
0100
0001
0000
1000
0100
,
0001
0100
1000
0000
0010
0000
0000
0000
1001
0000
0000
0000
0000
0000
0000
0000
0110
0000
0000
0000
1010
0000
0000
0000
1100
0000
0000
0000
0110
0000
0000
0000
,
0011
1001
0100
1001
0110
0001
1100
0101
,
1000
0100
0010
0001
1000
0000
0000
0000
0110
0000
0101
0000
0011
0000
0110
0000
,
1100
1001
0110
0000
1001
1100
0110
0011
,
0101
0110
2010
0000
3200
0000
0320
0000
,
0032
0000
0003
0000
1001
0000
1000
0100
1000
0000
1000
0010
1000
0000
1000
0100
,
1000
0000
0110
0000
1001
0000
0001
0100
0001
0000
0001
0010
0001
0000
0001
0100
,
0001
0000
0000
0000
0110
0000
0010
1000
0010
0000
0010
0001
0010
0000
0010
1000
,
0010
0000
0000
0000
0101
0000
0010
0100
0000
1000
0100
0000
0001
0010
0100
1000
,
0001
0000
0000
0000
1000
0100
0001
0100
1000
0000
0001
0100
1000
0100
0001
0000
,
1000
0001
0100
0001
1000
0010
0001
0010
1000
0000
0001
0010
1000
0010
0001
0000
,
1000
0100
0010
0001
1000
0000
0100
0000
0020
0000
0000
0000
0032
0000
0000
0000
,
2000
3003
0220
0000
0000
0000
0000
0330
,
0000
0000
0000
0000
;
#NOTES:
     dance-double:
     :
     Easy:
     7:
     :
00000000
00000000
00000000
00000000
,
00000000
00000000
00000000
00000000
,
00000000
00000000
00000000
00000000
,
10000000
00000000
01000000
00000000
,
00100000
00000000
00010000
00000000
,
00001000
00000100
00000010
00000001
,
00000000
00000000
00000000
00000000
00001001
00000000
00000000
00000100
,
00000000
00000000
00000010
00000000
00000110
00000000
00000000
00010000
,
00000000
00000000
00001000
00000000
00011000
00000000
00000000
00100000
,
00000000
01000000
10010000
01100000
,
00000000
00000000
00010000
00000000
10010000
00000000
00000000
01000000
,
00000000
00000000
00100000
00000000
01100000
00000000
00000000
00001000
,
00000000
00000000
00010000
00000000
00000000
00001000
00000000
00000010
,
00000000
00000001
00000000
00000000
00002002
00000000
00003003
00000000
,
00000001
00000001
00000100
00000100
,
00001000
00001000
00010000
00010000
,
00100000
10000000
01000000
00100000
,
20020000
30030000
00100000
00001000
,
00010000
00000010
00000100
00000010
,
00010000
00001000
00010000
01000000
,
10000000
00100000
20020000
30030000
,
01000000
00001000
00010000
00000100
,
00000010
00000001
00000100
00000010
,
00001000
00000000
00000000
00000000
,
00010000
00001000
00010000
00000000
,
00001000
00010000
00100000
10000000
,
01000000
00100000
00010000
00000000
,
10000000
01000000
00010000
00001000
,
00022000
00033000
00010000
00001000
,
00000010
00000001
00000100
00000010
,
00001000
00000200
00000000
00000000
,
00000300
00000020
00000000
00000000
,
00000030
00000000
00000000
00000001
,
00000000
00000100
00000000
00001000
,
00000000
00010000
00000000
00100000
,
00000000
10000000
00000000
00010000
,
00000000
01000000
00000000
00100000
,
10000000
01000000
00010000
00001000
,
00000000
00011000
00001000
00000010
,
00000001
00000110
00000001
00000100
,
00001000
00011000
00010000
00100000
,
10000000
10010000
01100000
00000000
,
00001000
00011000
00010000
01000000
,
10000000
01100000
10000000
00100000
,
00010000
00000000
00000000
00001000
00000000
00010000
00000000
00001000
,
00000000
00000110
00000000
00000002
,
00000003
00000200
00000300
00000020
,
00000030
00002000
00003000
00000100
,
00000010
00001000
00010000
00100000
,
10000000
02000000
03000000
00100000
,
01000000
01100000
01100000
00001000
,
00010000
00011000
00011000
00000010
,
00000100
00000110
00000110
00001001
,
00000110
00000000
00000100
00000001
,
00000100
00001010
00001010
00010000
,
00001000
00011000
00011000
01000000
,
00010000
00100000
01000000
20020000
,
30030000
00100000
00000000
00001000
,
00000000
00011000
00011000
00110000
,
00011000
00000010
00001000
00001010
,
00000000
00011000
00011000
01010000
,
00011000
00001100
00001100
00000110
,
00000011
00001000
00000001
00000200
,
00000300
00000001
00000010
00001000
,
00010000
00100000
10000000
10010000
,
00000000
10000000
00100000
00010000
,
00001000
00011000
00000000
00000000
,
00000000
00000000
00000110
00000000
00000000
00001000
00000000
00000000
,
00010000
00000000
01100000
00000000
00000000
00010000
00000000
00000000
,
00001000
00000010
00000000
00000100
,
00000000
00002002
00000000
00003003
,
00000000
00000000
00000000
00000000
;
#NOTES:
     dance-double:
     :
     Medium:
     12:
     :
00000000
00000000
00000000
00000000
,
00000000
00000000
00000000
00000000
,
00000000
00000000
00000000
00000000
,
00000110
00000000
00000000
00000001
00000100
00000000
00000000
00001000
,
00010000
00000000
00000000
00100000
10000000
00000000
00010000
00000000
,
10000000
00100000
01000000
00010000
10000000
01000000
00100000
00001000
,
00010000
00000000
00000000
00000000
00011000
00000000
00000010
00000100
,
00000000
00000010
00010000
00001000
00011000
00000000
00100000
01000000
,
00000000
00100000
00001000
00010000
00011000
00000000
00000100
00000010
,
00000000
00000100
00010000
00001000
00011000
00000000
00001100
00000000
,
00000010
00000001
00000100
00000000
00001001
00000000
00000001
00000100
,
00000000
00001000
00010000
00001000
00011000
00000000
00010000
00100000
,
00000000
10000000
00010000
01000000
00000000
10100000
00000000
01010000
,
00000000
10000000
01000000
00010000
00002000
00000000
00000000
00000000
,
00013000
00001000
00000010
00000001
,
00001000
00000100
00000010
00000000
00000001
00000100
00000010
00000000
,
00001000
00000100
00000010
00000001
00000100
00000010
00010000
00001000
,
00200000
00000000
00300000
00000000
01100000
00000000
10000000
00010000
,
00000000
01000000
00100000
10000000
01000000
00000000
00010000
00001000
,
00000000
00010000
00001000
00000010
00000001
00000000
00001000
00000100
,
00000000
00000010
00000001
00000100
00000020
00000000
00000000
00000000
,
00001030
00000000
00000100
00010000
00001000
00010000
00000100
00010000
,
00001000
00000000
00010000
01000000
00100000
01000000
00010000
00000000
,
10010000
00000000
00000000
00000000
00100000
00000000
00000000
10000000
00000000
00000000
01000000
00000000
00000000
00010000
00000000
00000000
00001000
00000000
00000000
00000010
00000000
00000000
00000001
00000000
00000000
00000100
00000000
00000000
00000010
00000000
00000000
00000000
,
00001000
00000000
00000000
00000000
00000001
00000000
00000000
00000000
00000100
00000000
00000000
00000000
00000010
00000000
00000000
00000000
00000100
00000000
00000000
00001000
00000000
00000000
00010000
00000000
00000000
00100000
00000000
00000000
10000000
00000000
00000000
00000000
,
00010000
01000000
00010000
01000000
00100000
10000000
00100000
10000000
,
01000000
00100000
01000000
00100000
00001000
00010000
00010000
00010000
,
00001000
00000010
00001000
00000010
00000001
00001000
00000001
00000000
,
00000220
00000000
00000000
00000330
00000001
00000100
00000001
00000100
,
00001000
00010000
00001000
00010000
00100000
10000000
00100000
10000000
,
01000000
00000000
00000000
00000000
01200000
00000000
00000000
00010000
00000000
00000000
00010000
00000000
00000000
00010000
00000000
00000000
,
00310000
00000000
01000000
00000000
00002000
00000000
00000000
00010000
00000000
00000000
00010000
00000000
00000000
00010000
00000000
00000000
,
00013000
00001000
00000000
00000000
00000000
00000000
00010000
00000000
,
00001000
00000010
00000001
00000100
,
00001000
00000000
00010000
00000000
01000000
00000000
10000000
00100000
,
01000000
00000000
00010000
00100000
01000000
00000000
10000000
00010000
,
01000000
00000000
00001000
00010000
00000100
00000000
00000010
00000001
,
00000100
00000010
00001000
00000100
00010000
00001000
00020000
00000000
,
00000000
00030000
00011000
00000000
00001000
01000000
00010000
10000000
,
00100000
01000000
01100000
00000000
00010000
10000000
01000000
00100000
,
00001000
00010000
00011000
00000000
00000100
00000010
00000001
00000100
,
00000010
00001000
00001001
00000000
00000110
00000000
00000000
00000001
,
00001000
00000001
00001001
00000000
00001000
00000001
00000100
00000010
,
00010000
00001000
00011000
00000000
00010000
00001000
00100000
01000000
,
10000000
00100000
00000000
01010000
00000000
11000000
00000000
00100000
,
00001000
00000000
00010000
00000000
00002000
00000000
00000000
00000000
00003000
00000000
00010000
00000100
00000020
00000000
00000000
00000001
,
00000000
00000000
00000031
00000000
00000110
00000000
00001001
00000000
00000010
00000001
00000100
00000000
00000110
00000000
00001000
00000010
,
00000000
00010000
00001000
00000000
00110000
00000000
11000000
00000000
00010000
01000000
00100000
00000000
10000000
00000000
00010000
00000000
,
01000000
00000000
00100000
00000000
00010000
00000000
00001000
00000000
00000010
00000000
00000001
00000000
00001000
00000001
00000100
00000010
,
00001000
00000100
00000010
00001000
00010000
00000000
00001000
00000000
00011000
00000000
00000000
00000000
01100000
00000000
00000000
00000000
,
00010000
01000000
00100000
10000000
01000000
00100000
01100000
00000000
,
10000000
01000000
00100000
00001000
00010000
00000100
00001100
00000000
,
00000010
00000001
00000100
00000010
00001000
00000100
00000110
00000000
,
00011000
00000000
00000000
00001000
00010000
00100000
10100000
00000000
,
00010000
10000000
01000000
00100000
00001000
00010000
00011000
00000000
,
00001000
00000010
00000100
00001000
00000010
00000100
00000001
00000001
,
00000010
00000010
00000000
00001000
00010000
00001000
00020000
00000000
,
00030000
00000000
00000000
00000000
00011000
00000000
00000000
00100000
00010000
00000000
00001000
00010000
00000000
01000000
00010000
00000000
,
10000000
00100000
01000000
00000000
10010000
00000000
00000000
00000000
10000000
00000000
00100000
00000000
01000000
00000000
00001000
00000000
,
00010000
00000010
00001000
00000001
00000010
00000000
00000100
00001000
,
00000010
00000100
00000110
00000000
00000001
00000100
00001000
00010000
,
00100000
01000000
01100000
00000000
10000000
01000000
00010000
00001000
,
00000010
00000100
00000020
00000000
00000032
00000000
00000203
00000000
,
00000310
00000000
00000100
00000010
00000100
00000010
00010000
00001000
,
00010000
00001000
00100000
01000000
00100000
01000000
00100000
00010000
,
01000000
00000000
00100000
01000000
00100000
01000000
00001000
00010000
,
00001000
00000000
00000000
00000000
00001010
00000000
00000000
00001001
00000000
00000000
00000102
00000000
00000000
00000000
00000000
00000000
,
00001003
00000000
00000001
00000011
00000000
00001000
00001010
00000000
,
00000100
00010000
00001000
00011000
00000000
01000000
01010000
00000000
,
00100000
10000000
01000000
00100000
00002000
00000000
00000000
00000000
,
00013000
00000000
00002200
00000000
00000000
00000000
00000000
00003300
,
00000000
00000000
00000000
00000000
;
#NOTES:
     dance-double:
     :
     Hard:
     18:
     :
00000000
00000000
00000000
00000000
,
00000000
00000000
00000000
00000000
,
00000000
00000000
00000000
00000000
,
00011000
00000000
00000000
00000010
00001010
00000000
00000000
00100000
,
00110000
00000000
00000000
00000010
00001010
00000000
00001000
00000001
,
00000010
00001000
00010000
00100000
00001000
00010000
01000000
00100000
,
10000000
00000000
00000000
00000000
00000000
01000000
00100000
01000000
10010000
00000000
00000000
00000000
00010000
00000000
00110000
00000000
,
00000000
00100000
00001000
00010000
00011000
00000000
00001010
00000100
,
00000000
00000001
00001000
00000100
00000011
00000000
00001000
00001100
,
00000000
00000001
00000100
00000010
00001010
00000000
00011000
00000000
,
00100000
00000000
00010000
01000000
00100000
10000000
00010000
00000000
11000000
00000000
00000000
00000000
00010000
00000000
01010000
00000000
,
10000000
00000000
01000000
00100000
00001000
00010000
00001000
00000000
00011000
00000000
00000000
00000000
00001100
00000000
00000010
00000000
,
00000001
00000000
00001000
00000001
00000100
00000001
00001000
00000000
00000000
00000000
00010100
00000000
00000000
00000000
01001000
00000000
,
00000000
00001000
00100000
00010000
20000000
00000000
00000000
00000000
,
31000000
10000000
00100000
00010000
,
00001000
00010000
00100000
00010000
00001000
00000010
00000001
00000100
,
00000010
00000100
00000010
00000100
00001000
00010000
00001000
00010000
00100000
01000000
00100000
01000000
00010000
10000000
00010000
10000000
,
02000000
00000000
00000000
10000000
00000000
00100000
00100000
03100000
10010000
00000000
10000000
00010000
10000000
00000000
01000000
00000000
,
00100000
00001000
00010000
00000000
00000010
00001000
00000001
00000000
00000110
00000000
00001000
00000100
00000010
00000000
00000001
00000000
,
00000100
00000001
00001000
00000000
00000100
00010000
00001000
00000000
00101000
00000000
00001000
01000000
00010000
00000000
10000000
00000000
,
00100000
10000000
01000000
00000000
00100000
00010000
01000000
00000000
00200000
00000000
00000000
00000000
00000000
00000000
00000000
00000000
,
01300000
00000000
00000000
00000000
00011000
00000000
00001000
01000000
00100000
00000000
01000000
00001000
00010000
00000000
00001000
00000000
,
00001000
00000000
00010000
00000010
00000100
00000000
00001000
00000000
00000100
00000010
00010000
00000000
00001000
00100000
00010000
01000000
,
00100000
00000000
00000000
00000000
10000000
00000000
00000000
01000000
00000000
00000000
00010000
00000000
00000000
00001000
00000000
00000000
00000100
00000000
00000000
00000001
00000000
00000000
00000010
00000000
00000000
00001000
00000000
00010000
00001000
00000000
00000000
00000000
,
00100000
00000000
00001000
00000000
00000100
00000000
00010000
00000000
00001000
00000000
00000100
00000000
00000010
00000000
00000001
00000000
00000100
00000000
00000000
00001000
00000000
00000000
00010000
00000000
00000000
00100000
00000000
00000000
10000000
00000000
00000000
00000000
,
11000000
00000000
01000000
00010000
01000000
00000000
00010000
00001000
00010000
00000000
01000000
00010000
01000000
00000000
00010000
00001000
,
00010000
00000000
01000000
00010000
01000000
00000000
00010000
00001000
00010000
00000000
00001000
00000000
00000010
00000000
00000001
00000000
,
00000101
00000000
00000100
00001000
00000100
00000000
00001000
00010000
00001000
00000000
00000100
00001000
00000100
00000000
00000000
00000000
,
00001001
00000000
00000000
00000100
00000000
00000010
00000010
00000010
00000110
00000000
00000001
00000100
00000001
00000000
00000100
00001000
,
00000100
00000000
00001000
00010000
00001000
00000000
00010000
00100000
00010000
00000000
00100000
10000000
00100000
00000000
10000000
00010000
,
20000000
00000000
32000000
00000000
03100000
00000000
00001000
00010000
00000000
00100000
00010000
00000000
00001000
00010000
00000000
01000000
,
00010000
00000000
00001000
00010000
00001000
00000000
00010000
00001000
00000000
00000010
00001000
00000000
00010000
00001000
00000000
00000100
,
00001000
00000100
00000010
00000001
00000000
00000000
00000000
00000000
00000000
00000000
00000000
00000000
00001000
00000000
00001000
00000000
,
00000100
00000100
00000010
00000010
00000001
00000001
00000100
00000100
,
00000010
00000010
00001000
00001000
00000001
00000001
00001000
00000001
,
00000100
00000010
00001000
00010000
01000000
00100000
10000000
00010000
,
10000000
00000000
01000000
00000000
00100000
00000000
00010000
00000000
00001000
00000000
00000100
00000000
00000010
00000001
00000010
00000001
,
00000100
00000001
00000100
00000001
00001000
00000010
00001000
00000010
00000100
00000010
00000100
00000010
00020000
00000000
00000000
00000010
,
00000000
00001000
00001000
00031000
00011000
00000000
00000000
00000000
01100000
00000000
00010000
01000000
00100000
00000000
10000000
01000000
,
00100000
00001000
00010000
00000000
00011000
00000000
00000000
00000000
00000110
00000000
00001000
00000100
00000010
00000000
00000001
00000100
,
00000010
00010000
00001000
00000000
00011000
00000000
00000000
00000000
01100000
00000000
00010000
00100000
01000000
00000000
10000000
00100000
,
01000000
00001000
00010000
00000000
00010100
00000000
00000000
00000000
00001010
00000000
00000000
00000000
00000001
00000000
00000100
00000010
,
00000001
00000010
00000100
00000000
00001001
00000000
00000000
00000000
00000110
00000000
00000001
00000100
00001000
00000000
00000100
00000010
,
00010000
00001000
01000000
00000000
01010000
00000000
00000000
00000000
10100000
00000000
10000000
01000000
00010000
00000000
01000000
00100000
,
00010000
01000000
00100000
00000000
10000000
00000000
11000000
00000000
01000000
00000000
01100000
00000000
00100000
00000000
00110000
00000000
,
00011000
00000000
00000000
00000000
00001100
00000000
00000000
00000000
00000022
00000000
00000000
00000000
00000000
00000000
00000000
00000000
00000033
00000000
00000000
00000000
00000001
00000000
00000010
00000000
00000002
00000000
00000000
00000000
00000003
00000000
00000100
00000010
,
00000100
00000000
00000010
00001000
00000010
00001000
00000010
00000000
00011000
00000000
00000000
00000000
01010000
00000000
00100000
10000000
00100000
00000000
10000000
01000000
10000000
01000000
10000000
00000000
01100000
00000000
00010000
00100000
00001000
00100000
00010000
00000000
,
00001000
00010000
00000010
00010000
00001000
00000000
00000100
00000000
00000101
00000000
00000000
00000000
00000011
00000000
00000000
00000000
00001010
00000000
00010000
00000100
00001000
00000100
00010000
00000000
00001000
00000000
00010000
00000000
00001000
00000000
00010000
00000000
,
00100000
00000000
10000000
00000000
00100000
00000000
10000000
00000000
01000000
00000000
00010000
00000000
01000000
00000000
00010000
00000000
00001000
00000000
00010000
00000000
00001000
00000000
00010000
00000000
00001000
00000010
00000100
00000010
00000001
00000100
00000010
00001000
,
00000100
00000010
00000001
00001000
00000001
00000100
00000010
00001000
00000100
00000000
00000000
00000000
00011000
00000000
00000000
00000000
00010010
00000000
00001000
00000000
00010000
00000000
00001000
00000000
00011000
00000000
00000000
00000000
00000000
00000000
00000000
00000000
,
00011000
00000000
00100000
00000000
01100000
00000000
01000000
00000000
00011000
00000000
00001000
00010000
00001000
00000000
00000000
00000000
,
00011000
00000000
00000010
00000000
00000110
00000000
00000100
00000000
00011000
00000000
00010000
00001000
00010000
00000000
00000000
00000000
,
00011000
00000000
00100000
00000000
01100000
00000000
01000000
00000000
00011000
00000000
00001000
00010000
00000200
00000000
00000000
00000000
,
00000310
00000000
00000001
00000100
00001000
00000000
00001100
00000000
00000110
00000000
00001010
00000000
00011000
00000000
00000000
00000000
,
00011000
00000000
01000000
00000000
01100000
00000000
00100000
00000000
00011000
00000000
00001000
00010000
00001000
00000000
00000000
00000000
,
00011000
00000000
00000100
00000000
00000110
00000000
00000010
00000000
00011000
00000000
00010000
00001000
00010000
00000000
01010000
00000000
,
01100000
00000000
10100000
00000000
00010000
00000000
10010000
00000000
10000000
01000000
00100000
00001000
00020000
00000000
00000000
00000000
,
00002000
00000000
00000000
00000000
00033000
00000000
00000000
00000000
00001100
00000000
00000000
00000000
00000000
00000000
00000010
00000000
00000001
00000000
00001000
00000010
00000100
00000010
00001000
00000000
00000001
00000010
00000100
00000010
00000001
00000000
00001000
00000010
,
00000100
00000010
00001000
00000000
00000100
00000000
00010000
00000000
00011000
00000000
00000000
00000000
00000000
00000000
00000000
00000000
00101000
00000000
00000000
00000000
00011000
00000000
00000000
00000000
00010100
00000000
00000000
00000000
00011000
00000000
00000000
00000000
,
01001000
00011000
00010010
00001001
00000101
00000000
00000110
00001001
,
00001000
00000001
00001000
00000100
00010000
00000000
00000000
00000000
00101000
00000000
00011000
00000000
00010010
00000000
00011000
00000000
,
00101000
00011000
00011000
00000000
00010100
00011000
01001000
00011000
,
00010100
00011000
02001000
00000000
03200000
00000000
20300000
00000000
,
30010000
00000000
00000000
00000000
01100000
00000000
10000000
01000000
00010000
00000000
00001000
00010000
00001000
00000000
00001000
00000010
,
00000001
00000000
00001000
00000000
00000110
00000000
00000001
00000100
00001000
00000000
00010000
00001000
00010000
00000000
00010000
00100000
,
10000000
00000000
00000000
00000000
01100000
00000000
10000000
00100000
00010000
00000000
00001000
00010000
00001000
00000000
00001000
00000100
,
00000001
00000000
00001000
00000000
00001001
00000000
00000010
00001000
00000000
00010000
00001000
00000000
00000010
00010000
00000100
00010000
,
00001000
00000000
00000000
00000000
00010000
00001000
00000010
00001000
00010000
00000000
00001000
00010000
00100000
00010000
00001000
00000000
,
00010000
00001000
00010000
00001000
00010000
01000000
00100000
01000000
00010000
00000000
00001000
00000100
00000010
00000100
00001000
00000000
,
00010000
00100000
01000000
00010000
10000000
00000000
01000000
00000000
00200000
00000000
00000000
00000000
00320000
00000000
00000000
00000000
,
20000000
30030000
02200000
00000000
00000000
00000000
00000000
03300000
,
00000000
00000000
00000000
00000000
;
