
//----- song ID: resp -----//
#TITLE:リスペク風神;
#ARTIST:ビートまりお(COOL&CREATE);
#TITLETRANSLIT:Respec fujin;
#ARTISTTRANSLIT:beatMARIO(COOL&CREATE);
#BANNER:Respec fujin.png;
#BACKGROUND:Respec fujin-bg.png;
#CDTITLE:./CDTitles/DDR A3.png;
#MUSIC:Respec fujin.ogg;
#SAMPLESTART:5.333;
#SAMPLELENGTH:15;
#BPMS:0=135;
#NOTES:
     dance-single:
     :
     Beginner:
     2:
     :
0000
0000
0000
0000
,
0000
0000
0000
0000
,
0000
0000
0000
0000
,
1000
0000
0000
0000
,
0001
0000
0000
0000
,
0010
0000
0000
0000
,
0100
0000
0000
0000
,
1000
0000
0000
0000
,
1000
0000
0000
0000
,
0001
0000
0000
0000
,
0001
0000
0000
0000
,
0100
0000
0000
0000
,
0010
0000
0000
0000
,
1000
0000
0000
0000
,
0001
0000
0000
0000
,
0010
0000
0000
0000
,
0010
0000
0000
0000
,
0100
0000
0000
0000
,
0100
0000
0000
0000
,
1000
0000
0000
0000
,
0000
0000
0000
0000
,
0001
0000
0000
0000
,
0000
0000
0000
0000
,
0100
0000
0000
0000
,
0100
0000
0000
0000
,
0010
0000
0000
0000
,
0010
0000
0000
0000
,
1000
0000
0000
0000
,
0001
0000
0000
0000
,
1000
0000
0000
0000
,
0010
0000
0000
0000
,
0100
0000
0000
0000
,
0001
0000
0000
0000
,
0010
0000
0000
0000
,
0100
0000
0000
0000
,
1000
0000
0000
0000
,
1001
0000
0000
0000
,
0001
0000
0000
0000
,
0010
0000
0000
0000
,
0100
0000
0000
0000
,
0010
0000
0000
0000
,
0001
0000
0000
0000
,
1000
0000
0000
0000
,
0100
0000
0000
0000
,
0110
0000
0000
0000
,
0010
0000
0000
0000
,
0000
0000
0000
0000
,
0001
0000
0000
0000
,
0000
0000
0000
0000
,
1000
0000
0000
0000
,
0100
0000
0000
0000
,
0010
0000
0000
0000
,
0001
0000
0000
0000
,
1000
0000
0001
0000
,
1000
0000
0000
0000
,
0010
0000
0010
0000
,
0010
0000
0000
0000
,
0100
0000
0100
0000
,
0100
0000
0000
0000
,
0001
0000
1000
0000
,
0001
0000
1000
0000
,
0001
0000
0000
0000
,
1001
0000
0000
0000
,
0100
0000
0000
0000
,
0100
0000
0000
0000
,
0010
0000
0000
0000
,
0010
0000
0000
0000
,
1000
0000
0001
0000
,
1000
0000
0000
0000
,
0010
0000
0000
0000
,
0100
0000
0000
0000
,
0100
0000
0000
0000
,
0000
0000
0000
0000
;
#NOTES:
     dance-single:
     :
     Easy:
     5:
     :
0000
0000
0000
0000
,
0000
0000
0000
0000
,
0000
0000
0000
0000
,
0001
0000
1000
0000
,
0001
0000
1000
0000
,
0010
0000
0100
0000
,
0010
0000
0100
0000
,
0001
0000
0010
0000
,
0001
0000
0010
0000
,
0100
0000
1000
0000
,
0100
0000
1000
0000
,
0001
0000
0001
0000
,
1000
0000
1000
0000
,
0010
0000
0010
0000
,
0100
0000
0100
0000
,
0001
0000
0010
0000
,
0100
0000
0100
0000
,
1000
0000
1000
0000
,
0001
0000
0001
0000
,
0100
0000
0000
0000
,
0001
0000
0000
0000
,
0010
0000
0000
0000
,
0100
0000
0100
0000
,
1000
0000
0000
0000
,
0001
0000
0000
0000
,
0100
0000
0010
0000
,
1000
0000
0001
0000
,
1001
0000
0000
0000
,
1000
0010
0100
0001
,
0100
0000
0001
0000
,
0010
0000
0200
0000
,
1300
0000
1000
0000
,
0001
0000
0001
0000
,
1001
0000
0000
0000
,
0110
0000
0000
0000
,
1000
0000
0001
0000
,
0010
0000
0100
0100
,
1000
0000
0001
0000
,
0100
0000
0110
0000
,
0010
0000
2000
0000
,
3001
0000
2000
0000
,
3100
0000
0010
0000
,
0001
0000
1000
0000
,
0010
0000
0100
0000
,
0001
0000
1001
0000
,
1000
0000
0000
0000
,
0010
0000
0000
0000
,
0100
0000
0000
0000
,
0001
0000
0001
0000
,
0010
0000
0000
0000
,
0100
0000
0000
0000
,
1000
0000
0001
0000
,
0100
0000
0010
0000
,
1001
0000
0000
0000
,
1000
0000
0001
0000
,
0010
0000
0110
0000
,
1000
0000
1001
0000
,
0100
0000
0100
0000
,
0010
0000
0010
0000
,
1000
0001
1000
0000
,
0010
0100
0010
0000
,
1000
0010
0100
0001
,
1000
0000
1001
0000
,
0001
0000
0010
0000
,
0100
0000
0010
0010
,
0002
0000
2003
0000
,
3020
0000
0230
0000
,
0301
0000
0001
0000
,
1000
0000
1000
0000
,
0100
0000
0010
0000
,
0001
1000
0001
0000
,
0100
0000
0000
0000
,
0000
0000
0000
0000
;
#NOTES:
     dance-single:
     :
     Medium:
     10:
     :
0000
0000
0000
0000
,
0000
0000
0000
0000
,
0000
0000
0000
0000
,
0001
0100
0010
1000
,
0001
0010
0100
1000
,
0001
0010
0001
0100
,
0001
1000
0100
1000
,
0001
0100
0001
0001
,
1000
0010
1000
1000
,
0001
0100
0010
1000
,
0200
0000
0310
0100
,
1000
0001
0010
0110
,
1000
0001
1000
0110
,
0010
1010
1000
1001
,
0001
0010
0110
0110
,
0001
1000
0001
0101
,
0100
0010
0110
1001
,
0001
1000
0100
0110
,
0010
0001
2002
3003
,
0002
0000
0000
0000
,
0023
0000
0000
0000
,
0230
0000
0000
0000
,
2300
0000
0000
0000
,
3001
0100
0001
0100
,
0010
1000
0010
1000
,
0100
0010
0001
1000
,
0010
0100
0010
0000
1000
0001
1000
0000
,
0001
0010
0100
1000
,
1100
0110
0011
1001
,
0001
0000
0010
0000
0100
1000
0100
0000
,
0010
0000
0001
0000
1000
0001
1000
0000
,
0010
0100
0001
1000
,
0100
0000
0010
0000
0001
1000
0001
0000
,
0020
0001
0230
1000
,
0310
0001
1000
0010
,
0100
0010
0100
0000
0001
1000
0001
0000
,
0010
0100
1000
0000
0001
0010
0100
0000
,
1000
0000
0010
0000
0100
0001
0010
0000
,
0100
0000
0100
0000
1000
0100
0001
0000
,
0100
0010
0001
0010
0100
0000
1000
0000
,
0010
0100
1000
0100
0010
0000
0010
0000
,
1000
0100
0010
0000
0011
0000
1001
0000
,
0001
0000
1000
0000
0100
1000
0010
0001
,
0010
0000
1000
0000
0001
0100
1000
0000
,
0100
0000
0001
0000
1000
0100
0001
0100
,
2000
0000
0000
0000
,
3020
0000
0000
0000
,
0230
0000
0000
0000
,
0302
0000
0000
0000
,
1003
0100
1000
0100
,
0010
0001
0010
0001
,
0100
0010
1000
0001
,
0010
0100
0010
0100
1000
0001
1000
0001
,
1000
0010
0100
0001
,
0101
0110
1010
1001
,
0001
0010
0100
0010
0011
0000
1001
0000
,
1000
0010
0100
0010
1010
0000
1001
0000
,
0001
0100
0010
0100
0001
1000
0100
0010
,
0001
0100
0010
1000
0002
0000
2003
0000
,
3100
0010
0100
0010
0001
1000
0001
1000
,
0010
0100
0010
0100
0001
1000
0001
1000
,
0200
0320
0032
2003
,
3010
0000
0000
0100
0000
0000
0001
0000
0101
0000
0000
0000
1010
0000
0000
0000
,
1000
0001
1000
1000
0100
0010
0100
0100
,
2000
0000
3002
0000
0013
0010
0010
0000
,
0002
2003
3020
0230
,
0301
0010
0001
0000
1000
0010
1000
0000
,
0001
0010
0100
1000
0001
0100
0010
1000
,
0001
0100
1000
0100
0010
0000
0110
0000
,
0100
0001
1000
0001
0010
0100
0010
0000
,
0001
1000
0010
0100
0001
1000
0002
0000
,
0103
0000
0000
0000
,
0000
0000
0000
0000
;
#NOTES:
     dance-single:
     :
     Hard:
     15:
     :
0000
0000
0000
0000
,
0000
0000
0000
0000
,
0000
0000
0000
0000
,
1000
0000
0100
0000
0010
0000
0001
0000
1000
0001
1000
0000
0010
0000
0100
0000
,
0001
0000
0010
0000
0100
0000
1000
0000
0010
0100
0010
0000
1000
0000
0001
0000
,
0010
0000
0001
0000
1000
0100
1000
0000
0010
0000
1000
0000
0001
0100
0001
0000
,
0010
0000
0100
0000
0010
0000
0001
0000
1000
0001
1000
0000
0100
0000
0000
0000
,
1000
0000
0010
0000
0100
0000
0001
0000
1000
0010
1000
0000
0100
0000
0010
0000
,
0001
0000
0010
0000
0100
0000
1000
0000
0001
0010
0001
0000
1000
0000
0010
0000
,
1000
0001
1000
0000
0010
0100
0010
0000
1000
0010
1000
0000
0001
0100
0001
0000
,
1000
0000
0010
0000
0100
0000
0001
0000
0010
0000
0100
1000
0001
0000
0000
0000
,
1000
0010
0100
0001
1001
0010
1001
0000
,
0001
1000
0001
0010
0110
1000
0110
0000
,
1000
0010
1010
0011
0001
0100
0101
1100
,
1000
0001
0100
0010
1001
0100
1001
0000
,
1000
0100
1000
0001
0101
0110
1010
0000
,
1000
0010
1000
0001
0011
0110
1100
0000
,
1000
0010
0100
0001
1000
0110
1001
0000
,
0011
0000
0100
0000
1010
0000
0001
0000
1100
0000
0000
0101
0000
0000
0000
0000
,
0002
0000
0000
0000
,
0203
0000
0000
0000
,
0320
0000
0000
2030
,
3200
0320
0032
0000
,
1003
0100
1000
0010
1000
0100
1000
0010
,
0100
0001
0010
0001
0100
0001
0010
0001
,
1000
0010
0100
0001
1000
0100
0010
0001
,
0100
0010
1000
0001
0010
0100
0010
0000
,
2100
3000
0012
0003
2100
3000
0102
0003
,
1000
0000
0001
0010
0100
0000
0010
0100
1000
0010
0100
0001
1000
0000
1000
0000
,
0001
0100
0001
0100
0001
0000
1000
0000
0100
1000
0100
1000
0100
1000
0100
0000
,
0020
0000
0000
0000
0031
0000
1000
0000
0001
1000
0001
1000
0001
0000
0100
0000
,
0010
0000
1000
0000
0010
1000
0010
1000
0010
0000
0100
0001
0100
0001
0100
0000
,
0002
0000
2003
0000
3002
0000
2003
0000
3010
0100
0010
0100
0010
0000
0000
0000
,
1000
0000
0100
0000
0010
0000
0001
0000
1000
0100
1000
0100
1000
0000
0000
0000
,
0002
0000
0023
0000
0230
0000
2300
0000
3001
0010
0001
0010
0001
0010
0001
0000
,
1000
0001
0100
0010
0100
0100
0100
0010
,
1000
0001
1000
0001
1000
0001
1000
0001
1000
0001
1000
0001
1000
0000
0000
0000
,
0001
0010
1000
0010
0001
0100
1000
0100
,
0001
1000
0001
0000
0010
0000
0100
0000
1000
0100
0001
0100
1000
0000
0000
0000
,
0001
0000
0100
0001
0010
0000
0100
1000
0010
0000
1000
0001
1000
0000
0010
1000
,
0100
0000
0010
0001
0100
0000
0001
1000
0001
0000
0010
0100
0010
0000
0000
0000
,
0001
0000
0010
0000
1000
0000
0010
0000
0001
0000
0100
0000
1000
0100
0001
0000
,
0100
0000
0001
0000
1000
0000
0001
0000
0010
0000
1000
0000
0010
0001
0100
0000
,
0001
0000
0100
0000
1000
0000
0100
0000
0001
0100
1000
0100
0001
0000
0010
0000
,
1000
0000
0010
0000
0001
0000
0100
0000
1000
0100
0001
0010
1000
0000
0000
0000
,
0020
0000
0000
0000
,
0032
0000
0000
0000
,
2003
0000
0000
3200
,
0320
0032
2003
0000
,
3001
0010
1000
0010
0001
0010
1000
0010
,
0001
0100
1000
0100
0001
0100
1000
0100
,
0001
0010
0100
1000
0001
1000
0010
0100
,
0001
1000
0001
0010
0100
0010
0100
0000
,
1200
0300
0201
0300
1200
0300
0201
0300
,
1000
0000
0001
0100
0010
0000
0100
0010
1000
0100
0010
0001
1000
0000
1000
0000
,
0001
0010
0100
1000
0001
0010
0100
1000
0010
0100
0010
0100
0000
0001
0000
1000
,
0001
0100
0010
1000
0001
0100
0010
1000
0100
0010
0100
0020
0000
0000
0030
0000
,
0001
0100
0010
0000
1000
0100
0010
0000
0001
0010
0100
0000
1000
0010
0100
0000
,
0110
1000
0110
0001
0101
1100
1010
0011
,
0001
0010
0001
0010
0002
0000
2003
0000
3100
0000
0010
0000
0001
0100
0010
0000
,
1000
0010
1000
0010
2000
0000
3002
0000
0013
0000
0100
1000
0001
0000
1000
0000
,
0001
0100
0001
0100
0010
1000
0010
1000
0001
0010
0001
0010
0100
1000
0100
1000
,
0001
0000
0010
0001
0000
1000
0001
1000
0010
0100
0001
0000
1001
0000
0000
0000
,
0101
0110
1010
1000
0001
0010
0110
0110
,
0100
2000
0000
3002
0000
2003
0000
3001
0010
0000
0010
0000
0010
0000
0100
0000
,
1000
0000
1000
0000
0001
0000
0001
0000
0010
0100
0010
0000
0010
0000
0100
0000
,
1000
0000
1000
0000
0001
0000
0001
0000
0100
0000
0100
0010
0100
0000
0010
0000
,
1000
0001
1000
0000
1000
0000
0001
1000
0001
0000
0001
0010
0100
1000
0001
0000
,
1000
0010
0100
0010
1000
0000
1000
0000
0001
0000
0001
0100
0010
0100
0001
0000
,
1000
0100
0010
0000
1001
0000
0100
0000
1000
0001
1000
0001
1000
0000
0001
0000
,
1000
0010
0100
0001
1000
0000
0001
0000
0010
0000
0010
0000
0110
0000
0000
0000
,
1001
0000
0000
0000
,
0000
0000
0000
0000
;
#NOTES:
     dance-double:
     :
     Easy:
     5:
     :
00000000
00000000
00000000
00000000
,
00000000
00000000
00000000
00000000
,
00000000
00000000
00000000
00000000
,
10000000
00000000
01000000
00000000
,
00100000
00000000
00010000
00000000
,
00100000
00000000
00001000
00000000
,
00010000
00000000
00000100
00000000
,
00001000
00000000
00000001
00000000
,
00000100
00000000
00000010
00000000
,
00001000
00000000
00000100
00000000
,
00010000
00000000
00001000
00000000
,
01000000
00000000
01000000
00000000
,
00010000
00000000
00010000
00000000
,
10000000
00000000
10000000
00000000
,
00100000
00000000
00100000
00000000
,
01000000
00000000
00010000
00000000
,
01000000
00000000
00001000
00000000
,
00010000
00000000
00010000
00000000
,
00000100
00000000
00001000
00000000
,
00000100
00000000
00000000
00000000
,
00000010
00000000
00000000
00000000
,
00000001
00000000
00000000
00000000
,
00000100
00000000
00000100
00000000
,
00000010
00000000
00001000
00000000
,
00000100
00000000
00010000
00000000
,
00001000
00000000
00100000
00000000
,
00010000
00000000
10000000
00000000
,
10010000
00000000
00000000
00000000
,
10000000
01000000
00100000
00010000
,
00100000
00000000
00001000
00000000
,
00010000
00000000
00002000
00000000
,
00013000
00000000
00000100
00000000
,
00001000
00000000
00000100
00000000
,
00001100
00000000
00000100
00000000
,
00001001
00000000
00001000
00000000
,
00000001
00000000
00001000
00000000
,
00000100
00000000
00010000
00010000
,
00001000
00000000
00100000
00000000
,
00010000
00000000
10010000
00000000
,
10000000
00000000
02000000
00000000
,
03100000
00000000
00020000
00000000
,
00130000
00000000
00001000
00000000
,
00010000
00000000
00000100
00000000
,
00001000
00000000
00000001
00000000
,
00000100
00000000
00000110
00000000
,
00000010
00000000
00000000
00000000
,
00001000
00000000
00000000
00000000
,
00000100
00000000
00000000
00000000
,
00010000
00000000
00001000
00000000
,
01000000
00000000
00000000
00000000
,
00010000
00000000
00000000
00000000
,
10000000
00000000
00010000
00000000
,
00100000
00000000
00001000
00000000
,
00010000
00000100
00001000
00000001
,
00001000
00000000
00000010
00000000
,
00010000
00000000
00011000
00000000
,
00001000
00000000
00101000
00000000
,
00100000
00000000
00010000
00000000
,
10000000
00000000
01000000
00000000
,
00100000
00010000
00200000
00300000
,
00001000
00010000
00000200
00000300
,
00001000
00000001
00000100
00000010
,
00001000
00000000
00001100
00000000
,
00000100
00000000
00010000
00000000
,
00001000
00000000
00100000
00100000
,
00020000
00000000
02030000
00000000
,
03200000
00000000
20300000
00000000
,
31000000
00000000
00100000
00000000
,
00010000
00100000
00001000
00001000
,
00010000
00000000
00000100
00000000
,
00001000
00000001
00001000
00000000
,
00000100
00000000
00000000
00000000
,
00000000
00000000
00000000
00000000
;
#NOTES:
     dance-double:
     :
     Medium:
     10:
     :
00000000
00000000
00000000
00000000
,
00000000
00000000
00000000
00000000
,
00000000
00000000
00000000
00000000
,
00000001
00000100
00000010
00000000
,
00001000
00000010
00010000
00000000
,
00001000
00100000
00010000
10000000
,
01000000
00100000
00001000
00100000
,
00001000
00010000
00000100
00000100
,
00010000
00001000
01000000
01000000
,
00001000
00010000
00000010
00001000
,
00000002
00000000
00000013
00000100
,
00001000
00000001
00000100
00000110
,
00000010
00001000
00000100
00010100
,
00010000
00011000
00001000
00101000
,
00100000
00010000
10010000
01010000
,
01000000
00010000
00100000
00001000
,
00010000
00000100
00001100
00001001
,
00000001
00000100
00000010
00001010
,
00000010
00010000
00011000
00000000
,
00002000
00000000
00000000
00000000
,
00203000
00000000
00000000
00000000
,
00320000
00000000
00000000
00000000
,
20030000
00000000
00000000
00000000
,
30010000
00100000
00010000
00100000
,
00001000
00010000
00001000
00010000
,
00000100
00001000
00000001
00000010
,
00000100
00001000
00000100
00000000
00010000
00001000
00010000
00000000
,
00001000
00100000
00010000
10000000
,
10010000
00110000
00101000
00011000
,
00010000
00000000
00000100
00000000
00001000
00000100
00001000
00000000
,
00000001
00000000
00000100
00000000
00000010
00001000
00000010
00000000
,
00010000
00001000
00100000
00010000
,
10000000
00000000
00010000
00000000
01000000
00100000
01000000
00000000
,
00020000
00100000
20030000
00100000
,
30010000
01000000
00001000
00010000
,
00000100
00001000
00000100
00000000
00000010
00000001
00000010
00000000
,
00000001
00001000
00000010
00000000
00010000
00001000
00100000
00000000
,
00010000
10000000
01000000
00100000
,
00010000
00000000
00001000
00000000
00000100
00000010
00000001
00000000
,
00001000
00000000
00000100
00000000
00010000
00001000
00010000
00000000
,
00001000
00000000
00100000
00000000
00010000
10000000
00010000
00000000
,
01000000
00001000
00010000
00010100
,
00000100
00000000
00001000
00000000
00000010
00000100
00000001
00001000
,
00000100
00000000
00010000
00000000
00001000
00100000
00010000
00000000
,
10000000
00000000
01000000
00000000
00100000
00001000
00010000
00001000
,
00020000
00000000
00000000
00000000
,
00030020
00000000
00000000
00000000
,
00002030
00000000
00000000
00000000
,
00003002
00000000
00000000
00000000
,
00001003
00000010
00001000
00000010
,
00010000
00001000
00010000
00001000
,
01000000
00010000
10000000
00100000
,
01000000
00010000
01000000
00000000
00001000
00010000
00001000
00000000
,
00010000
00000010
00001000
00000001
,
00001001
00001010
00010010
00011000
,
00001000
00100000
00010000
00100000
00010000
10000000
00010000
00000000
,
00100000
01000000
00010000
01000000
00100000
00001000
00010000
00000000
,
00001000
00010000
00000100
00001000
00000100
00000010
00000001
00000010
,
00000001
00000100
00000010
00001000
00000200
00000000
00020300
00000000
,
00031000
00100000
00001000
00100000
00010000
10000000
00010000
10000000
,
00100000
01000000
00100000
01000000
00010000
01000000
00001000
00010000
,
00000020
00002030
00003002
00000203
,
00000310
00000000
00000000
00001000
00000000
00000000
00000100
00000000
00010100
00000000
00000000
00000000
00011000
00000000
00000000
00000000
,
00001000
00100000
00010000
00010000
10000000
00010000
01000000
01000000
,
00002000
00000000
00023000
00000000
00030010
00000010
00000010
00000000
,
00002000
00003200
00000320
00000032
,
00001003
00000100
00001000
00000000
00000100
00010000
00001000
00000000
,
00010000
00001000
01000000
00010000
10000000
00100000
10000000
01000000
,
00100000
00001000
00010000
00000100
00001000
00000000
00001100
00000000
,
00000100
00001000
00000010
00000100
00000001
00000010
00000100
00001000
,
00000100
00010000
00001000
00100000
00010000
00100000
20000000
00000000
,
30100000
00000000
00000000
00000000
,
00000000
00000000
00000000
00000000
;
#NOTES:
     dance-double:
     :
     Hard:
     15:
     :
00000000
00000000
00000000
00000000
,
00000000
00000000
00000000
00000000
,
00000000
00000000
00000000
00000000
,
10000000
00000000
01000000
00000000
00100000
00000000
00001000
00000000
00010000
00001000
00010000
00000000
00000100
00000000
00000010
00000000
,
00000001
00000000
00000100
00000000
00000010
00000000
00010000
00000000
00001000
00010000
00001000
00000000
01000000
00000000
00100000
00000000
,
10000000
00000000
00100000
00000000
01000000
00010000
01000000
00000000
00001000
00000000
00010000
00000000
00000010
00001000
00000010
00000000
,
00000100
00000000
00000001
00000000
00001000
00000000
00000010
00000000
00010000
00001000
00010000
00000000
00001000
00000000
00000000
00000000
,
00100000
00000000
00010000
00000000
01000000
00000000
00100000
00000000
10000000
00010000
10000000
00000000
01000000
00000000
00100000
00000000
,
00001000
00000000
00010000
00000000
00000100
00000000
00000010
00000000
00000001
00001000
00000001
00000000
00000010
00000000
00000100
00000000
,
00010000
00001000
00010000
00000000
00001000
00100000
00001000
00000000
00100000
00010000
00100000
00000000
00010000
10000000
00010000
00000000
,
10000000
00000000
01000000
00000000
00100000
00000000
00001000
00000000
00010000
00000000
00000100
00001000
00000001
00000000
00000000
00000000
,
00001000
00000010
00000100
00000001
00000101
00000100
00000110
00000000
,
00000010
00010000
00001000
00100000
00110000
01000000
10010000
00000000
,
10000000
01000000
01100000
00110000
00010000
00100000
00101000
00011000
,
00010000
00000100
00001000
00000010
00001010
00000100
00001001
00000000
,
00000001
00000010
00000100
00001000
00001100
00010100
00011000
00000000
,
00001000
01000000
00010000
10000000
11000000
01100000
00110000
00000000
,
00010000
00100000
00001000
00010000
00000100
00001001
00000110
00000000
,
00001010
00000000
00000100
00000000
00011000
00000000
00100000
00000000
01010000
00000000
00000000
00011000
00000000
00000000
00000000
00000000
,
00020000
00000000
00000000
00000000
,
00230000
00000000
00000000
00000000
,
02300000
00000000
00000000
23000000
,
32000000
03200000
00320000
00000000
,
00031000
00100000
00001000
00010000
00001000
00100000
00001000
00010000
,
00000100
00001000
00000100
00010000
00000100
00001000
00000100
00010000
,
00000010
00001000
00000001
00000100
00000001
00000010
00000100
00001000
,
00010000
00100000
01000000
10000000
00010000
01000000
00010000
00000000
,
20000000
30020000
00032000
00003002
,
00001003
00000000
00000100
00001000
00000001
00000000
00000100
00000001
00001000
00000010
00010000
00001000
00010000
00000000
00001000
00000000
,
00100000
00010000
00100000
00010000
00100000
00000000
00010000
00000000
01000000
00010000
01000000
00010000
01000000
00010000
01000000
00000000
,
00020000
00000000
00000000
00000000
10030000
00000000
01000000
00000000
00100000
01000000
00100000
01000000
00100000
00000000
00001000
00000000
,
00010000
00000000
00000100
00000000
00001000
00000100
00001000
00000100
00001000
00000000
00000100
00001000
00000100
00001000
00000100
00000000
,
00002000
00000000
00003002
00000000
00002003
00000000
00003002
00000000
00000103
00000010
00000100
00000010
00000100
00000000
00000000
00000000
,
00000001
00000000
00000010
00000000
00000100
00000000
00010000
00000000
00001000
00010000
00001000
00010000
00001000
00000000
00000000
00000000
,
00200000
00000000
00320000
00000000
20030000
00000000
30200000
00000000
01300000
00010000
01000000
00010000
01000000
00010000
01000000
00000000
,
00001000
00010000
00000010
00001000
00000100
00000100
00000100
00010000
,
00001000
00010000
00001000
00010000
00001000
00010000
00001000
00010000
00001000
00010000
00001000
00010000
00001000
00000000
00000000
00000000
,
00010000
00000100
00000010
00000001
00000100
00001000
00010000
00100000
,
10000000
00000000
01000000
00000000
00010000
00000000
00001000
00000000
00000010
00000001
00000100
00000010
00001000
00000000
00000000
00000000
,
00000001
00000000
00000100
00000010
00001000
00000000
00000010
00010000
00001000
00000000
00010000
00001000
00100000
00000000
00001000
00100000
,
00010000
00000000
00100000
01000000
10000000
00000000
00010000
10000000
00010000
00000000
01000000
00100000
01000000
00000000
00000000
00000000
,
00010000
00100000
10000000
00100000
00001000
00000010
00000001
00000100
,
00001000
00000000
00000100
00000000
00000001
00000000
00000100
00000000
00010000
00000000
01000000
00000000
00010000
10000000
00010000
00000000
,
10000000
00000000
01000000
00000000
00100000
00000000
00001000
00000000
00010000
00000100
00001000
00000100
00000001
00000000
00000100
00000000
,
00010000
00000000
01000000
00000000
10000000
00000000
00100000
00000000
00010000
00001000
01000000
00100000
00010000
00000000
00000000
00000000
,
00002000
00000000
00000000
00000000
,
00003020
00000000
00000000
00000000
,
00000230
00000000
00000000
00000302
,
00000203
00000320
00002030
00000000
,
00013000
00000010
00010000
00001000
00010000
00000010
00010000
00001000
,
01000000
00010000
01000000
00001000
01000000
00010000
01000000
00001000
,
00100000
00010000
10000000
01000000
10000000
00100000
01000000
00010000
,
00001000
00000010
00000100
00000001
00001000
00000100
00001000
00000000
,
00000002
00002003
00023000
20030000
,
30010000
00000000
01000000
00010000
10000000
00000000
01000000
10000000
00010000
00100000
00001000
00010000
00001000
00000000
00010000
00000000
,
00001000
00010000
00000100
00001000
00000100
00000010
00000100
00001000
00000001
00000010
00000100
00001000
00000000
00000001
00000000
00001000
,
00000100
00010000
00001000
00100000
00010000
00100000
00010000
10000000
00100000
01000000
00100000
02000000
00000000
00000000
03000000
00000000
,
00010000
01000000
00001000
00000000
00010000
00000100
00001000
00000000
00000001
00000100
00000010
00000000
00010000
00001000
00100000
00000000
,
00110000
00010000
10010000
10000000
11000000
01100000
00110000
00101000
,
00001000
00010000
00001000
00010000
00002000
00000000
00023000
00000000
00030010
00000000
00001000
00000100
00001000
00000001
00000100
00000000
,
00000010
00000100
00000010
00000100
00000020
00000000
00000230
00000000
00001300
00000000
00010000
00000000
00100000
00000000
01000000
00000000
,
00010000
10000000
00010000
00000000
00100000
00001000
00100000
00000000
00000100
00010000
00000100
00000000
00001000
00000001
00001000
00000000
,
00000001
00000000
00000010
00000100
00000000
00001000
00000010
00010000
00001000
00100000
00010000
00000000
10010000
00000000
00000000
00000000
,
11000000
01100000
00110000
00010000
00100000
00001000
00011000
00011000
,
00010000
00000200
00000000
00000320
00000000
00000230
00000000
00001300
00000010
00000000
00000010
00000000
00000010
00000000
00000100
00000000
,
00000001
00000000
00000001
00000000
00001000
00000000
00001000
00000000
00000100
00010000
00000100
00000000
00010000
00000000
00010000
00000000
,
00001000
00000000
00001000
00000000
01000000
00000000
01000000
00000000
00010000
00000000
10000000
00100000
01000000
00000000
00010000
00000000
,
00100000
00010000
00100000
00000000
00100000
00000000
00001000
00010000
00001000
00000000
00001000
00010000
00000100
00001000
00000100
00000000
,
00001000
00000010
00000100
00000010
00001000
00000000
00001000
00000000
00000001
00000000
00000001
00000010
00000100
00001000
00000100
00000000
,
00010000
00001000
00010000
00000000
00011000
00000000
00001000
00000000
00100000
00010000
00100000
00010000
00100000
00000000
00010000
00000000
,
10000000
01000000
00100000
00010000
00100000
00000000
00001000
00000000
00000010
00000000
00000010
00000000
00000110
00000000
00000000
00000000
,
00001001
00000000
00000000
00000000
,
00000000
00000000
00000000
00000000
;
