
//----- song ID: rena2 -----//
#TITLE:恋愛観測 -2021真夏のエンディング ver.-;
#ARTIST:2021真夏のSingers;
#TITLETRANSLIT:Renaikansoku -2021 manatsu no ending ver.-;
#ARTISTTRANSLIT:2021 manatsu no Singers;
#BANNER:Renaikansoku -2021 manatsu no ending ver.-.png;
#BACKGROUND:Renaikansoku -2021 manatsu no ending ver.--bg.png;
#CDTITLE:./CDTitles/NOSTALGIA Op.3.png;
#MUSIC:Renaikansoku -2021 manatsu no ending ver.-.ogg;
#SAMPLESTART:48.033;
#SAMPLELENGTH:15;
#BPMS:0=188;
#NOTES:
     dance-single:
     :
     Beginner:
     3:
     :
0000
0000
0000
0000
,
0000
0000
0000
0000
,
0000
0000
0000
0000
,
0000
0000
0000
0000
,
0000
0000
0000
0000
,
0000
0000
0000
0000
,
1000
0000
1000
0000
,
0100
0000
0000
0000
,
1000
0000
1000
0000
,
0010
0000
0000
0000
,
0110
0000
0000
0000
,
0000
0000
0000
0000
,
1001
0000
0000
0000
,
0000
0000
0000
0000
,
0110
0000
0000
0000
,
0000
0000
0000
0000
,
1001
0000
0000
0000
,
0000
0000
0000
0000
,
0001
0000
0001
0000
,
0100
0000
0000
0000
,
0001
0000
0001
0000
,
0010
0000
0000
0000
,
0110
0000
0000
0000
,
0000
0000
0000
0000
,
1001
0000
0000
0000
,
0000
0000
0000
0000
,
0110
0000
0000
0000
,
0000
0000
0000
0000
,
1001
0000
0000
0000
,
0000
0000
0000
0000
,
1000
0000
0010
0000
,
1000
0000
0000
0000
,
1000
0000
0100
0000
,
1000
0000
0000
0000
,
0001
0000
0010
0000
,
0001
0000
0000
0000
,
0001
0000
0100
0000
,
0001
0000
0000
0000
,
0001
0001
0100
0000
,
0001
0000
0010
0000
,
0010
0000
0000
0000
,
0100
0000
0000
0000
,
1001
0000
0000
0000
,
0000
0000
0000
0000
,
1001
0000
0000
0000
,
0000
0000
0000
0000
,
1000
1000
0100
0000
,
1000
0000
0010
0000
,
0010
0000
0000
0000
,
0100
0000
0000
0000
,
1001
0000
0000
0000
,
0000
0000
0000
0000
,
1001
0000
0000
0000
,
0000
0000
0000
0000
,
0001
0000
0000
0000
,
0100
0000
0000
0000
,
0010
0000
0100
0000
,
0010
0000
0000
0000
,
1000
0000
0000
0000
,
0100
0000
0000
0000
,
0010
0000
0100
0000
,
0010
0000
0000
0000
,
0000
0000
0000
0000
,
0001
0000
0000
0000
,
0100
0000
0000
0000
,
0010
0000
0001
0000
,
0010
0000
0000
0000
,
0010
0000
0000
0000
,
0100
0000
0000
0000
,
1000
0000
0000
0000
,
0000
0000
0000
0000
,
1001
0000
0000
0000
,
0000
0000
0000
0000
,
1000
0000
0010
0000
,
1000
1000
0100
0000
,
0010
0000
0000
0000
,
0001
0000
0000
0000
,
0100
0000
0001
0000
,
0100
0000
0000
0000
,
0001
0001
0010
0000
,
0100
0000
0100
0000
,
1000
0000
0000
0000
,
0000
0000
0000
0000
,
1000
1000
0010
0000
,
0100
0000
0100
0000
,
0002
0000
0000
0000
,
0003
0000
0000
0000
,
0200
0000
0000
0000
,
0300
0000
0000
0000
,
0010
0000
0010
0000
,
1000
0000
1000
0000
,
0001
0000
0000
0000
0000
0000
0000
1001
,
0000
0000
0000
0000
;
#NOTES:
     dance-single:
     :
     Easy:
     8:
     :
0000
0000
0000
0000
,
0000
0000
0000
0000
,
0000
0000
0000
0000
,
0000
0000
0000
0000
,
0000
0000
0000
0000
,
0000
0000
0000
0000
,
0001
0100
0001
0010
,
0001
0100
0001
0000
,
1000
0010
1000
0100
,
1000
0010
1000
0000
,
0001
0001
0001
0000
,
1000
1000
0010
0000
,
1000
1000
1000
0000
,
0001
0001
0010
0000
,
0001
0100
0010
0000
,
1000
0100
0010
0000
,
0011
0000
1010
0000
,
1001
0000
0000
0000
,
0001
0100
0010
1000
,
0010
0100
0001
0000
,
1000
0100
0010
0001
,
0010
0100
1000
0000
,
0001
0001
0100
0001
,
0010
0100
1000
0000
,
1000
1000
0010
1000
,
0100
0010
0001
0000
,
1000
0100
1000
0100
,
0001
0100
1000
0000
,
0001
0100
1000
0100
,
0001
0000
0000
0000
,
0001
0000
0000
1000
0000
0010
0000
1000
,
0000
0010
0000
1000
0000
0000
0000
0000
,
1000
0000
0000
0001
0000
0010
0000
0001
,
0000
0010
0000
0001
0000
0000
0000
0000
,
0001
0000
0000
1000
0000
0100
0000
1000
,
0000
0001
0000
1000
0000
0000
0000
0000
,
2002
0000
0000
0000
,
3003
0000
0000
0000
,
0001
0000
1000
0000
0010
0000
0100
0001
,
0000
0001
0000
0000
1000
0000
1000
0000
,
0001
0010
0100
1000
,
0010
0000
0100
0000
0001
0000
1000
0100
,
0000
0000
0000
1100
0000
0000
0000
0101
,
0000
0000
1000
1000
,
0001
0000
0100
0000
0010
0100
0000
0020
,
0000
0000
0000
0030
,
1000
0000
0001
0000
0100
0000
0010
1000
,
0000
1000
0000
0000
0001
0000
0001
0000
,
1000
0100
0010
0001
,
0100
0000
0010
0000
1000
0000
0001
0010
,
0000
0000
0000
0011
0000
0000
0000
1010
,
0000
0000
0001
0001
,
1000
0010
0100
0001
,
1000
0100
0010
0000
,
0001
0100
0001
1000
,
0001
0010
0001
0000
,
1000
0100
1000
0001
,
1000
0010
1000
0000
,
0001
0100
0001
0100
,
0010
1000
0010
1000
,
0001
0000
1000
0000
0001
1000
0000
0001
,
0000
1000
0100
0010
,
0001
0000
1000
0001
0000
0000
0000
0000
,
1000
0000
1000
0000
0000
0000
0000
0001
,
0000
0001
0000
0000
0000
0000
0000
0000
,
1000
0010
1000
0010
,
0100
0000
0001
0000
0010
0000
0001
0100
,
0000
0000
0000
0010
0000
0000
0000
0100
,
0000
0000
0000
0001
1000
0000
0001
0000
,
1000
0000
0000
1000
0000
0000
0010
0000
,
0000
0010
0000
0000
1001
0000
0000
0000
,
0001
0000
0000
0001
0000
0000
0010
0000
,
0000
0010
0000
0000
1001
0000
0000
0000
,
1000
0000
1000
0000
0010
0000
0100
0001
,
0000
0001
0000
0000
1000
0000
1000
0000
,
0001
0010
0100
1000
,
0010
0000
0100
0000
0001
0000
0010
0001
,
0000
0000
1000
0100
0000
0000
1000
0001
,
0000
0000
1000
0001
,
1000
0010
0100
0010
,
1000
0001
0010
0100
,
1000
0000
0000
0010
0000
0010
0000
0100
,
0000
0100
0000
0110
0000
0000
0000
0000
,
0001
0100
1000
0100
,
0002
0000
2003
0000
,
3001
0010
0001
1000
,
0010
1000
0100
0000
,
1000
0010
1000
0001
,
0010
0001
0100
0000
,
0001
0000
0000
0001
0000
0000
0001
0000
,
1000
0000
0000
1000
0000
0000
1000
0000
,
0010
0000
0000
0000
0100
0010
0000
2002
,
0000
0000
0000
0000
,
0000
0000
0000
0000
,
0000
0000
0000
0000
,
3003
0000
0000
0000
,
0000
0000
0000
0000
;
#NOTES:
     dance-single:
     :
     Medium:
     12:
     :
0000
0000
0000
0000
,
0000
0000
0000
0000
,
0000
0000
0000
0000
,
0000
0000
0000
0000
,
0000
0000
0000
0000
,
0000
0000
0000
0000
,
1000
0000
0001
0000
0010
0100
1000
0000
,
0001
0000
0100
0001
0000
0000
1001
0000
,
0001
0000
0100
0000
0010
1000
0100
0000
,
0010
0000
0001
0010
0000
0001
1000
0001
,
0000
0000
1010
0000
0101
0000
0000
1000
,
0000
0001
1000
0001
0000
0100
0010
1000
,
0000
0000
1010
0000
0101
0000
0000
1000
,
0000
0001
0010
0001
0000
1000
0100
0010
,
0000
0000
0011
0000
1010
0000
0000
1000
,
0001
0000
0100
0001
0000
0000
0000
0001
,
0000
0010
0100
1000
0000
0000
0001
1000
,
0000
0100
0100
0100
,
1000
0001
0010
0000
0001
1000
0100
0000
,
0010
0001
1000
0001
0000
0000
1001
0000
,
0001
1000
0100
0000
1000
0010
0100
0000
,
0001
1000
0100
1000
0000
1000
0100
0010
,
0000
0000
0011
0000
1010
0000
0000
1000
,
1000
0001
0100
0001
0000
1000
0010
0100
,
0000
0000
0101
0000
1100
0000
0000
1000
,
0000
0100
0001
0100
0000
0010
0001
0100
,
0000
0000
0110
0000
1001
0000
0000
0001
,
0010
0000
0001
0100
0000
0000
0000
0010
,
0000
1000
0000
0010
0000
1000
0001
1000
,
0010
0100
0010
0100
0000
0100
0010
0000
,
1000
0000
0100
0001
0000
0100
0000
1100
,
0000
1000
0000
2002
0000
0000
3003
0000
,
0001
0000
0100
1000
0000
0100
0000
0101
,
0000
0001
0000
2002
0000
0000
3003
0000
,
1000
0100
1000
0010
0000
0100
0001
0101
,
0000
1000
0010
1010
0000
0001
1000
2002
,
0000
0000
0000
3003
,
0001
1000
0001
1000
0000
0001
1000
0000
,
0001
0000
1001
0000
1000
0100
0010
0001
,
0000
1001
0000
0000
0001
1000
0001
0000
,
0100
0000
0010
1000
0000
0100
1000
0000
,
1100
0000
1010
0000
0101
0000
0001
0010
,
0000
0001
0100
0001
0000
1000
0100
2000
,
0000
0000
3000
1000
0100
0000
0010
0001
,
0010
0000
0001
0100
0010
0100
0000
0110
,
0000
0010
0100
0000
0010
1000
0100
1000
,
0001
0000
1001
0000
0001
0010
0100
1000
,
0000
1001
0000
0000
1000
0001
1000
0000
,
0010
0000
0100
0001
0000
0010
0001
0000
,
0011
0000
0101
0000
1010
0000
1000
0100
,
0000
1000
0010
1000
0000
0001
0010
0002
,
0000
0003
0001
0010
,
0100
1000
0010
0000
0100
0001
0010
0000
,
0100
0010
0100
0010
0001
1000
0001
1000
,
0010
0100
0001
0100
0000
0010
1000
0010
,
0000
0100
0001
0100
0000
0001
1000
0000
,
0001
0100
0001
0010
0000
0100
1000
0100
,
0000
0010
0001
0010
0000
0001
1000
0001
,
1000
0001
0100
0010
1000
0100
0010
0001
,
0100
0001
0010
0100
1000
0001
0100
0000
,
0001
0010
0100
0010
0001
1000
0000
1001
,
0000
1000
0100
1000
0000
0001
0100
0001
,
0000
1000
0010
1000
0000
0000
0000
0000
,
0001
0000
0001
0000
1000
0100
0010
0001
,
0000
1000
0000
0000
0010
0100
0010
0000
,
1000
0010
1000
0010
,
0100
0000
0001
0000
0100
0000
0001
0100
,
0000
0000
0001
0010
0000
0000
0001
0100
,
0000
0000
0000
0001
1000
0000
0100
0010
,
0100
0000
1000
0010
0000
0100
0001
0200
,
0000
0000
0000
0300
,
0001
0010
0001
1000
0010
1000
0001
0100
,
0001
1000
0100
1000
0001
0000
1001
0000
,
1000
0000
1001
0000
0001
0010
0001
0011
,
0000
0110
0000
0000
1000
0001
1000
0000
,
0001
0000
0100
0010
1000
0100
0010
0100
,
2000
0000
3200
0000
0302
0000
0103
1000
,
0000
0100
0010
0011
0000
1000
0100
0120
,
0000
0000
0001
0031
,
1000
0010
1000
0010
0100
0001
0100
0001
,
2000
0100
3002
0103
,
0001
0010
0000
0100
0000
0100
0000
1000
,
0000
1000
0000
0001
0000
1000
0001
0000
,
1000
0100
0010
0001
1000
0100
0010
0001
,
2000
0010
3002
0013
,
0001
1000
0001
0100
0000
0010
0100
0001
,
0000
0010
0100
1000
0000
0100
0010
0000
,
0001
1000
0100
0010
0000
0001
0100
0010
,
0000
1000
0100
0010
0000
0001
1000
0000
,
0001
0100
0001
0100
0000
0010
1010
0000
,
1000
0100
1000
0100
0000
0010
0011
0000
,
0110
0000
0000
0000
1000
0001
1000
2002
,
0000
0000
0000
0000
,
0000
0000
0000
0000
,
0000
0000
0000
0000
,
3003
0000
0000
0000
,
0000
0000
0000
0000
;
#NOTES:
     dance-single:
     :
     Hard:
     14:
     :
0000
0000
0000
0000
,
0000
0000
0000
0000
,
0000
0000
0000
0000
,
0000
0000
0000
0000
,
0000
0000
0000
0000
,
0000
0000
0000
0000
,
1000
0001
0010
0001
0100
0010
0100
0001
,
0100
0010
1000
0100
0000
0000
1010
0000
,
1000
0010
1000
0100
0010
0100
0010
1000
,
0010
0001
0010
0100
0000
0010
0001
1000
,
0000
0000
0011
0000
1010
0000
0010
1000
,
0100
1000
0010
0001
0000
0010
1000
0100
,
0000
0000
1100
0000
0011
0000
0001
1000
,
0010
0100
0001
0010
0000
0001
0010
1000
,
0000
0000
0110
0000
1001
0000
1000
0001
,
1000
0010
0100
0001
0000
0000
0000
0001
,
0000
0100
1000
0001
0000
0000
0010
1000
,
0000
0100
0001
0100
,
0001
0010
0100
1000
0010
0100
1000
0100
,
0001
1000
0010
2000
0000
0100
3100
0000
,
1000
0100
0010
0001
0100
0010
0001
0010
,
0100
0001
0100
0010
0000
0010
0100
0010
,
0000
1000
1010
0000
0011
0000
0000
0001
,
0100
1000
0100
0001
0000
0001
0100
0010
,
0000
1000
1010
0000
0011
0000
0000
0001
,
0010
0100
1000
0010
0000
0010
0100
0010
,
0000
0100
0110
0000
1001
0000
0000
0001
,
0100
0010
0100
0001
0000
0000
0000
1000
,
0000
1000
0010
0100
0000
0100
0010
0000
,
1000
0100
0010
0001
0100
0010
1000
0000
,
0011
0000
0000
1100
0000
1000
0000
0110
,
0000
0101
0000
2020
0000
0000
3030
0000
,
0001
0010
0000
0011
0000
0110
0000
0100
,
0000
0010
0000
1001
0000
1000
0001
0000
,
1000
0001
1000
0110
0000
0101
0000
1010
,
0000
1100
1000
0001
0000
0010
0100
2000
,
0000
0010
0001
3010
,
1000
0100
0010
0001
1000
0100
0010
0001
,
1000
0000
0110
0000
0001
0010
0001
0100
,
0000
0000
0100
0000
0010
0000
0000
0000
1001
0000
1000
0001
1000
0000
0000
0000
,
0001
0010
0001
0010
0100
1000
0100
1000
,
0010
1000
0100
0010
0001
0100
0001
0010
,
0000
0000
0100
1000
0100
0000
1100
0000
0000
0000
0001
0010
0001
0000
0011
0000
,
0000
1000
0001
1000
0010
0100
0110
0000
,
0001
0000
0100
0000
0010
0000
1000
0000
0001
1000
0001
0000
0000
0000
1001
0000
,
0000
1000
0001
1000
0001
1000
0001
0000
,
1000
0000
0110
0000
0001
0100
0001
0010
,
0000
0000
0010
0000
0100
0000
0000
0000
1001
0000
1000
0001
1000
0000
0000
0000
,
0001
0100
0001
0100
0010
1000
0010
1000
,
0100
1000
0010
0100
0001
0010
0001
0101
,
0000
0000
0010
1000
0010
0000
1010
0000
0000
0000
0100
0010
0100
0000
0110
0000
,
0000
1000
0001
1000
0100
0010
0001
0000
,
1000
0100
1100
1000
0001
0100
0101
0001
,
1000
0010
1000
0010
0100
0001
0100
0001
,
1000
0100
0010
0002
0000
0100
0000
0010
,
0000
1000
0000
0013
0000
0001
1000
0000
,
0001
0010
0100
2000
0000
0010
0000
3100
,
0000
0010
2000
0000
3200
0000
0320
0000
,
0031
0100
0010
1000
0100
1000
0001
0010
,
0100
1000
0100
0001
0100
1000
0001
0010
,
0100
1000
0010
1000
0100
0010
0001
0100
,
0000
0100
0001
0010
0000
0100
1000
0010
,
0000
1000
0001
1001
0000
0000
0000
0000
,
0011
0000
1100
0000
0010
1000
0100
0110
,
0000
0000
0110
0000
0000
0000
0000
0000
1001
0000
0001
1000
0001
0000
0000
0000
,
1000
0100
1000
0100
0010
0001
0100
0001
,
0020
0000
2030
0000
3020
0000
0031
1000
,
0000
0100
0010
0011
0000
0001
0100
0110
,
0000
0010
1000
0001
1000
0100
1000
1000
,
0001
0100
0100
0010
1000
1000
0100
1000
,
1000
0001
0010
0010
0001
0000
1001
0000
,
0001
0000
1000
0001
1000
0000
0010
0000
0100
0010
0100
0000
0001
0000
0100
0001
,
0100
0000
0010
0000
1000
0010
1000
0000
0001
0000
0000
0000
1001
0000
0000
0000
,
0011
0000
1100
0000
1000
0010
0100
0001
,
0000
0000
0101
0000
0000
0000
0000
0000
1001
0000
1000
0001
1000
0000
0000
0000
,
0001
0010
1000
0010
0001
0100
1000
0100
,
0101
0001
0011
0000
1100
1000
1010
0010
,
0000
0000
1000
0100
0010
0000
0011
0000
0000
0000
0001
0100
0010
0000
1010
0000
,
0000
0000
1000
0000
0010
0000
0001
0000
0010
1000
0010
0000
1000
0001
1000
0000
,
0002
0023
0230
2300
,
3001
0100
0001
0000
1000
0100
1000
0000
,
0001
0001
0000
0011
0000
0011
0000
0110
,
0000
0000
0110
0000
0000
0000
1100
0000
0000
0000
1000
0001
1000
0001
1000
0000
,
0001
0001
0100
0000
1000
1000
0100
0000
,
0002
0013
2000
3010
,
0001
0100
0010
1000
0100
1000
0100
0001
,
0100
0001
0100
1000
0001
0010
0100
1000
,
0010
0100
0001
0010
0001
0010
1000
0010
,
1000
0010
0001
0010
0001
1000
0100
0010
,
0001
0000
0100
0010
0100
0000
0001
0000
0100
0010
0100
0000
0001
0000
0000
0000
,
1000
0000
0100
0010
0100
0000
1000
0000
0100
0010
0100
0000
1000
0000
0000
0000
,
1001
0000
0000
0000
0000
0000
0000
0000
0001
1000
0001
1000
0001
0000
2002
0000
,
0000
0000
0000
0000
,
0000
0000
0000
0000
,
0000
0000
0000
0000
,
3003
0000
0000
0000
,
0000
0000
0000
0000
;
#NOTES:
     dance-double:
     :
     Easy:
     8:
     :
00000000
00000000
00000000
00000000
,
00000000
00000000
00000000
00000000
,
00000000
00000000
00000000
00000000
,
00000000
00000000
00000000
00000000
,
00000000
00000000
00000000
00000000
,
00000000
00000000
00000000
00000000
,
00010000
00001000
00010000
00000010
,
00001000
00000010
00000100
00000000
,
00000001
00000010
00000001
00000010
,
00000100
00001000
00000100
00000000
,
00010000
00010000
00010000
00000000
,
00001000
00001000
00001000
00000000
,
01000000
01000000
01000000
00000000
,
00010000
00010000
00010000
00000000
,
10000000
01000000
00100000
00000000
,
00010000
00100000
00001000
00000000
,
00011000
00000000
00010100
00000000
,
00011000
00000000
00000000
00000000
,
00001000
00010000
00001000
00010000
,
00001000
00000010
00001000
00000000
,
00000010
00000001
00000010
00000001
,
00001000
00000100
00001000
00000000
,
00000001
00000100
00001000
00000000
,
00001000
00010000
00100000
00000000
,
01000000
00010000
00100000
00000000
,
01000000
10000000
00100000
00000000
,
10000000
01000000
00010000
00000000
,
00010000
00001000
00000010
00000000
,
00000001
00001000
00000010
00000100
,
00000001
00000000
00000000
00000000
,
00000001
00000000
00000000
00001000
00000000
00000100
00000000
00010000
,
00000000
00001000
00000000
00010000
00000000
00000000
00000000
00000000
,
00001000
00000000
00000000
00100000
00000000
00010000
00000000
10000000
,
00000000
01000000
00000000
10000000
00000000
00000000
00000000
00000000
,
10000000
00000000
00000000
00100000
00000000
01000000
00000000
00010000
,
00000000
00100000
00000000
00001000
00000000
00000000
00000000
00000000
,
00022000
00000000
00000000
00000000
,
00033000
00000000
00000000
00000000
,
00010000
00000000
00001000
00000000
00010000
00000000
00000100
00001000
,
00000000
00000100
00000000
00000000
00001000
00000000
00001000
00000000
,
00000001
00000010
00000100
00001000
,
00000001
00000000
00000100
00000000
00000010
00000000
00010000
00001000
,
00000000
00000000
00000000
00010000
00000000
00000000
00000000
00011000
,
00000000
00000000
00001000
00001000
,
01000000
00000000
00010000
00000000
00100000
01000000
00000000
00200000
,
00000000
00000000
00000000
00300000
,
00010000
00000000
10000000
00000000
01000000
00000000
00100000
00010000
,
00000000
00100000
00000000
00000000
00001000
00000000
00001000
00000000
,
00010000
00000100
00001000
00000010
,
00000100
00000000
00000001
00000000
00000010
00000000
00000100
00001000
,
00000000
00000000
00000000
00001100
00000000
00000000
00000000
00000101
,
00000000
00000000
00000001
00000001
,
00000100
00000010
00001000
00000100
,
00010000
00010000
00001000
00001000
,
00100000
00010000
01000000
00010000
,
00100000
01000000
10000000
00000000
,
00010000
10000000
01000000
10000000
,
00010000
00100000
00001000
00000000
,
00010000
00000010
00010000
00000010
,
00001000
00000100
00001000
00000100
,
00000010
00000000
00000001
00000000
00001000
00000001
00000000
00001000
,
00000000
00000001
00000100
00001000
,
00010000
00000000
00001000
00010000
00000000
00000000
00000000
00000000
,
00001000
00000000
00001000
00000000
00000000
00000000
00000000
00010000
,
00000000
00010000
00000000
00000000
00000000
00000000
00000000
00000000
,
00001000
01000000
00001000
01000000
,
00010000
00000000
00100000
00000000
00010000
00000000
00100000
00010000
,
00000000
00000000
00000000
10000000
00000000
00000000
00000000
01000000
,
00000000
00000000
00000000
00100000
01000000
00000000
10000000
00000000
,
00010000
00000000
00000000
00010000
00000000
00000000
01000000
00000000
,
00000000
01000000
00000000
00000000
00001000
00000000
00000000
00000000
,
00010000
00000000
00000000
00010000
00000000
00000000
00000010
00000000
,
00000000
00000010
00000000
00000000
00000100
00000000
00000000
00000000
,
00000001
00000000
00000001
00000000
00000010
00000000
00000100
00000010
,
00000000
00000010
00000000
00000000
00000001
00000000
00000001
00000000
,
00000100
00000010
00001000
00000100
,
00010000
00000000
00001000
00000000
00100000
00000000
00010000
01000000
,
00000000
00000000
00010000
00100000
00000000
00000000
01000000
10000000
,
00000000
00000000
00010000
10000000
,
00100000
10000000
01000000
00100000
,
00010000
00001000
00000100
00000010
,
00000001
00000000
00000000
00001000
00000000
00001000
00000000
00000010
,
00000000
00000010
00000000
00010000
00000000
00000000
00000000
00000000
,
00001000
01000000
10000000
01000000
,
00020000
00000000
00230000
00000000
,
00301000
00010000
00000100
00001000
,
00000100
00000001
00000100
00000000
,
00001000
00000001
00000100
00000010
,
00001000
00000100
00010000
00000000
,
00001000
00000000
00000000
00001000
00000000
00000000
00001000
00000000
,
00100000
00000000
00000000
00100000
00000000
00000000
00100000
00000000
,
00010000
00000000
00000000
00000000
01000000
00100000
00000000
20020000
,
00000000
00000000
00000000
00000000
,
00000000
00000000
00000000
00000000
,
00000000
00000000
00000000
00000000
,
30030000
00000000
00000000
00000000
,
00000000
00000000
00000000
00000000
;
#NOTES:
     dance-double:
     :
     Medium:
     12:
     :
00000000
00000000
00000000
00000000
,
00000000
00000000
00000000
00000000
,
00000000
00000000
00000000
00000000
,
00000000
00000000
00000000
00000000
,
00000000
00000000
00000000
00000000
,
00000000
00000000
00000000
00000000
,
00001000
00000000
00010000
00000000
00100000
10000000
00100000
00000000
,
10000000
00000000
00010000
10000000
00000000
00000000
10010000
00000000
,
10000000
00000000
01000000
00000000
00100000
00001000
00100000
00000000
,
00001000
00000000
00010000
00001000
00000000
00001000
00010000
00000010
,
00000000
00000000
00001010
00000000
00000101
00000000
00000000
00001000
,
00000000
00000001
00000100
00000001
00000000
00000010
00000100
00001000
,
00000000
00000000
00010010
00000000
00011000
00000000
00000000
00010000
,
00000000
00001000
00010000
00001000
00000000
01000000
00010000
00100000
,
00000000
00000000
00110000
00000000
11000000
00000000
00000000
10000000
,
01000000
00000000
00100000
00010000
00000000
00000000
00000000
00100000
,
00000000
00001000
00010000
00001000
00000000
00000000
00000010
00000001
,
00000000
00001000
00001000
00001000
,
00000001
00000010
00000100
00000000
00001000
00000010
00000100
00000000
,
00001000
00010000
00001000
00010000
00000000
00000000
00011000
00000000
,
00001000
01000000
00010000
00000000
00100000
01000000
10000000
00000000
,
00100000
10000000
01000000
10000000
00000000
10000000
01000000
00100000
,
00000000
00000000
00101000
00000000
00011000
00000000
00000000
00010000
,
00000010
00001000
00000100
00000010
00000000
00000001
00001000
00000001
,
00000000
00000000
00000101
00000000
00000110
00000000
00000000
00000001
,
00000000
00000100
00001000
00000100
00000000
00001000
00010000
00001000
,
00000000
00000000
01001000
00000000
01010000
00000000
00000000
00010000
,
00100000
00000000
00010000
01000000
00000000
00000000
00000000
00010000
,
00000000
10000000
00000000
00100000
00000000
10000000
01000000
10000000
,
00010000
00100000
00010000
00100000
00001000
00010000
00001000
00000000
,
00010000
00000000
00000100
00000001
00000000
00000100
00000000
00010100
,
00000000
00010000
00000000
00022000
00000000
00000000
00033000
00000000
,
00001000
00000000
01000000
10000000
00000000
01000000
00000000
01001000
,
00000000
00001000
00000000
00022000
00000000
00000000
00033000
00000000
,
00010000
00001000
00000010
00000001
00000000
00001000
00000100
00000010
,
00000000
00000001
00000100
00001000
00000000
00010000
00001000
00022000
,
00000000
00000000
00000000
00033000
,
00010000
00001000
00100000
00010000
01000000
00100000
10000000
00000000
,
00010000
00000000
10010000
00000000
10000000
01000000
00100000
00001000
,
00000000
00011000
00000000
00000000
00010000
00001000
00010000
00000000
,
00001000
00000000
00000010
00000001
00000000
00000010
00000001
00000000
,
00001000
00000100
00000010
00000000
00000001
00000100
00001000
00010000
,
00000000
00010000
00001000
00010000
00000000
00010000
00001000
02000000
,
00000000
00000000
03000000
00100000
01000000
00000000
00010000
10000000
,
00010000
00000000
10000000
00100000
01000000
00010000
00000000
00110000
,
00000000
00100000
00001000
00000000
00010000
00001000
00010000
00000000
,
00001000
00000000
00000110
00000000
00000001
00000010
00000100
00001000
,
00000000
00001001
00000000
00000000
00000001
00001000
00000001
00000000
,
00001000
00000000
00000010
00010000
00000000
00000100
00010000
00000000
,
00001000
00000000
01001000
00000000
01000000
00000000
01010000
00010000
,
00000000
00100000
00010000
00100000
00000000
01000000
10000000
02000000
,
00000000
03000000
10000000
01000000
,
10000000
00100000
10000000
00000000
00010000
00100000
00010000
00000000
,
00100000
00001000
00100000
00001000
00010000
00001000
00010000
00000000
,
00001000
00010000
00000010
00001000
00000000
00000100
00000010
00000100
,
00000000
00000010
00000001
00000010
00000000
00000001
00001000
00000000
,
00000001
00000100
00000010
00000100
00000000
00000010
00010000
00000010
,
00000000
00010000
00001000
00010000
00000000
00001000
01000000
00000000
,
00010000
00100000
00010000
00100000
01000000
10000000
00010000
01000000
,
00100000
10000000
01000000
10000000
00010000
00100000
00001000
00010000
,
00000100
00001000
00000010
00000000
00000100
00000001
00000010
00000001
,
00000000
00001000
00000100
00000010
00000000
00000001
00000100
00000010
,
00000000
00010000
00001000
00010000
00000000
00000000
00000000
00000000
,
00001000
00000000
00011000
00000000
00001000
01000000
00010000
01000000
,
00000000
00010000
00000000
00000000
10000000
01000000
10000000
00000000
,
00010000
00100000
00010000
00100000
,
00001000
00000000
00010000
00000000
00001000
00000000
00010000
00001000
,
00000000
00000000
00000010
00000001
00000000
00000000
00001000
00000100
,
00000000
00000000
00000000
00000100
00010000
00000000
00001000
00010000
,
00001000
00000000
01000000
00010000
00000000
00100000
01000000
00200000
,
00000000
00000000
00000000
00300000
,
00010000
10000000
01000000
00010000
00000000
00001000
00000010
00000001
,
00000000
00000100
00000010
00000100
00001000
00010000
00001000
00000000
,
00010000
00000000
00011000
00000000
00001000
00010000
01000000
10000000
,
00000000
10010000
00000000
00000000
00010000
10000000
00010000
00000000
,
10000000
00100000
10000000
00100000
00010000
00001000
00010000
00001000
,
00000020
00000000
00000032
00000000
00002003
00000000
00003100
00000001
,
00000000
00000100
00010000
00001000
00000000
00010000
00001000
02000000
,
00000000
00000000
00100000
03100000
,
10000000
01000000
00100000
00001000
00010000
00000100
00000010
00000000
,
00000002
00000100
00002003
00000100
,
00003001
00000001
00000000
00000010
00000000
00000010
00000000
00001000
,
00000000
00001000
00000000
00020000
00000000
00001000
00031000
00000000
,
00010000
00001000
01000000
00010000
00100000
01000000
10000000
00100000
,
02000000
03010000
00200000
00301000
,
00010000
00000100
00001000
00000100
00000000
00000010
00000001
00000100
,
00000000
00000010
00001000
00000100
00000000
00000010
00000100
00000000
,
00010000
00001000
00100000
00010000
00000000
01000000
00010000
00100000
,
00000000
01000000
10000000
00100000
00000000
01000000
00010000
00000000
,
10000000
01000000
10000000
01000000
00000000
00100000
00010000
00000000
,
00001000
00000100
00001000
00000100
00000000
00000010
00000001
00000000
,
00001001
00000000
00000000
00000000
00000001
00000100
00001000
00020000
,
00000000
00000000
00000000
00000000
,
00000000
00000000
00000000
00000000
,
00000000
00000000
00000000
00000000
,
00030000
00000000
00000000
00000000
,
00000000
00000000
00000000
00000000
;
#NOTES:
     dance-double:
     :
     Hard:
     14:
     :
00000000
00000000
00000000
00000000
,
00000000
00000000
00000000
00000000
,
00000000
00000000
00000000
00000000
,
00000000
00000000
00000000
00000000
,
00000000
00000000
00000000
00000000
,
00000000
00000000
00000000
00000000
,
00010000
00000000
00000010
00000000
00000100
00000010
00000100
00000001
,
00000100
00000010
00001000
00000100
00000000
00000000
00011000
00000000
,
00001000
00000000
00010000
00000000
00100000
01000000
00100000
10000000
,
00100000
00010000
00100000
01000000
00000000
00100000
00010000
00001000
,
00000000
00000000
00001010
00000000
00000110
00000000
00000010
00000001
,
00000100
00001000
00000100
00000010
00000000
00001000
00000100
00010000
,
00000000
00000000
00011000
00000000
01100000
00000000
00010000
10000000
,
00100000
01000000
00010000
00100000
00000000
00010000
00100000
10000000
,
00000000
00000000
01100000
00000000
00011000
00000000
00001000
00010000
,
00001000
00000010
00000100
00010000
00000000
00000000
00000000
00001000
,
00000000
00000100
00000010
00000001
00000000
00000000
00000010
00001000
,
00000000
00000100
00010000
00001000
,
00010000
00001000
00010000
00100000
01000000
00100000
10000000
00010000
,
00100000
01000000
10000000
02000000
00000000
00100000
03100000
00000000
,
01000000
00100000
00010000
00100000
00001000
00010000
00000100
00001000
,
00000100
00000001
00000100
00001000
00000000
00000001
00000010
00000100
,
00000000
00001000
00000010
00000000
00001010
00000000
00000000
00000001
,
00000100
00001000
00010000
00100000
00000000
10000000
00100000
10000000
,
00000000
01000000
10000000
00000000
10010000
00000000
00000000
10000000
,
01000000
00010000
00001000
00000010
00000000
00000001
00000010
00000001
,
00000000
00001000
00000001
00000000
00001001
00000000
00000000
00000001
,
00000100
00000010
00000100
00000001
00000000
00000000
00000000
00001000
,
00000000
00001000
00000100
00010000
00000000
00010000
00001000
00000000
,
00010000
00001000
00100000
00010000
01000000
00100000
10000000
00000000
,
00010000
00000000
00000000
11000000
00000000
01100000
00000000
00101000
,
00000000
00001000
00000000
00022000
00000000
00000000
00033000
00000000
,
00010000
00000100
00000000
00001100
00000000
00000110
00000000
00000011
,
00000000
00000001
00000000
00001001
00000000
00000001
00001000
00000000
,
00000001
00000100
00001000
00000100
00000000
00000001
00000010
00001000
,
00000000
00010000
01000000
10000000
00000000
00010000
00100000
02000000
,
00000000
10000000
00100000
13000000
,
10000000
01000000
00100000
00010000
00001000
00000100
00000010
00000001
,
00001000
00000000
00000110
00000000
00000001
00000010
00000001
00000100
,
00000000
00000000
00000110
00000000
00000000
00000000
00000000
00000000
00000001
00000000
00001000
00000001
00001000
00000000
00000000
00000000
,
00000001
00000100
00000010
00001000
00000100
00000010
00000100
00010000
,
00001000
00100000
00001000
00010000
01000000
00100000
00010000
01000000
,
00000000
00100000
10000000
11000000
00000000
00100000
00010000
00110000
,
00000000
10000000
01000000
00010000
01000000
10000000
00010000
00000000
,
00100000
00000000
00010000
00000000
00100000
00000000
00001000
00000000
00010000
00001000
00010000
00000000
00000000
00000000
00011000
00000000
,
00000000
00001000
00010000
00001000
00010000
00001000
00010000
00000000
,
00001000
00000000
00000110
00000000
00000001
00001000
00000001
00000010
,
00000000
00000000
00000110
00000000
00000000
00000000
00000000
00000000
00001000
00000000
00000001
00001000
00000001
00000000
00000000
00000000
,
00001000
00000010
00001000
00000100
00010000
00001000
00100000
00010000
,
01000000
00100000
00010000
00100000
10000000
01000000
00100000
00110000
,
00000000
00000000
00010000
01000000
00010000
00000000
00100000
00000000
00000000
00000000
00001000
00010000
00001000
00000000
00011000
00000000
,
00000000
00010000
00001000
00000010
00000001
00001000
00000100
00000000
,
00000010
00000001
00000100
00000010
00001000
00000100
00010000
00001000
,
00100000
00010000
01000000
00100000
10000000
01000000
00100000
00000000
,
00001000
00020000
00000000
00100000
00000000
00100000
00000000
00000010
,
00000000
00000010
00000000
00031000
00000000
00001000
00010000
00000000
,
00010000
00002000
00000000
00000010
00000000
00000010
00000000
00100000
,
00000000
00100000
00000000
00013000
00000000
00010000
00001000
00000000
,
00010000
00001000
00000010
00000001
00001000
00000100
00000010
00000001
,
00000100
00000010
00000100
00001000
00010000
00100000
01000000
00100000
,
00010000
00001000
00010000
01000000
10000000
00010000
00100000
01000000
,
00000000
10000000
01000000
00100000
00000000
00010000
00001000
00000100
,
00000000
00000010
00000001
00000011
00000000
00000000
00000000
00000000
,
00001000
00000000
00001001
00000000
00000001
00000100
00000010
00000100
,
00000000
00000000
00000110
00000000
00000000
00000000
00000000
00000000
00001001
00000000
00001000
00000001
00001000
00000000
00000000
00000000
,
00000001
00000100
00000001
00000100
00000010
00001000
00000010
00001000
,
00000200
00000000
00020300
00000000
00032000
00000000
00013000
00100000
,
00000000
00010000
00001000
00010000
00000000
00001000
00000100
00001000
,
00000000
00010000
00001000
00010000
01000000
00000000
10000000
00000000
,
00100000
10000000
00000000
01000000
00010000
00000000
00001000
00000010
,
00000000
00000001
00000100
00000000
00000101
00000000
00001001
00000000
,
00000001
00000100
00000000
00001000
00010000
00000000
00100000
10000000
,
00000000
01000000
00100000
00000000
01100000
00000000
10010000
00000000
,
00010000
00100000
01000000
10000000
00100000
01000000
00100000
00010000
,
00001000
00010000
00000100
00001000
00000010
00001000
00000100
00000000
,
00000001
00000100
00001000
00000010
00000001
00000010
00001000
00000000
,
00000001
00000100
00001000
00000100
00001000
00010000
00001000
00010000
,
00000000
00100000
10000000
10100000
00000000
00010000
01000000
01010000
,
00000000
00010000
10000000
01000000
00100000
00001000
00010000
00000000
,
00002000
00003020
00000032
00000023
,
00001030
00010000
00001000
00000000
00000100
00001000
00000100
00000000
,
00000001
00000001
00000000
00000011
00000000
00000110
00000000
00010100
,
00000000
00011000
00000000
00101000
00000000
00100000
00010000
00000000
,
10000000
01000000
00100000
00010000
00001000
00000100
00000010
00000001
,
00002000
00000000
00003002
00000000
,
00000013
00000001
00001000
00000010
00001000
00000100
00010000
00001000
,
00010000
01000000
00100000
00010000
10000000
01000000
00010000
01000000
,
10000000
00100000
01000000
10000000
01000000
00010000
00100000
00001000
,
00010000
00001000
00000010
00000001
00001000
00000100
00000010
00000001
,
00000100
00000000
00000001
00001000
00000001
00000000
00000010
00000000
00000100
00000000
00010000
00000000
00001000
00000000
00100000
00000000
,
00001000
00000000
00010000
00001000
00010000
00000000
01000000
00000000
00100000
00000000
00010000
00000000
10000000
00000000
00100000
00000000
,
01000000
00000000
00000000
00000000
00000000
00000000
00000000
00000000
00010000
10000000
00010000
10000000
00010000
00000000
20020000
00000000
,
00000000
00000000
00000000
00000000
,
00000000
00000000
00000000
00000000
,
00000000
00000000
00000000
00000000
,
30030000
00000000
00000000
00000000
,
00000000
00000000
00000000
00000000
;
