
//----- song ID: ravi -----//
#TITLE:Rave in the Shell;
#ARTIST:yadosan;
#BANNER:Rave in the Shell.png;
#BACKGROUND:Rave in the Shell-bg.png;
#CDTITLE:./CDTitles/DDR A3.png;
#MUSIC:Rave in the Shell.ogg;
#SAMPLESTART:33.601;
#SAMPLELENGTH:15;
#DISPLAYBPM:75:300;
#BPMS:0=150,80=300,85=150,132=225.564,132.5=149.108,132.833=75.335,133=150,145=300,148=150,149=75,165=150,193=300,198=75,226=150,230=300,233=150,234=75;
#STOPS:80=0.2,81=0.2,82=0.2,145=0.2,146=0.2,147=0.2,193=0.2,194=0.2,195=0.2,230=0.2,231=0.2,232=0.2;
#STAGE:29;
#NOTES:
     dance-single:
     :
     Beginner:
     3:
     :
0000
0000
0000
0000
,
0000
0000
0000
0000
,
0000
0000
0000
0000
,
0000
0000
0000
0000
,
0000
0000
0000
0000
,
1000
0000
0000
0000
,
1000
0000
0000
0000
,
0001
0000
0000
0000
,
0001
0000
0000
0000
,
1000
0000
1000
0000
,
0001
0000
0001
0000
,
0010
0000
0010
0000
,
0200
0000
0300
0000
,
0010
0000
0010
0000
,
0001
0000
0001
0000
,
1000
0000
1000
0000
,
0100
0000
0100
0000
,
1000
1000
1000
0000
,
0001
0001
0001
0000
,
0100
0100
0100
0000
,
2002
0000
0000
0000
,
0000
3003
0000
0001
,
0000
0100
0100
0100
,
0000
0010
0000
0010
,
0000
1000
1000
1000
,
0000
1001
0000
0000
,
0000
1001
0000
0000
,
0000
0110
0000
0000
,
0000
0110
0000
0000
,
0000
1001
0000
1000
,
0000
0100
0100
0100
,
0000
0010
0000
0010
,
0000
0001
0001
0001
,
0000
1000
0000
1000
,
0000
0001
0000
0001
,
0000
0100
0000
0100
,
0000
0020
0000
0000
,
0030
0000
0000
0000
,
0000
0000
0000
0000
,
0000
1000
0000
1000
,
0000
0001
0000
0001
,
0000
0100
0000
0100
,
0000
0010
0000
0010
,
0000
0100
0000
0100
,
0000
0010
0000
0010
,
0000
1000
0000
1000
,
0000
0001
0000
0001
,
0000
1000
0000
1000
,
0000
2002
0000
0000
,
3003
0000
1001
0000
,
1000
0000
0001
0001
,
1000
1000
0010
0000
,
0010
0000
0100
0100
,
0010
0010
1000
0000
,
0001
0000
1000
1000
,
0010
0010
1000
0000
,
0001
0000
0001
0000
,
0001
0000
0100
0000
,
0000
0000
2002
0000
,
0000
0000
3003
0000
,
0000
0000
0000
0000
;
#NOTES:
     dance-single:
     :
     Easy:
     7:
     :
0000
0000
0000
0000
,
0000
0000
0000
0000
,
0000
0000
0000
0000
,
0000
0000
0000
0000
,
0000
0000
0000
0000
,
1000
0010
1000
1000
,
0001
0010
0001
0001
,
1000
0100
1000
1000
,
0001
0100
0001
0001
,
0010
0100
0010
0010
,
0001
1000
0001
0001
,
1000
0010
1000
1000
,
2002
0000
0000
3003
,
1000
0100
0010
0001
,
1000
0100
0010
0001
,
0001
0100
0010
1000
,
0001
0100
0010
1000
,
0001
0100
0001
0000
0010
0000
0100
0000
,
1000
0100
1000
0000
0010
0000
0100
0000
,
0001
1000
0001
0000
1000
0001
1000
0000
,
2002
0000
3003
0000
,
0000
1001
0001
0001
,
0001
0000
1000
0100
1000
0000
0100
0000
,
0100
1001
1000
1000
,
1000
0000
0001
0100
0001
0000
0100
0000
,
0110
0000
1000
0000
0001
0000
0010
0100
,
1000
0000
0001
0000
1000
0000
0010
0100
,
0001
0000
1000
0000
0001
0000
1000
0001
,
0100
0100
0100
0100
,
0110
1001
0001
0100
,
0010
0000
0100
0001
0010
0000
0100
0000
,
0010
1001
1000
0100
,
0010
0000
0100
1000
0010
0000
0100
0000
,
2002
0000
0000
3003
1000
0000
0000
0000
0001
0000
0000
0000
1000
0000
0000
0000
,
1000
0001
0100
0000
0010
0000
0100
0000
,
0100
0001
0010
0000
0100
0000
0010
0000
,
0010
0100
2000
0000
0000
0000
0000
0000
,
3000
2002
0000
0000
,
0000
0000
0000
0000
,
3003
0000
2000
3000
2000
3000
0002
0003
,
0002
0003
0200
0300
0200
0300
0020
0030
,
0020
0030
1000
0000
0100
0000
0010
0000
,
0001
0100
0010
1000
,
0001
0010
0100
1000
,
0010
0100
0001
0100
,
0010
0100
0010
0000
0010
0000
1000
0000
,
1000
0001
0001
0100
,
0100
0010
1000
0001
,
0010
0100
0100
0100
,
0000
0000
1001
0000
,
0010
0010
0100
0000
1001
0000
0100
0000
,
1001
0000
0010
0000
1001
1000
1000
0001
,
0001
0100
0100
0000
0110
0000
1001
0000
,
0110
0000
1001
0000
0110
1000
0100
0010
,
0001
1000
0001
0000
1100
0000
0101
0000
,
1100
0000
0101
0000
0110
1000
0001
0010
,
0100
1000
0001
0000
0110
0000
0100
0000
,
1001
0001
2002
0000
,
0000
3003
2000
3020
,
0230
0302
0003
0000
,
0000
0000
0000
0000
;
#NOTES:
     dance-single:
     :
     Medium:
     12:
     :
0000
0000
0000
0000
,
0000
0000
0000
0000
,
0000
0000
0000
0000
,
0000
0000
0000
0000
,
0000
0000
0000
0000
,
1000
1000
0100
0000
1000
1000
0010
0000
,
0100
0100
0010
0000
0100
0100
0001
0010
,
0001
0010
0010
0000
0001
0100
0100
0000
,
0010
0010
0100
0001
0010
0100
0100
0000
,
0010
0000
1100
0000
1000
0100
0010
0000
,
0010
0000
0101
0000
0001
0100
0010
0000
,
1000
0000
0110
0000
0001
0010
1000
0000
,
0220
0000
0000
0330
,
0010
0001
0010
0000
0100
1000
0100
0000
,
1000
0010
1000
0000
0001
0100
0001
0000
,
0001
0100
1000
0000
1000
0100
0001
0000
,
1000
0100
0001
0000
0001
0100
1000
1000
,
0001
1000
0001
1000
0010
1000
0010
1000
,
0001
0010
0001
0010
0100
1000
0100
1000
,
0001
1000
0001
1000
0010
0100
0010
0100
,
0110
1001
0110
0000
,
0000
0000
1001
0000
0001
0001
0010
0010
,
0100
0100
1000
0000
1000
0000
0001
0000
,
1000
0000
1001
0000
1000
1000
0010
0010
,
0100
0100
0001
0000
0001
0000
1000
0000
,
0001
1000
0001
0000
1000
0000
0010
0000
1000
0000
1000
0000
0100
0000
0010
0000
,
0001
0001
0010
0001
0100
0100
0010
0100
,
0010
0010
0100
0100
0010
1000
0100
0100
,
0010
0000
0001
0000
1000
0000
0000
1000
0100
0000
0000
0010
0001
0000
0000
0000
,
1000
0001
1000
0000
0100
0000
0100
0000
0100
0000
0100
0000
1000
0000
1000
0000
,
0010
0010
0100
0000
0100
0000
0010
0000
,
0100
0000
0110
0000
0001
0001
0010
0010
,
0100
0100
0010
0000
0010
0000
0100
0000
,
0220
0330
0001
0100
0001
0001
0010
0100
,
1000
1000
0100
1000
0010
0010
0100
0010
,
0100
0100
0010
0010
0100
0001
0010
0010
,
0100
1000
1100
0000
0101
0000
1001
0000
,
0110
2002
0000
0000
,
0000
0000
0000
0000
,
3003
0000
0000
1000
2000
0010
0000
0010
3020
0100
0000
0100
0230
0001
0000
0001
,
0302
0010
0000
0010
0023
0100
0000
0100
0230
1000
0000
1000
2300
0001
0000
3002
,
2000
0000
0000
3003
0011
0000
0000
0000
0101
0000
0000
0000
0011
0000
0000
0000
,
0101
1010
1100
1010
,
1100
0100
0110
0000
0011
0000
0110
0000
,
1100
1010
0110
0101
,
1000
0001
1000
0000
0001
0000
0001
0000
0010
0000
0010
0000
0100
0000
0100
0000
,
1000
1000
0010
0010
0100
0100
0001
0001
,
1000
1000
0010
1000
0100
0010
0001
1000
,
0010
0100
0110
0000
0101
0000
1100
0000
,
0110
0000
0000
0000
0000
0000
0000
0000
1001
0000
0001
0001
1000
1000
0100
0100
,
0010
0000
0010
0000
0100
1000
0001
0100
0110
0000
0010
0010
0100
0010
0010
0010
,
0100
0000
0001
0000
0001
0000
0001
0000
1000
0000
1000
0000
0001
1000
0001
1000
0100
0000
0000
0000
1000
0000
1000
0000
0001
0000
0001
0000
0010
0000
0010
0000
,
0100
0000
0100
0000
0010
0001
1000
0010
0110
0000
0100
0100
0010
0100
0100
0100
,
0010
0000
1000
0000
1000
0000
1000
0000
0001
0000
0001
0000
1000
0001
1000
0001
1000
0000
0000
0000
0011
0000
0000
0000
0101
0000
0000
0000
1100
0000
0000
0000
,
0001
1000
0001
0000
1000
0001
1000
0000
0001
1000
0001
0000
0100
0000
0010
0000
0110
0000
0000
0000
1000
0000
0100
0000
1100
0000
0000
0000
0001
0000
0100
0000
,
0101
0001
0010
0100
0110
0000
0100
0010
0100
0000
1100
0000
1010
0000
0011
0000
,
0010
0100
0010
0000
0100
0010
0100
0000
0010
0100
0010
0000
0100
0000
1000
0000
0001
0000
0000
0000
1000
0000
0000
0000
0010
0000
0000
0000
0100
0000
0000
0000
,
0001
0010
0100
1000
1010
0000
0101
0000
,
0011
0000
0000
0000
0000
0000
0000
0000
1001
0000
0000
0000
0000
0000
0000
0000
0001
0000
0010
0001
0000
0000
0010
0000
0100
0000
1000
0100
0000
0000
1000
0000
,
0100
0000
1000
0001
0000
0000
1000
0000
0010
0000
0100
0010
0000
0000
0100
0000
0000
0000
0000
0000
0000
0000
0000
0000
0000
0000
0000
0000
0000
0000
0000
0000
,
0000
0000
0000
0000
;
#NOTES:
     dance-single:
     :
     Hard:
     16:
     :
0000
0000
0000
0000
,
0000
0000
0000
0000
,
0000
0000
0000
0000
,
0000
0000
0000
0000
,
0000
0000
0000
0000
,
1000
0000
1000
0100
0000
0000
0010
0000
0001
0000
0001
0100
0000
0000
0010
0000
,
1000
0000
1000
0010
0000
0000
0100
0000
0001
0000
0001
0010
0000
0000
0100
0000
,
1000
0000
1000
0001
0000
0000
0100
0000
0001
0000
0001
1000
0000
0000
0010
0000
,
0100
0000
0100
0010
0000
0000
1000
0000
0001
0000
1000
0001
1000
0100
0010
0001
,
1000
0000
0001
1000
0000
0000
0010
0000
0100
0000
0100
0001
0000
0000
0010
0000
,
0100
0000
0100
1000
0000
0000
0010
0000
1000
0000
1000
0001
0000
0000
0100
0000
,
0001
0000
0001
1000
0000
0000
0010
0000
0100
0000
0100
0010
0000
0000
0110
0000
,
2002
0000
0000
0000
3003
0000
1100
0101
,
0001
0010
0001
0100
0001
0010
0001
0100
,
0010
1000
0100
1000
0010
1000
0100
1000
,
0010
1000
0010
0001
0010
1000
0010
0001
,
1000
0000
0100
0000
0001
0000
0100
0000
1000
0000
0100
0000
0001
1000
0001
0000
,
1000
0100
1000
0000
1000
0100
0010
0000
0001
0100
0001
0000
0001
0100
0010
0000
,
0010
0100
0010
0000
0010
1000
0100
0000
0010
0100
0010
0000
0010
0001
0100
0000
,
0001
0100
0010
1000
0100
0010
0001
0100
0010
1000
0100
0010
0001
0100
0010
1000
,
0001
1100
0101
0110
,
0000
0000
0000
0000
1001
0000
0000
0000
1000
0100
0010
0000
0010
0001
0100
0000
,
0100
0010
1000
0000
1020
0000
0130
0000
0201
0000
0310
0000
1020
0000
0130
0000
,
0201
0000
0310
0000
1001
0000
0000
0000
0001
0010
0100
0000
0100
1000
0010
0000
,
0010
0100
0001
0000
0201
0000
0310
0000
1020
0000
0130
0000
0001
0000
0001
0000
,
1000
0001
1000
0100
0010
0000
0010
0001
0010
0000
0011
0000
0010
0100
1000
0000
,
1000
0000
0010
0000
0100
0000
0001
0100
0001
0000
0101
0000
0100
0010
1000
0000
,
2000
0000
3010
0000
0200
0000
0301
0010
0001
0000
0011
0000
0010
0100
1000
0000
,
1000
0000
0100
0000
0010
0000
0100
0010
0100
0000
0100
0010
0100
0000
0100
0010
,
0001
0100
0010
0000
0110
0000
1001
0000
1000
0010
0100
0000
0100
0001
1000
0000
,
1000
0100
0010
0000
0021
0000
0130
0000
1200
0000
0310
0000
0012
0000
0103
0000
,
2010
0000
3100
0000
1001
0000
0000
0000
0001
0100
0010
0000
0010
1000
0001
0000
,
0001
0010
0100
0000
1200
0000
0310
0000
0021
0000
0130
0000
2100
0000
3010
0000
,
2002
0000
0000
0000
0000
0000
0000
0000
0000
0000
0000
0000
0000
3003
0000
0000
1001
0000
0000
0000
0000
0000
0000
0000
0001
0000
0000
0000
0100
0000
0000
0000
0010
0000
0000
0000
0000
0000
0000
0000
0110
0000
0000
0000
0000
0000
0000
0000
0010
0000
0000
0000
1000
0000
0000
0000
0100
0000
0000
0000
0000
0000
0000
0000
,
0100
0000
0010
0000
0001
0000
1000
0100
0010
0000
0110
0000
0010
0001
0100
0000
,
0100
0000
0010
1000
0001
0000
0001
1000
0100
0000
0110
0000
1000
0001
1000
0000
,
0001
0100
0010
0100
0010
0010
0100
0001
,
0010
0100
1000
0000
1001
0000
0000
0000
0000
0000
0000
0000
0000
0000
0000
0000
,
0000
0000
0000
0000
,
0000
0000
0000
0000
0000
0000
0001
0000
1000
0000
1000
0100
0000
0000
0010
0000
0001
0000
0001
0100
0000
0000
0010
0000
1000
0000
1000
0010
0000
0000
0100
0000
,
0001
0000
0001
0100
0000
0000
0110
0000
0010
0000
0010
1000
0000
0000
0100
0000
0010
0000
0010
0001
0000
0000
0010
0000
0100
0000
0100
1000
0000
0000
0010
0000
,
0100
0000
0100
0001
1000
0001
1000
0001
1000
0000
0000
0000
0100
0000
0000
0000
1000
0000
0000
0000
0100
0000
0000
0000
1000
0000
0000
0000
0100
0000
0000
0000
,
1000
0100
0010
0001
0010
0001
0010
0001
,
0010
0001
0010
0001
0100
0000
0001
0000
0100
0000
0001
0000
0100
0000
0001
0000
,
0100
0001
1000
0010
1000
0010
1000
0010
,
1000
0010
1000
0000
0001
0010
0100
0000
0100
0010
0001
0000
1000
0010
0100
0000
,
0100
0010
1000
0000
0001
0100
0010
0000
0010
0100
0001
0000
1000
0100
0010
0000
,
0010
0100
1000
0000
0001
0100
0010
1000
0100
0010
0001
1000
0010
0100
0001
0010
,
0100
1000
0001
1000
0010
0000
0100
0000
0010
0000
0010
0000
0100
0000
0000
0000
,
0110
0000
0000
0000
0000
0000
0000
0000
1001
0000
2100
3001
0102
1003
1020
0130
,
0110
0000
0000
0000
0101
0000
0000
0000
1100
0000
0000
0000
1000
0001
1000
0001
1000
0000
0000
0000
0001
0000
0001
0000
0010
0000
0100
0000
0100
0000
0100
0000
,
1000
0000
1000
0000
0001
0000
0001
0000
0100
0000
0100
0000
0001
1000
0001
1000
0001
0000
0000
0000
0012
0000
1003
0000
2010
0000
3001
0000
0201
0000
0310
0000
,
0110
0000
0101
0000
1100
0100
1000
0010
0110
0000
1000
1000
0100
0010
0010
0010
,
0001
0000
0001
0000
1000
0000
1000
0000
0010
0000
0010
0000
0100
0010
0100
0000
1001
0000
0000
0000
0011
0000
0001
0000
0101
0000
0100
0000
0110
0000
0010
0000
,
0010
1000
0001
0000
0001
1000
0010
0000
0100
0010
0100
0000
0010
0000
1000
0000
1001
0000
0000
0000
1000
0000
1000
0000
1100
0000
0000
0000
0001
0000
0001
0000
,
0101
0000
0100
0000
0010
0000
0010
0000
0110
0000
0000
0000
1000
0001
1000
0001
1000
0000
0000
0000
1100
0000
1000
0000
1010
0000
0010
0000
0110
0000
0100
0000
,
0100
0001
1000
0000
1000
0001
0100
0000
0010
0100
0010
0000
0100
0000
0001
0000
1001
0000
0000
0000
1000
0000
0000
0000
0010
0000
0000
0000
0100
0000
0000
0000
,
0001
0010
0100
1000
0001
1000
0001
0001
,
1000
0000
0000
0000
1000
0000
0000
0000
0100
0000
0010
0000
0001
0000
0000
0000
1001
0000
1000
0100
0000
0000
1100
0000
1000
0000
0001
0100
0000
0000
0101
0000
,
0100
0000
0010
0100
0000
0000
0110
0000
1000
0000
0001
1000
0000
0000
1001
0000
0000
0000
0000
0000
0000
0000
0000
0000
0000
0000
0000
0000
0000
0000
0000
0000
,
0000
0000
0000
0000
;
#NOTES:
     dance-double:
     :
     Easy:
     7:
     :
00000000
00000000
00000000
00000000
,
00000000
00000000
00000000
00000000
,
00000000
00000000
00000000
00000000
,
00000000
00000000
00000000
00000000
,
00000000
00000000
00000000
00000000
,
10000000
00100000
01000000
01000000
,
00010000
00100000
00001000
00001000
,
00010000
00000100
00000010
00000010
,
00000001
00000100
00000010
00000010
,
00000100
00001000
00010000
00010000
,
00001000
00010000
01000000
01000000
,
10000000
00100000
01000000
01000000
,
20020000
00000000
00000000
30030000
,
10000000
10000000
01000000
01000000
,
00010000
00010000
00001000
00001000
,
00000100
00000100
00000001
00000001
,
00000010
00000010
00001000
00001000
,
00010000
00001000
00010000
00000000
00001000
00000000
01000000
00000000
,
00010000
01000000
00010000
00000000
00100000
00000000
01000000
00000000
,
00010000
00001000
00010000
00000000
00001000
00010000
00001000
00000000
,
00022000
00000000
00033000
00000000
,
00000000
00011000
00001000
00000100
,
00000001
00000000
00000010
00000001
00000010
00000000
00000100
00000000
,
00001000
00011000
00010000
01000000
,
10000000
00000000
00100000
10000000
00100000
00000000
01000000
00000000
,
01100000
00000000
10000000
00000000
00010000
00000000
00100000
00100000
,
00100000
00000000
00001000
00000000
00010000
00000000
00000100
00000100
,
00000100
00000000
00001000
00000000
00000001
00000000
00000100
00000010
,
00000100
00001000
00010000
00001000
,
00010000
00010000
00011000
00000000
00010000
00000000
00100000
00000000
,
10000000
00000000
01000000
10000000
01000000
00000000
00100000
00000000
,
00010000
00011000
00001000
00000010
,
00000001
00000000
00000100
00000001
00000100
00000000
00000010
00000000
,
00000110
00000001
00001000
00000100
,
00000100
00010000
00001000
00000000
00100000
00000000
00010000
00000000
,
10000000
00100000
01000000
00000000
00010000
00000000
00100000
00000000
,
00001000
00010000
00022000
00000000
00000000
00000000
00000000
00000000
,
00000000
00033000
00000000
00000000
,
00000000
00000000
00000000
00000000
,
00000000
00000000
20000000
30000000
02000000
03000000
00200000
00300000
,
00020000
00030000
00002000
00003000
00000200
00000300
00000020
00000030
,
00000002
00000003
00000001
00000000
00000100
00000000
00000010
00000000
,
00001000
00010000
01000000
00100000
,
10000000
00010000
00100000
00001000
,
00010000
00000100
00000010
00000001
,
00000100
00000010
00000100
00000000
00000001
00000000
00000010
00000000
,
00001000
00010000
00100000
10000000
,
01000000
00010000
00001000
00010000
,
00000100
00000010
00000010
00000010
,
00000000
00000000
00000000
00000000
00001001
00000001
00000100
00001000
,
00010000
00001000
00010000
00000000
00001000
00000000
00000000
00000000
00011000
00000000
00010000
00000000
01000000
00000000
10000000
00000000
,
10010000
10000000
01000000
00100000
10010000
10000000
00100000
00010000
,
00001000
00010000
00001000
00000000
00010000
00000000
00000000
00000000
00011000
00000000
00001000
00000000
00000010
00000000
00000001
00000000
,
00001001
00000001
00000010
00000100
00001001
00000001
00000010
00001000
,
00010000
00001000
00010000
00000000
00001000
00000000
00010000
00000000
00011000
00000000
00100000
00000000
01100000
00000000
10000000
00000000
,
10010000
01000000
00011000
00001000
00011000
00001000
00000100
00000010
,
00000100
00001000
00010000
00001000
00011000
00000000
00000010
00000000
,
00000110
00000001
00000010
00000100
,
00000010
00000000
00000100
00000000
00001000
00001000
00000100
00000100
,
00010000
00010000
00001000
00001000
00000000
00000000
00000000
00000000
,
00000000
00000000
00000000
00000000
;
#NOTES:
     dance-double:
     :
     Medium:
     12:
     :
00000000
00000000
00000000
00000000
,
00000000
00000000
00000000
00000000
,
00000000
00000000
00000000
00000000
,
00000000
00000000
00000000
00000000
,
00000000
00000000
00000000
00000000
,
00000001
00000010
00000100
00000000
00001000
00001000
00000100
00000000
,
00010000
00001000
00100000
00000000
01000000
01000000
10000000
00100000
,
00010000
00001000
00001000
00000000
00010000
00001000
00000010
00000000
,
00000001
00000001
00000010
00000100
00001000
00000100
00000100
00000000
,
00010000
00000000
00011000
00000000
00010000
01000000
10000000
00000000
,
00100000
00000000
10100000
00000000
10000000
01000000
00010000
00000000
,
00001000
00000000
00011000
00000000
00001000
00000100
00000001
00000000
,
00002002
00000000
00000000
00003003
,
00000001
00000010
00000001
00000000
00000001
00000100
00001000
00000000
,
00001000
00010000
00001000
00000000
00001000
00010000
00100000
00000000
,
10000000
00100000
10000000
00000000
10000000
01000000
00010000
00000000
,
00010000
00001000
00010000
00000000
00010000
00001000
00000010
00000000
,
00000001
00000100
00000010
00001000
00000001
00000100
00000010
00001000
,
00000100
00010000
00001000
00100000
00001000
00010000
00100000
01000000
,
00010000
00100000
01000000
10000000
00010000
01000000
00100000
10000000
,
11000000
01100000
00110000
00000000
,
00000000
00000000
10010000
00000000
10000000
10000000
00100000
00100000
,
00010000
00010000
00001000
00000000
00001000
00000000
00010000
00000000
,
00001000
00000000
00011000
00000000
00010000
00010000
00001000
00001000
,
00000100
00000100
00000001
00000000
00000001
00000000
00001000
00000000
,
00000001
00001000
00000001
00000000
00001000
00000000
00000010
00000000
00000100
00000000
00000100
00000000
00000001
00000000
00000100
00000000
,
00001000
00001000
00010000
00001000
00100000
00100000
00010000
00100000
,
01000000
01000000
10000000
10000000
01000000
00010000
00001000
00001000
,
00010000
00000000
00001000
00000000
00000100
00000000
00000000
00000100
00000001
00000000
00000000
00000001
00000010
00000000
00000000
00000000
,
00000010
00000100
00000010
00000000
00000100
00000000
00000100
00000000
00000100
00000000
00000100
00000000
00001000
00000000
00001000
00000000
,
00000001
00000001
00000100
00000000
00000100
00000000
00001000
00000000
,
00010000
00000000
00011000
00000000
00010000
00010000
00100000
00100000
,
10000000
10000000
01000000
00000000
01000000
00000000
00100000
00000000
,
02200000
03300000
00010000
01000000
00100000
00100000
10000000
00100000
,
00010000
00010000
00001000
00010000
00000100
00000100
00001000
00000100
,
00000010
00000010
00000001
00000001
00000010
00001000
00010000
00010000
,
00001000
00010000
00011000
00000000
00110000
00000000
01100000
00000000
,
11000000
20020000
00000000
00000000
,
00000000
00000000
00000000
00000000
,
30030000
00000000
00000000
00010000
00020000
00100000
00000000
00100000
00230000
01000000
00000000
01000000
02300000
00010000
00000000
00010000
,
03020000
00001000
00000000
00001000
00032000
00000100
00000000
00003100
00000200
00000010
00000000
00000010
00000320
00001000
00000000
00002030
,
00000002
00000000
00000000
00003003
00000011
00000000
00000000
00000000
00000101
00000000
00000000
00000000
00000110
00000000
00000000
00000000
,
00001100
00011000
00110000
01100000
,
11000000
10100000
01100000
01010000
,
00011000
00001100
00000110
00000011
,
00000001
00000010
00000001
00000000
00000010
00000000
00000010
00000000
00000100
00000000
00000100
00000000
00001000
00000000
00001000
00000000
,
00000100
00000100
00010000
00010000
00001000
00001000
00100000
00100000
,
00010000
00010000
10000000
00100000
00010000
00100000
10000000
01000000
,
00010000
00001000
00011000
00000000
00001100
00000000
00000101
00000000
,
00000110
00000000
00000000
00000000
00000000
00000000
00000000
00000000
00001001
00000000
00000001
00000001
00000010
00000010
00000100
00000100
,
00002000
00000000
00003200
00000000
00010300
00001000
00100000
00010000
00110000
00000000
00010000
00010000
01000000
00100000
00100000
00100000
,
10000000
00000000
01000000
00000000
01000000
00000000
01000000
00000000
10000000
00000000
10000000
00000000
00010000
00100000
00010000
00100000
00010000
00000000
00000000
00000000
10000000
00000000
10000000
00000000
01000000
00000000
01000000
00000000
00100000
00000000
00100000
00000000
,
00020000
00000000
00230000
00000000
00301000
00010000
00000100
00001000
00001100
00000000
00001000
00001000
00000010
00000100
00000100
00000100
,
00000001
00000000
00000010
00000000
00000010
00000000
00000010
00000000
00000001
00000000
00000001
00000000
00001000
00000100
00001000
00000100
00001000
00000000
00000000
00000000
00000011
00000000
00000000
00000000
00000101
00000000
00000000
00000000
00001100
00000000
00000000
00000000
,
00000001
00000010
00000001
00000000
00000010
00000001
00000010
00000000
00000001
00000010
00000001
00000000
00000010
00000000
00000100
00000000
00000110
00000000
00000000
00000000
00001000
00000000
00000100
00000000
00001100
00000000
00000000
00000000
00010000
00000000
00001000
00000000
,
00011000
00001000
00100000
00010000
00110000
00000000
10000000
00100000
01000000
00000000
10100000
00000000
01100000
00000000
01010000
00000000
,
10000000
00100000
10000000
00000000
00100000
10000000
00100000
00000000
10000000
00100000
10000000
00000000
01000000
00000000
00100000
00000000
00010000
00000000
00000000
00000000
10000000
00000000
00000000
00000000
01000000
00000000
00000000
00000000
00100000
00000000
00000000
00000000
,
00001000
00010000
00001000
00000100
00000110
00000000
00001010
00000000
,
00000101
00000000
00000000
00000000
00000000
00000000
00000000
00000000
00001001
00000000
00000000
00000000
00000000
00000000
00000000
00000000
00000001
00000000
00000010
00000001
00000000
00000000
00000010
00000000
00000100
00000000
00001000
00000100
00000000
00000000
00001000
00000000
,
00000100
00000000
00010000
00001000
00000000
00000000
00010000
00000000
01000000
00000000
00100000
01000000
00000000
00000000
00100000
00000000
00000000
00000000
00000000
00000000
00000000
00000000
00000000
00000000
00000000
00000000
00000000
00000000
00000000
00000000
00000000
00000000
,
00000000
00000000
00000000
00000000
;
#NOTES:
     dance-double:
     :
     Hard:
     16:
     :
00000000
00000000
00000000
00000000
,
00000000
00000000
00000000
00000000
,
00000000
00000000
00000000
00000000
,
00000000
00000000
00000000
00000000
,
00000000
00000000
00000000
00000000
,
10000000
00000000
10000000
00100000
00000000
00000000
01000000
00000000
00010000
00000000
00010000
00100000
00000000
00000000
00001000
00000000
,
00010000
00000000
00010000
00000100
00000000
00000000
00000010
00000000
00000001
00000000
00000001
00000100
00000000
00000000
00000010
00000000
,
00001000
00000000
00001000
00000100
00000000
00000000
00010000
00000000
00001000
00000000
00001000
00100000
00000000
00000000
01000000
00000000
,
10000000
00000000
10000000
00010000
00000000
00000000
01000000
00000000
00100000
00000000
10000000
00100000
10000000
01000000
00100000
00001000
,
00010000
00000000
00001000
00010000
00000000
00000000
00001000
00000000
00000010
00000000
00000010
00000100
00000000
00000000
00001000
00000000
,
00000001
00000000
00000001
00000100
00000000
00000000
00000010
00000000
00001000
00000000
00001000
00000100
00000000
00000000
00010000
00000000
,
00001000
00000000
00001000
00100000
00000000
00000000
01000000
00000000
10000000
00000000
10000000
00010000
00000000
00000000
00110000
00000000
,
00022000
00000000
00000000
00000000
00033000
00000000
00001100
00000101
,
00000001
00000010
00000001
00000100
00000010
00001000
00000100
00000010
,
00000001
00000100
00001000
00010000
01000000
10000000
00100000
01000000
,
00010000
00100000
01000000
10000000
00100000
01000000
00010000
10000000
,
01000000
00000000
00010000
00000000
00001000
00000000
00000100
00000000
00000001
00000000
00000010
00000000
00000100
00000010
00000100
00000000
,
00001000
00000100
00001000
00000000
00000100
00000010
00000001
00000000
00000100
00000010
00000100
00000000
00000001
00000010
00000001
00000000
,
00001000
00000100
00001000
00000000
00000100
00010000
00000100
00000000
00010000
00001000
00010000
00000000
00001000
01000000
00001000
00000000
,
00100000
00010000
00100000
00010000
10000000
01000000
00100000
00010000
10000000
00100000
10000000
00100000
01000000
00010000
00100000
00001000
,
00010000
00110000
00011000
00001100
,
00000000
00000000
00000000
00000000
00001001
00000000
00000000
00000000
00000001
00000100
00000010
00000000
00000010
00001000
00000100
00000000
,
00000100
00001000
00000010
00000000
00002100
00000000
00003010
00000000
00020010
00000000
00031000
00000000
00012000
00000000
00103000
00000000
,
00120000
00000000
01030000
00000000
10010000
00000000
00000000
00000000
10000000
00100000
01000000
00000000
01000000
00010000
00100000
00000000
,
00100000
00010000
01000000
00000000
00120000
00000000
01030000
00000000
01002000
00000000
00013000
00000000
00021000
00000000
00030100
00000000
,
00000100
00001000
00000100
00001000
00000001
00000000
00001000
00000010
00001000
00000000
00001010
00000000
00000100
00010000
00001000
00000000
,
00010000
00000000
01000000
00000000
00100000
00000000
01000000
00100000
01000000
00000000
01100000
00000000
10000000
01000000
00100000
00000000
,
00020000
00000000
00130000
00000000
00002000
00000000
00013000
00001000
00010000
00000000
00001010
00000000
00000010
00000100
00000001
00000000
,
00000010
00000000
00000100
00000000
00001000
00000000
00000001
00001000
00000001
00000000
00000001
00001000
00000001
00000000
00000001
00001000
,
00000001
00000100
00001000
00000000
00010000
00000000
00010000
00000000
00001000
00010000
01000000
00000000
01000000
10000000
00010000
00000000
,
00010000
01000000
00100000
00000000
01200000
00000000
10300000
00000000
21000000
00000000
30010000
00000000
10020000
00000000
00130000
00000000
,
00012000
00000000
00103000
00000000
00011000
00000000
00000000
00000000
00010000
00001000
00000010
00000000
00000010
00000001
00001000
00000000
,
00001000
00000010
00000100
00000000
00000210
00000000
00000301
00000000
00000012
00000000
00001003
00000000
00002001
00000000
00003100
00000000
,
00022000
00000000
00000000
00033000
00011000
00000000
00001000
00010000
01000000
00000000
01100000
00000000
00100000
00010000
10000000
00000000
,
10000000
00000000
01000000
00000000
00100000
00000000
01000000
00010000
00001000
00000000
00011000
00000000
00001000
00010000
00000010
00000000
,
00000100
00000000
00000010
00000100
00000001
00000000
00000010
00000100
00001000
00000000
00001100
00000000
00000001
00000100
00001000
00000000
,
00010000
00001000
00100000
01000000
00010000
00001000
00100000
00001000
,
00010000
00001000
00010000
00000000
00011000
00000000
00000000
00000000
00000000
00000000
00000000
00000000
00000000
00000000
00000000
00000000
,
00000000
00000000
00000000
00000000
,
00000000
00000000
00000000
00000000
00000000
00000000
00000001
00000000
00000100
00000000
00000100
00001000
00000000
00000000
00010000
00000000
00001000
00000000
00001000
00100000
00000000
00000000
01000000
00000000
10000000
00000000
10000000
00100000
00000000
00000000
01000000
00000000
,
00100000
00000000
00100000
10000000
00000000
00000000
20100000
00000000
31000000
00000000
01000000
00010000
00000000
00000000
00001000
00000000
00010000
00000000
00010000
00000100
00000000
00000000
00000010
00000000
00000001
00000000
00000001
00000100
00000000
00000000
00000010
00000000
,
00000100
00000000
00000100
00000001
00001000
00000001
00001000
00000001
00000100
00000000
00000000
00000000
00000001
00000000
00000000
00000000
00000100
00000000
00000000
00000000
00000001
00000000
00000000
00000000
00001000
00000000
00000000
00000000
00000100
00000000
00000000
00000000
,
00001000
00000100
00010000
00001000
00010000
00001000
01000000
00010000
,
01000000
00010000
01000000
00010000
00100000
00000000
01000000
00000000
00100000
00000000
01000000
00000000
10000000
00000000
01000000
00000000
,
10000000
01000000
10000000
00100000
10000000
00100000
01000000
00100000
,
01000000
00100000
01000000
00000000
00010000
01000000
00100000
00000000
00100000
10000000
00010000
00000000
10000000
01000000
00100000
00000000
,
00100000
00010000
10000000
00000000
00010000
00100000
00001000
00000000
00001000
00010000
00000100
00000000
00001000
00000100
00010000
00000000
,
00010000
00001000
00100000
00000000
00010000
00100000
00001000
00010000
00000100
00000010
00000001
00000100
00000010
00001000
00000100
00010000
,
00001000
00010000
00000010
00000100
00000010
00000000
00000100
00000000
00000010
00000000
00000010
00000000
00001000
00000000
00000000
00000000
,
00001001
00000000
00000000
00000000
00000000
00000000
00000000
00000000
00000110
00000000
00000012
00000103
00000120
00001030
00001200
00010300
,
00011000
00000000
00000000
00000000
00110000
00000000
00000000
00000000
11000000
00000000
00000000
00000000
00100000
01000000
00100000
01000000
00100000
00000000
00000000
00000000
10000000
00000000
10000000
00000000
01000000
00000000
00010000
00000000
00010000
00000000
00010000
00000000
,
00001000
00000000
00001000
00000000
00010000
00000000
00010000
00000000
01000000
00000000
01000000
00000000
10000000
00010000
10000000
00010000
01000000
00000000
00000000
00000000
21000000
00000000
30100000
00000000
02100000
00000000
03010000
00000000
00210000
00000000
00301000
00000000
,
00011000
00000000
00001010
00000000
00000101
00000001
00000010
00000100
00000110
00000000
00000001
00000001
00000010
00001000
00001000
00001000
,
00010000
00000000
00010000
00000000
00001000
00000000
00001000
00000000
00000010
00000000
00000010
00000000
00000001
00001000
00000001
00000000
00000110
00000000
00000000
00000000
00000120
00000000
00001030
00000000
00012000
00000000
00103000
00000000
00210000
00000000
00301000
00000000
,
00011000
00000000
01010000
00000000
10100000
10000000
00010000
00100000
01100000
00000000
00010000
00010000
00110000
00000000
00001000
00001000
,
00011000
00000000
00010000
00000000
00010000
00000000
01000000
00000000
01100000
00000000
00000000
00000000
10000000
00010000
10000000
00010000
10000000
00000000
00000000
00000000
02100000
00000000
03010000
00000000
00021000
00000000
00030100
00000000
00001200
00000000
00010300
00000000
,
00011000
00000000
00001100
00000000
00000011
00000001
00000100
00000010
00000110
00000000
00000001
00000000
00000100
00000000
00001000
00000000
,
00010000
01000000
10000000
00100000
01000000
01000000
00010000
00010000
,
00100000
00000000
00000000
00000000
00001000
00000000
00000000
00000000
00010000
00000000
00001000
00000000
00010000
00000000
00000000
00000000
00011000
00000000
00001000
00100000
00000000
00000000
00110000
00000000
00010000
00000000
00100000
00010000
00000000
00000000
00011000
00000000
,
00001000
00000000
00010000
00001000
00000000
00000000
00001100
00000000
00000100
00000000
00010000
00001000
00000000
00000000
00011000
00000000
00000000
00000000
00000000
00000000
00000000
00000000
00000000
00000000
00000000
00000000
00000000
00000000
00000000
00000000
00000000
00000000
,
00000000
00000000
00000000
00000000
;
