
//----- song ID: raci -----//
#TITLE:Racing with Time (NAOKI's 999 remix);
#ARTIST:jun feat.Godis (Heather Twede);
#BANNER:Racing with Time (NAOKI's 999 remix).png;
#BACKGROUND:Racing with Time (NAOKI's 999 remix)-bg.png;
#CDTITLE:./CDTitles/DDR HOTTEST PARTY2.png;
#MUSIC:Racing with Time (NAOKI's 999 remix).ogg;
#SAMPLESTART:49.299;
#SAMPLELENGTH:15;
#BPMS:0=157;
#STAGE:2;
#NOTES:
     dance-single:
     :
     Beginner:
     2:
     :
0000
0000
0000
0000
,
0000
0000
0000
0000
,
0000
0000
0000
0000
,
0000
0000
0000
0000
,
0000
0000
0000
0000
,
0001
0000
0000
0000
,
0010
0000
0000
0000
,
0001
0000
0000
0000
,
0100
0000
0000
0000
,
0020
0000
0000
0000
,
0030
0000
0000
0000
,
0200
0000
0000
0000
,
0300
0000
0000
0000
,
1000
0000
0000
0000
,
0010
0000
0000
0000
,
1000
0000
0000
0000
,
0100
0000
0000
0000
,
1000
0000
1000
0000
,
0010
0000
0000
0000
,
1000
0000
0000
0000
,
0000
0000
0000
0000
,
0010
0000
0010
0000
,
0100
0000
0000
0000
,
0001
0000
0000
0000
,
0000
0000
0000
0000
,
0001
0000
0001
0000
,
0010
0000
0010
0000
,
0001
0000
0000
0000
,
0000
0000
0000
0000
,
0100
0000
0100
0000
,
1000
0000
1000
0000
,
0100
0000
0000
0000
,
0000
0000
0000
0000
,
1000
0000
0010
0000
,
1000
0000
0000
0000
,
0010
0000
0100
0000
,
0010
0000
0000
0000
,
0001
0000
0010
0000
,
0001
0000
0000
0000
,
0100
0000
0010
0000
,
0100
0000
0000
0000
,
0001
0000
0100
0000
,
1000
0000
0000
0000
,
0100
0000
0000
0000
,
0000
0000
0000
0000
,
1000
0000
0010
0000
,
0001
0000
0000
0000
,
0010
0000
0000
0000
,
0000
0000
0000
0000
,
0001
0000
0001
0000
,
0100
0000
0010
0000
,
0100
0000
0000
0000
,
1000
0000
0000
0000
,
1000
0000
1000
0000
,
0100
0000
0010
0000
,
0100
0000
0000
0000
,
0001
0000
0000
0000
,
1001
0000
1001
0000
,
0000
0000
0000
0000
;
#NOTES:
     dance-single:
     :
     Easy:
     7:
     :
0000
0000
0000
0000
,
0000
0000
0000
0000
,
0000
0000
0000
0000
,
0000
0000
0000
0000
,
0000
0000
0000
0000
,
1000
0100
0010
0000
,
0100
0010
0001
0000
,
0001
0100
0010
0000
,
0100
0010
1000
0000
,
2000
0000
0000
3000
,
0002
0000
0000
0003
,
0200
0000
0000
0000
,
0300
0000
0000
0000
,
0002
0000
0000
0003
,
2000
0000
0000
3000
,
0020
0000
0000
0000
,
0130
0100
0100
0000
,
0001
0100
0010
1000
,
0001
0100
0010
0000
,
1000
0100
0010
0001
,
1000
0100
0010
0000
,
0001
0010
0001
0010
,
0100
1000
0001
0000
,
1000
0010
1000
0010
,
0100
0001
1000
0000
,
0001
0010
0001
0001
,
0100
0010
1000
0000
,
1000
0010
1000
1000
,
0100
0010
0001
0000
,
0001
0100
0001
1000
,
0100
1000
0100
0000
,
1000
0010
1000
0001
,
0010
1001
0000
0000
,
0001
0010
0001
0000
1000
0000
0000
0000
,
0001
0010
0001
0000
1000
0000
0000
0000
,
0001
0100
0010
1000
,
0001
0100
0010
0000
,
1000
0010
1000
0000
0001
0000
0000
0000
,
1000
0010
1000
0000
0001
0000
0000
0000
,
1000
0100
0010
0001
,
0100
0010
1000
0000
,
0001
0100
0010
0000
1000
0000
0000
0000
,
1000
0100
0010
0000
0001
0000
0000
0000
,
0001
0100
0001
0010
,
0100
1000
0001
0000
,
1000
0100
1000
0000
0010
0000
0000
0000
,
1000
0001
1000
0000
0010
0000
0000
0000
,
1000
0100
1000
0001
,
1000
1001
0000
0000
,
0001
0100
0001
0010
,
0100
1000
0001
0000
,
1000
0100
1000
0010
,
0100
0001
1000
0000
,
0001
0010
0100
1000
,
0010
0100
0001
0000
,
1000
0010
0100
0001
,
0010
0100
1000
0000
,
0001
0000
1001
0000
,
0000
0000
0000
0000
;
#NOTES:
     dance-single:
     :
     Medium:
     11:
     :
0000
0000
0000
0000
,
0000
0000
0000
0000
,
0000
0000
0000
0000
,
0000
0000
0000
0000
,
0000
0000
0000
0000
,
1000
0000
0100
0000
1000
0010
0100
0000
,
0001
0000
0100
0000
0001
0010
0100
0000
,
1000
0010
1000
0000
0001
0100
0001
0000
,
1000
0001
1000
0001
1000
0001
1000
0000
,
0002
0000
0203
0000
,
0310
0000
0000
0000
1000
0000
0000
0000
0010
0000
0000
0100
0000
0000
0010
0000
,
0100
0000
0000
0101
0000
0000
0000
0000
,
0001
0010
0100
0000
0010
0100
1000
0000
,
0020
0000
2030
0000
,
3100
0000
0000
0000
0010
0000
0000
0000
0001
0000
0000
1000
0000
0000
0001
0000
,
1000
0000
0000
1010
0000
0010
0100
0001
,
0100
0000
0000
0001
0000
0000
1000
0000
0002
0000
0000
0000
0003
0000
0000
0000
,
0001
0100
0001
0100
0010
1000
0010
1000
,
0001
0010
0100
0010
0001
1000
0001
0000
,
1000
0100
1000
0100
0010
0001
0010
0001
,
1000
0010
0100
0010
1000
0001
1000
0000
,
0001
0100
1000
0000
0001
0010
1000
0000
,
1010
0000
0101
0000
0100
0001
1000
0000
,
1000
0100
0001
0000
1000
0010
0001
0000
,
0002
0023
0230
2300
,
3001
0010
0001
0000
0100
0001
0100
0000
,
0010
1000
0010
0000
1000
0100
1000
0000
,
0001
0100
1000
0000
1000
0100
0001
0000
,
0011
1000
1010
0010
,
1000
0100
1000
0000
0010
1000
0010
0000
,
0100
0001
0100
0000
0001
0010
0001
0000
,
1000
0010
0001
0000
0001
0010
1000
0000
,
1100
2002
0000
3003
,
1000
0010
0100
0001
1000
0000
1001
0000
,
0001
0010
0100
1000
0001
0000
1001
0000
,
1000
0000
0100
0100
0000
0010
0010
0000
,
0002
0000
0000
1000
2000
0000
3003
0000
,
1000
0100
0010
0100
1000
0000
0110
0000
,
0001
0100
0010
0100
0001
0000
0110
0000
,
1000
0000
0001
0001
0000
1000
1000
0000
,
0010
0000
0000
0100
0000
0000
0010
0000
2002
0000
0000
0000
3003
0000
0000
0000
,
0001
0100
0010
1000
0001
0000
1000
0100
,
0000
0010
0001
1000
0001
0000
1001
0000
,
0001
0000
0010
0010
0000
0100
0100
0000
,
2000
0000
0000
0001
0002
0000
3003
0000
,
0001
0010
0100
0010
0001
0000
0110
0000
,
1000
0010
0100
0010
1000
0000
0110
0000
,
0001
0100
0010
0000
1000
0100
0010
0000
,
0001
0000
0000
1001
0000
0000
0000
0000
0000
0000
0000
0000
0000
0000
0000
0000
,
1000
0100
1000
0001
1000
0100
1000
0000
,
0001
0010
0001
1000
0001
0010
0001
0000
,
1000
0010
1000
0010
0100
0001
0100
0000
,
0001
0010
0001
0010
0100
1000
0100
0000
,
1000
0010
0100
0010
0001
0010
0100
0000
,
0001
0100
0010
0100
1000
0100
0010
0000
,
1000
0100
0001
0100
0010
0100
1000
0000
,
0001
0000
0000
0010
0000
0000
0001
0000
0000
1000
0000
0000
0010
0000
0000
0000
,
0110
0000
0000
0001
1001
0000
0000
0000
,
0000
0000
0000
0000
;
#NOTES:
     dance-single:
     :
     Hard:
     15:
     :
0000
0000
0000
0000
,
0000
0000
0000
0000
,
0000
0000
0000
0000
,
0000
0000
0000
0000
,
0000
0000
0000
0000
,
1000
0000
0100
0000
0010
0001
0010
0000
0001
0000
0100
0000
0010
1000
0010
0000
,
0100
0000
0001
0000
0010
0100
0010
0000
0001
0000
1000
0000
0010
0100
0010
0000
,
1000
0000
0001
0000
1000
0010
1000
0000
0001
0000
0010
0000
0001
0100
0001
0000
,
1000
0000
0010
0000
0100
0000
0001
0000
1000
0100
1000
0100
0010
0001
0010
0001
,
0010
0000
0001
0100
0000
0000
0010
0000
1000
0000
0001
0010
0000
0000
0100
0000
,
2000
0000
0000
0000
3200
0000
0000
0000
0301
0000
0000
0100
0000
0000
1000
0000
,
1100
0000
0000
0022
0000
0000
0000
0000
,
0000
0000
0000
0000
0033
0010
0001
0010
,
0001
0000
1000
0010
0000
0000
0100
0000
0001
0000
1000
0100
0000
0000
0010
0000
,
0002
0000
0000
0000
0023
0000
0000
0000
1030
0000
0000
0010
0000
0000
0001
0000
,
0011
0000
1000
1001
0000
0001
0010
0001
,
1000
0000
0000
1000
0000
0000
1000
0000
1001
0000
0000
0000
0001
1000
0001
1000
,
0001
0000
1000
0010
0000
1000
0010
0000
0100
0000
0010
1000
0000
0010
1000
0000
,
0001
0000
1000
0010
1000
0000
0001
0010
0001
0000
0100
0010
0000
0100
0010
0000
,
1000
0000
0100
0000
0010
0000
0001
1000
0001
0000
0100
0000
0010
0000
1000
0001
,
1000
0000
0001
0000
0100
0000
0010
0100
0010
0000
1000
0000
0100
0000
0000
0000
,
1000
0000
0001
0100
0000
0001
0100
0000
0010
0000
0100
0001
0000
0100
0001
0000
,
1000
0000
0001
0100
0001
0000
1000
0100
1000
0000
0010
0100
0000
0010
0100
0000
,
0001
0000
0010
0000
0100
0000
1000
0001
1000
0000
0010
0000
0100
0000
0001
1000
,
0001
0000
1000
0000
0010
0000
0100
0010
0100
0000
0001
0000
0010
0001
0010
0100
,
1000
0000
0001
0000
1000
0100
0000
1000
0010
0000
1000
0100
0000
0010
0001
0000
,
1000
0000
0010
0000
0100
0001
0000
0100
0010
0000
0100
0001
0000
0010
0100
0000
,
1000
0000
0001
0000
0100
0010
0000
1000
0001
0000
0010
0100
0000
1000
0001
0000
,
0020
0000
0230
0000
2300
0000
3001
0100
,
0001
0000
1000
0000
0001
0010
0000
0001
0100
0000
0001
0010
0000
0100
1000
0000
,
0001
0000
0100
0000
0010
1000
0000
0010
0100
0000
0010
1000
0000
0100
0010
0000
,
0001
0000
1000
0000
0010
0100
0000
0001
1000
0000
0100
0010
0001
1000
0001
1000
,
0001
2002
0000
3003
,
1000
0010
0100
0001
1000
0000
0001
0000
0010
0000
0100
0010
0001
0000
0100
0000
,
0001
0010
0100
1000
0001
0000
1000
0000
0010
0000
0100
0010
1000
0000
0000
0000
,
1000
1000
0010
0100
0100
0001
0010
0100
,
0020
0000
0000
0001
0031
0000
1001
0000
,
0001
0100
0010
1000
0001
0000
1000
0000
0100
0000
0010
0100
1000
0000
0010
0000
,
1000
0100
0010
0001
1000
0000
0001
0000
0100
0000
0010
0100
0001
0000
0000
0000
,
0001
0001
0100
0010
0010
1000
0100
0010
,
0001
0000
0000
0001
0000
0000
0001
0000
1000
0000
0000
0000
1001
0000
0000
0000
,
0001
0010
0100
0010
0001
0000
1000
0010
0100
0010
1000
0000
0001
0100
0010
0000
,
0000
0000
1010
0000
0000
0000
1000
0010
1000
0000
0001
0000
1001
0000
0000
0000
,
0001
1000
0010
1000
0001
0000
0100
0000
0010
1000
0001
0100
0001
0000
0010
0000
,
0100
0000
1000
0010
1000
0000
0001
0010
0001
0000
0000
0000
1001
0000
0000
0000
,
1000
0100
1000
0100
0010
0000
0001
0000
0010
0100
1000
0001
0010
0000
0000
0000
,
0001
0100
0001
0100
0010
0000
1000
0000
0010
0100
0001
1000
0010
0000
0000
0000
,
1000
0000
0001
0010
0100
0000
1000
0010
0100
0000
0001
0100
0010
1000
0010
1000
,
0010
0000
0000
0110
0000
0000
0000
0000
0000
0000
0000
0000
0000
0000
0000
0000
,
1000
0000
0010
0100
0010
0000
1000
0000
0100
0010
0100
0000
1000
0100
0010
0001
,
1000
0000
0001
0100
0001
0000
0010
0000
0100
1000
0100
0000
0010
0001
1000
0000
,
0001
0000
0010
0100
0010
0000
0001
0000
0100
0010
0100
0000
0001
0100
0010
1000
,
0001
0000
1000
0100
1000
0000
0010
0000
0100
0001
0100
0000
0010
1000
0001
0000
,
1000
0000
0001
0010
0100
0000
1000
0000
0010
0100
0001
0000
0010
0001
0100
0001
,
0010
0000
0100
1000
0010
0000
0100
0000
0010
0100
0001
0000
1000
0100
1000
0010
,
1000
0000
0001
0010
0001
0000
0100
0000
0010
1000
0010
0000
0100
0001
0100
0000
,
0001
0000
0100
0001
1000
0000
0010
0000
1000
0001
0010
0000
0100
1000
0001
1000
,
0001
0000
0000
0000
0000
0000
1000
0001
1001
0000
0000
0000
0000
0000
0000
0000
,
0000
0000
0000
0000
;
#NOTES:
     dance-double:
     :
     Easy:
     7:
     :
00000000
00000000
00000000
00000000
,
00000000
00000000
00000000
00000000
,
00000000
00000000
00000000
00000000
,
00000000
00000000
00000000
00000000
,
00000000
00000000
00000000
00000000
,
10000000
00010000
10000000
00000000
,
10000000
01000000
00100000
00000000
,
00001000
00010000
00001000
00000000
,
00001000
00010000
00000100
00000000
,
00002000
00000000
00000000
00003000
,
00000002
00000000
00000000
00000003
,
00000020
00000000
00000000
00000000
,
00000030
00000000
00000000
00000000
,
00000001
00000100
00000010
00000000
,
00000010
00010000
00001000
00000000
,
00010000
00010000
00001000
00001000
,
00022000
00000000
00033000
00000000
,
00001000
00010000
00001000
00010000
,
00001000
00100000
00010000
00100000
,
00010000
10000000
01000000
00000000
,
10000000
00010000
01000000
00000000
,
00010000
01000000
00010000
01000000
,
00001000
00010000
00001000
00010000
,
00000100
00001000
00000001
00000000
,
00000100
00000001
00001000
00000000
,
00000110
00000000
00001001
00000000
,
00000001
00000010
00000100
00000000
,
00000100
00001000
00000100
00010000
,
00001000
00001000
00001000
00000000
,
00011000
00000000
00011000
00000000
,
00010000
00001000
01000000
00000000
,
00010000
01000000
00010000
00100000
,
01000000
01100000
00000000
00000000
,
10000000
01000000
01100000
00000000
,
00010000
01000000
01100000
00000000
,
10000000
01000000
00100000
00001000
,
00010000
00000100
00001000
00000000
,
00000001
00000100
00000110
00000000
,
00001000
00000100
00000110
00000000
,
00000001
00000100
00000010
00001000
,
00000010
00010000
00001000
00000000
,
00001000
00010000
00001000
00000000
00100000
00000000
00000000
00000000
,
00001000
00010000
00001000
00000000
01000000
00000000
00000000
00000000
,
00001000
00010000
00000100
00001000
,
00000010
00010000
00001000
00000000
,
00010000
00001000
00010000
00000000
00000010
00000000
00000000
00000000
,
00010000
00001000
00010000
00000000
00000100
00000000
00000000
00000000
,
00010000
00001000
01000000
00010000
,
00100000
01100000
00000000
00000000
,
10000000
00100000
10000000
01000000
,
00100000
00010000
01000000
00000000
,
00010000
00100000
00001000
00100000
,
00010000
00100000
00001000
00000000
,
00010000
00000010
00001000
00000100
,
00001000
00000010
00000100
00000000
,
00000001
00000010
00000100
00001000
,
00000100
00010000
00000100
00000000
00010000
00000000
00001000
00000000
,
00010000
00000000
00011000
00000000
,
00000000
00000000
00000000
00000000
;
#NOTES:
     dance-double:
     :
     Medium:
     11:
     :
00000000
00000000
00000000
00000000
,
00000000
00000000
00000000
00000000
,
00000000
00000000
00000000
00000000
,
00000000
00000000
00000000
00000000
,
00000000
00000000
00000000
00000000
,
10000000
00000000
00100000
00000000
01000000
00010000
01000000
00000000
,
00100000
00000000
10000000
00000000
01000000
00010000
00001000
00000000
,
00010000
00000000
00000100
00000000
00001000
00000100
00001000
00000000
,
00000001
00001000
00000001
00001000
00000001
00001000
00000001
00000000
,
00002000
00000000
00003020
00000000
,
00010030
00001000
00011000
00000000
,
00001000
00000000
01000000
00100000
01000000
00000000
00000000
00000000
,
00010000
01000000
00100000
00000000
01000000
00100000
10000000
00000000
,
00020000
00000000
00230000
00000000
,
00301000
00010000
00011000
00000000
,
00010000
00000000
00000100
00000010
00000100
00000000
00000000
00000000
,
00001000
00000000
00000000
00000001
00000000
00000000
00001000
00000000
00002002
00000000
00000000
00000000
00003003
00000000
00000000
00000000
,
00000001
00000010
00000001
00000010
00000100
00001000
00000100
00001000
,
00000010
00001000
00000100
00010000
00001000
00010000
00001000
00000000
,
00010000
00001000
00010000
00001000
00100000
00010000
00100000
00010000
,
01000000
00010000
00100000
01000000
10000000
00100000
01000000
00000000
,
00010000
01000000
00010000
01000000
00100000
10000000
00100000
10000000
,
01000000
00100000
00010000
00100000
00001000
00010000
00001000
00000000
,
00010000
00001000
00010000
00001000
00010000
00000010
00001000
00000010
,
00000100
00000001
00000010
00000000
00000100
00001000
00000010
00000000
,
00000100
00000000
00000001
00000000
00000100
00001000
00010000
00000000
,
00100000
00000000
10000000
00000000
00010000
01000000
00100000
00000000
,
10000000
00000000
00010000
00000000
10000000
01000000
00010000
00000000
,
00001000
00000010
00000001
00000000
00000011
00000000
00001001
00000000
,
00000001
00000000
00000100
00000000
00000001
00000010
00001000
00000000
,
00010000
00000000
01000000
00000000
10000000
00100000
01000000
00000000
,
10000000
01000000
00010000
00000000
10000000
01000000
00100000
00001000
,
00010000
00022000
00000000
00033000
,
00001000
00010000
00000010
00010000
00001000
00000010
00000001
00000000
,
00000001
00000100
00001000
00000100
00000001
00001000
00000100
00000000
,
00020000
00100000
00001000
00100000
,
00032000
00000010
00020000
00033000
,
00010000
00001000
00100000
00001000
00010000
00100000
10000000
00000000
,
10000000
01000000
00010000
01000000
10000000
00010000
01000000
00000000
,
00002000
00000010
00010000
00000010
,
00023000
00100000
00002000
00033000
,
00010000
00001000
00010000
00000000
00000010
00001000
00000100
00000010
,
00000000
00000011
00000000
00000001
00001000
00000000
00001001
00000000
,
00000001
00000100
00000010
00001000
00000100
00010000
00001000
01000000
,
00020000
00000000
00130000
01000000
20000000
00000000
30000000
00000000
,
10000000
00100000
00010000
00100000
10000000
00000000
01100000
00000000
,
10000000
01000000
00010000
00001000
00000010
00000000
00000110
00000000
,
00000001
00000010
00000100
00000000
00001000
00000010
00000100
00000000
,
00000001
00000000
00000000
00001001
00000000
00000000
00000000
00000000
00000000
00000000
00000000
00000000
00000000
00000000
00000000
00000000
,
00001000
00000100
00001000
00000100
00000010
00000001
00000010
00000000
,
00000001
00001000
00000001
00001000
00000010
00010000
00001000
00000000
,
00010000
00001000
00010000
00001000
01000000
00010000
01000000
00000000
,
00010000
00100000
00010000
00100000
01000000
10000000
00100000
00000000
,
10000000
01000000
00100000
00001000
00010000
00001000
00100000
00000000
,
01000000
10000000
00010000
00100000
00001000
00010000
00000100
00000000
,
00001000
00000010
00000100
00000001
00000100
00000010
00001000
00000000
,
00000001
00001000
00000100
00010000
00001000
00010000
00000010
00001000
,
00000100
00000000
00000000
00001000
00001001
00000000
00000000
00000000
,
00000000
00000000
00000000
00000000
;
#NOTES:
     dance-double:
     :
     Hard:
     15:
     :
00000000
00000000
00000000
00000000
,
00000000
00000000
00000000
00000000
,
00000000
00000000
00000000
00000000
,
00000000
00000000
00000000
00000000
,
00000000
00000000
00000000
00000000
,
10000000
01000000
00100000
00010000
10000000
01000000
00010000
01000000
,
10000000
00000000
00100000
01000000
00100000
00000000
01000000
00001000
01000000
00000000
00001000
00010000
00001000
00000000
00010000
00000000
,
00000100
00001000
00000001
00000010
00000100
00000001
00000100
00001000
,
00000001
00000100
00000001
00000000
00001000
00000010
00001000
00000000
00000100
00010000
00000100
00010000
00001000
00010000
00001000
00010000
,
00001000
00000000
00100000
00010000
00000000
00000000
00100000
00000000
01000000
00000000
10000000
00100000
00000000
00000000
10000000
00000000
,
01000000
00000000
00000000
00000000
01100000
00000000
00000000
00000000
00100000
00000000
00000000
00001000
00000000
00000000
00001000
00000000
,
00010000
00000000
00010000
00000100
00000220
00000000
00000000
00000000
,
00000000
00000000
00000000
00000000
00000330
00000010
00000001
00000010
,
00000001
00000000
00000100
00000010
00000000
00000000
00000100
00000000
00001000
00000000
00000100
00000010
00000000
00000000
00010000
00000000
,
00001000
00000000
00000000
00000000
00011000
00000000
00000000
00000000
00010000
00000000
00000000
01000000
00000000
00000000
10000000
00000000
,
10100000
00000000
00010000
10010000
00000000
00010000
00100000
00010000
,
01000000
00000000
00000000
00001000
00000000
00000000
00010000
00000000
00011000
00000000
00000000
00000000
00001000
00010000
00001000
00010000
,
00001000
00000000
00010000
00000000
00000010
00000000
00001000
00000100
00001000
00000000
00000010
00000000
00000100
00000000
00000001
00001000
,
00000001
00000000
00000010
00000000
00000100
00001000
00000100
00000000
00000010
00000001
00001000
00000000
00000010
00000100
00000010
00000000
,
00000100
00001000
00010000
00100000
01000000
00010000
00100000
01000000
,
00010000
00001000
00000010
00000100
00010000
00001000
00011000
00000000
,
00010000
00000000
00001000
00000000
01000000
00000000
00010000
00100000
00010000
00000000
01000000
00000000
00100000
00000000
10000000
00010000
,
10000000
00000000
01000000
00000000
00100000
00010000
00100000
00000000
01000000
10000000
00010000
00000000
01000000
00100000
01000000
00000000
,
00100000
00010000
00001000
00000100
00000010
00001000
00000100
00000010
,
00001000
00000000
00010000
00001000
00010000
00000000
00001000
01000000
00001000
00000000
01000000
00010000
01000000
00000000
00000000
00000000
,
00010000
00000000
10000000
00000000
00100000
01000000
00000000
00010000
01000000
00000000
00010000
00100000
00000000
00001000
00100000
00000000
,
00001000
00000000
00010000
00000000
00000100
00001000
00000000
00000100
00000010
00000000
00000001
00000100
00000000
00000001
00001000
00000000
,
00000001
00000000
00000100
00000000
00000010
00001000
00000000
00000100
00001000
00000000
00000100
00010000
00000000
00001000
00010000
00001000
,
00020000
00230000
20300000
30010000
,
10000000
00000000
01000000
00000000
00100000
00010000
00000000
00100000
10000000
00000000
00100000
00010000
00000000
00100000
00001000
00000000
,
00010000
00000000
00000100
00000000
00001000
00000100
00000000
00000001
00000100
00000000
00001000
00000100
00000000
00000010
00000001
00000000
,
00000100
00000000
00000010
00001000
00000010
00000000
00001000
00000100
00010000
00000000
00001000
00010000
00001000
00010000
00001000
00010000
,
00001000
00022000
00000000
00033000
,
00001000
00000000
01000000
00010000
01000000
00000000
00010000
00100000
00010000
00000000
10000000
01000000
10000000
01000000
00100000
00000000
,
00010000
00000000
00100000
00001000
00100000
00000000
00001000
00010000
00001000
00000000
00010000
00000100
00001000
00000100
00001000
00000000
,
00000002
00000000
00000103
00000200
00000000
00001300
00002000
00000000
,
00023000
00100000
00002000
00033000
,
00010000
00000000
00000010
00001000
00000010
00000000
00001000
00000100
00001000
00000000
00000001
00000010
00000001
00000010
00000100
00000000
,
00001000
00000000
00000100
00010000
00000100
00000000
00010000
00001000
00010000
00000000
00001000
00100000
00010000
00100000
00010000
00000000
,
10000000
00100000
00100000
00010000
00001000
00001000
00000100
00000001
,
00000010
00000000
00000000
00000100
00000000
00000000
00000010
00000000
00002002
00000000
00000000
00000000
00003003
00000000
00000000
00000000
,
00000001
00001000
00000100
00001000
00000001
00000000
00000100
00000010
00001000
00000010
00001000
00000000
00000100
00010000
00001000
00000000
,
00000000
00000000
00011000
00000000
00000000
00000000
00010000
00100000
10000000
00000000
00000000
00000000
10010000
00000000
00000000
00000000
,
00010000
00100000
01000000
10000000
00010000
00000000
01000000
00000000
00010000
00100000
00001000
00010000
00001000
00000000
00010000
00000000
,
00000100
00000000
00001000
00000010
00001000
00000000
00000001
00000010
00000001
00000000
00000000
00000000
00001001
00000000
00000000
00000000
,
00001000
00000100
00000010
00000000
00000001
00000100
00000001
00001000
00000001
00000000
00001000
00000000
00001010
00000000
00000000
00000000
,
00000010
00010000
00001000
00000000
00010000
00001000
01000000
00010000
01000000
00000000
00100000
00000000
10100000
00000000
00000000
00000000
,
10000000
00000000
00010000
00100000
01000000
00000000
10000000
01000000
00100000
00000000
00001000
00100000
00001000
00010000
00001000
00010000
,
00000100
00000000
00000000
00000110
00000000
00000000
00000000
00000000
00000000
00000000
00000000
00000000
00000000
00000000
00000000
00000000
,
00000001
00000000
00000100
00000010
00000100
00000000
00000001
00000000
00000010
00000100
00000010
00000000
00000001
00000000
00001000
00000100
,
00000010
00000000
00000001
00000000
00000100
00000000
00001000
00000000
00010000
00100000
00010000
00000000
00100000
10000000
00100000
00000000
,
10000000
00000000
00100000
01000000
00100000
00000000
10000000
00000000
01000000
00100000
01000000
00000000
10000000
00000000
00010000
00100000
,
01000000
00000000
10000000
00000000
00100000
00000000
00010000
00000000
00001000
00000100
00001000
00000000
00000100
00000001
00000100
00000000
,
00000001
00000000
00000010
00000100
00001000
00000000
00000010
00000000
00000100
00000010
00001000
00000000
00000001
00000010
00000100
00000000
,
00001000
00000000
00000010
00000000
00000100
00000000
00001000
00000000
00010000
00100000
01000000
00000000
00100000
10000000
00100000
00000000
,
10000000
00000000
01000000
00100000
00010000
00000000
01000000
00000000
00100000
01000000
00010000
00000000
10000000
01000000
00100000
00000000
,
00010000
00000000
01000000
00000000
00100000
00000000
00010000
00000000
00001000
00000100
00000010
00000000
00000100
00000001
00000100
00000001
,
00001000
00000000
00000000
00000000
00000000
00000000
00000001
00001000
00001001
00000000
00000000
00000000
00000000
00000000
00000000
00000000
,
00000000
00000000
00000000
00000000
;
