
//----- song ID: qwer -----//
#TITLE:Qwerty;
#ARTIST:BEMANI Sound Team "Yvya";
#BANNER:Qwerty.png;
#BACKGROUND:Qwerty-bg.png;
#CDTITLE:./CDTitles/DDR A3.png;
#MUSIC:Qwerty.ogg;
#SAMPLESTART:73.501;
#SAMPLELENGTH:15;
#BPMS:0=160;
#STAGE:14;
#NOTES:
     dance-single:
     :
     Beginner:
     2:
     :
0000
0000
0000
0000
,
0000
0000
0000
0000
,
0000
0000
0000
0000
,
0000
0000
0000
0000
,
0000
0000
0000
0000
,
1000
0000
0000
0000
,
0100
0000
0000
0000
,
1000
0000
0000
0000
,
0001
0000
0000
0000
,
0010
0000
0000
0000
,
0001
0000
0000
0000
,
0100
0000
0000
0000
,
0010
0000
0010
0000
,
2000
0000
0000
0000
,
0000
0000
0000
0000
,
0000
0000
0000
0000
,
0000
0000
0000
3000
,
0001
0000
0001
0000
,
0100
0000
0000
0000
,
0010
0000
0010
0000
,
0100
0000
0000
0000
,
0001
0000
0001
0000
,
1000
0000
0000
0000
,
0100
0000
0100
0000
,
0010
0000
0000
0000
,
0001
0000
0001
0000
,
1000
0000
1000
0000
,
0010
0000
0010
0000
,
0100
0000
0100
0000
,
0010
0000
0010
0000
,
1000
0000
1000
0000
,
0001
0000
0000
0000
,
1000
0000
0000
0000
,
0010
0000
1000
0000
,
0010
0000
1000
0000
,
0001
0000
0010
0000
,
0001
0000
0100
0000
,
0002
0000
0003
0000
,
1000
0000
0001
0000
,
1001
0000
0000
0000
,
1001
0000
0000
0000
,
1000
0000
0000
0000
,
0010
0000
0000
0000
,
0100
0000
0000
0000
,
0010
0000
0000
0000
,
1000
0000
0000
0000
,
0001
0000
0000
0000
,
0010
0000
0000
0000
,
0000
0001
0000
0000
,
0100
0000
0001
0000
,
1000
0000
0001
0000
,
1000
0000
0100
0000
,
0010
0000
0001
0000
,
1000
0000
0010
0000
,
1000
0000
0100
0000
,
0010
0000
0000
0000
,
0001
0000
1000
0000
,
0010
0000
0010
0000
,
1000
0000
0001
0000
,
0100
0000
0100
0000
,
0001
0000
1000
0000
,
0001
0000
0100
0000
,
0010
0000
1000
0000
,
0001
0000
0010
0000
,
0001
0000
1000
0000
,
0000
0000
0000
0000
,
0001
0000
0000
0000
,
0100
0000
0000
0000
,
0001
0000
0000
0000
,
1000
0000
0000
0000
,
0010
0000
0000
0000
,
1000
0000
0000
0000
,
0100
0000
0000
0000
,
0010
0000
0010
0000
,
0002
0000
0000
0000
,
0000
0000
0000
0000
,
0000
0000
0000
0000
,
0000
0000
0000
0000
,
0003
0000
0000
0000
,
0000
0000
0000
0000
;
#NOTES:
     dance-single:
     :
     Easy:
     6:
     :
0000
0000
0000
0000
,
0000
0000
0000
0000
,
0000
0000
0000
0000
,
0000
0000
0000
0000
,
0000
0000
0000
0000
,
0001
0000
0100
0000
,
0001
1000
1001
0000
,
1000
0000
0100
0000
,
1000
0001
1001
0000
,
1000
0000
0010
0000
,
0100
0010
0110
0000
,
0001
0000
0010
0000
,
0100
0010
0100
0010
,
0200
0000
0000
0000
,
0000
0000
0000
0000
,
0000
0000
0000
0000
,
0000
0000
0000
0300
,
0001
0010
0001
0000
,
1000
0100
0010
0100
,
1000
0010
1000
0000
,
1001
0000
0110
0000
,
0001
0100
0001
0000
,
1000
0010
0100
0010
,
1000
0001
0100
0000
,
0110
0000
1001
0000
,
1000
0000
0010
0000
,
0100
0010
0100
0001
,
0100
0000
0010
0000
,
1000
1000
0001
0001
,
1001
0000
0110
0000
,
0001
0010
0100
0010
,
0001
0000
0100
0000
,
0010
0000
1000
0000
,
0001
0100
0001
0100
,
0010
0010
1000
0010
,
1000
0100
1000
0100
,
0000
1000
1000
0001
,
0200
0000
0300
0000
,
0001
0100
0010
0000
,
0110
0000
0000
0110
0000
0000
0110
0000
,
0000
1001
0000
0000
1001
0000
0000
0000
,
1000
0100
0010
0000
,
0001
1000
1001
0000
,
1000
0010
0100
0000
,
0010
1000
1001
0000
,
1000
0100
0010
0000
,
0001
1000
1001
0000
,
1000
1000
0100
0100
,
0010
0002
0000
0000
,
0013
0000
0100
0000
,
1000
0010
0100
0001
,
0100
0000
0010
0000
,
1000
0001
0010
0100
,
1000
0000
0001
0000
,
0200
0000
0310
0000
,
2002
0000
0000
3003
,
0001
1000
0010
0100
,
0010
0010
1000
0001
,
1000
1000
0100
0010
,
0001
1000
0001
0010
,
0100
1000
0010
0100
,
0001
0000
1001
0000
,
1000
0000
1001
0000
,
0001
0100
0010
0100
,
0001
0010
0100
1000
,
0000
0000
0000
0000
,
0001
0000
0010
0000
,
0001
1000
1001
0000
,
1000
0000
0010
0000
,
1000
0001
1001
0000
,
1000
0000
0100
0000
,
0010
0100
0110
0000
,
0001
0000
0100
0000
,
0010
0100
0010
0100
,
0002
0000
0000
0000
,
0000
0000
0000
0000
,
0000
0000
0000
0000
,
0000
0000
0000
0000
,
0003
0000
0000
0000
,
0000
0000
0000
0000
;
#NOTES:
     dance-single:
     :
     Medium:
     10:
     :
0000
0000
0000
0000
,
0000
0000
0000
0000
,
0000
0000
0000
0000
,
0000
0000
0000
0000
,
0000
0000
0000
0000
,
1000
0000
0010
0100
0010
0000
1000
0000
,
0001
0100
0110
1001
,
0001
0000
0100
0010
0100
0000
0001
0000
,
1000
0001
1001
0110
,
1000
0000
0100
0010
0001
0000
1000
0000
,
0100
0010
0110
1001
,
0001
0000
0100
0010
1000
0000
0001
0000
,
1000
0000
0000
0000
0001
0000
0000
0000
0100
0000
0000
0100
0000
0000
0100
0000
,
0020
0000
0000
0000
,
0000
0000
0000
0000
,
0000
0000
0000
0000
,
0000
0000
0000
0030
,
1000
0100
1000
0001
,
0010
0000
0000
0000
0100
0000
0000
0000
0010
0000
0000
0010
0000
0000
0010
0000
,
0001
0100
0001
1000
,
0010
0000
0000
0000
0100
0000
0000
0000
0001
0000
0000
0001
0000
0000
0001
0000
,
0010
0100
0010
0001
,
0000
0000
1000
0000
0010
0000
0000
0000
0100
0000
0000
0100
0000
0000
0100
0000
,
0010
1010
0101
1000
,
0000
0000
0001
0000
0010
0000
0000
0000
0100
0000
0000
0100
0000
0000
0100
0000
,
1000
0010
0100
0001
,
0100
0100
0100
0000
0001
0000
1010
0000
,
0010
1000
0010
0100
,
0000
0001
1000
0000
0100
0100
0100
0000
,
1100
0101
2002
3003
,
0001
0001
0001
0000
1000
0000
0010
0000
,
0100
0000
0000
0010
0000
0000
1000
0000
0000
0001
0000
0000
0010
0000
0000
0100
,
0000
0000
1000
0000
0000
0001
0000
0000
1000
0000
0000
0000
1001
0000
0000
0000
,
0001
0000
0000
0010
0000
0000
0100
0000
1000
0000
0000
0001
0000
0000
1000
0000
,
0001
0000
0010
0000
0100
0000
1000
0000
0000
0001
0000
0000
0100
0000
0100
0000
,
0010
0000
0000
1000
0000
0000
0010
0000
0100
0000
0000
0010
0000
0000
1000
0000
,
0000
0001
1000
0000
1001
0000
0110
0000
,
0002
0000
0000
0000
0000
0000
0000
0000
1003
0000
0000
1000
0000
0000
1000
0000
,
0010
0000
0010
0000
0010
0000
0010
0000
0000
0100
0000
0000
0100
0000
0010
0000
,
1000
0000
0000
1000
0000
0000
0001
0000
0000
0001
0000
0000
0010
0000
0000
0010
,
0000
0000
0001
0000
0000
0001
0000
0000
0200
0000
0000
0000
0320
0000
0000
0000
,
1030
0000
0000
0000
0100
0000
0000
0000
1000
0000
0010
0000
0000
0010
0000
0000
,
0100
0000
0000
0000
0001
0000
0000
0010
0000
0000
0100
0000
0000
1000
0000
0000
,
0001
0000
0000
0000
0010
0000
0000
0000
0001
0000
0100
0000
0000
0100
0000
0000
,
0010
0000
0000
0000
0100
0000
0000
0001
0000
0000
1000
0000
0000
0100
0000
0000
,
0010
0000
0000
0000
0100
0000
0000
0000
1000
0000
0001
0000
0000
0100
0000
0000
,
0001
0000
0000
0000
1000
0000
0000
0010
0000
0000
0100
0000
0000
0001
0000
0000
,
2002
0000
0000
0000
3003
0000
0001
0000
0000
0010
0000
0000
0001
0000
1000
0000
,
0000
0010
0000
0000
2000
0000
0000
0000
3002
0000
0000
0000
0023
0000
0000
0000
,
0230
0000
0300
1000
1000
0000
0001
0200
,
0000
0320
0000
2030
0000
3002
0000
0013
,
0200
0000
0000
1300
0010
0100
0001
1000
,
0000
0001
0000
0010
0000
0100
0000
1000
,
0002
0000
0003
0010
0100
0000
0010
0001
,
0000
1000
0100
0010
0000
0001
0000
1000
,
0010
0000
0000
0100
0000
0000
0010
0000
0000
0000
0100
0000
0010
0000
1000
0000
,
0000
0001
1000
0000
0001
0000
0110
0000
,
1000
0100
0010
0100
,
1000
0001
0101
1010
,
1000
0100
1000
0000
0001
0100
0010
0000
,
1000
0100
0011
1100
,
1000
1000
0001
0010
,
0100
1000
0010
0100
,
0001
0100
0001
0000
1000
0010
1000
0000
,
0000
0001
0100
0010
1000
0100
0010
0001
,
0000
0000
0000
0000
,
0001
0100
0001
0000
0010
0000
0110
0000
,
1000
0100
0010
0001
1000
0000
0001
0000
,
0100
0010
1000
0000
1010
0000
1000
0000
,
0100
0010
0001
1000
0100
0000
1001
0000
,
0001
0010
0100
0000
0110
0000
0100
0000
,
0010
0001
0100
0010
1000
0000
0001
0000
,
1001
0000
1000
0000
0010
1000
0100
0000
,
0010
0000
0000
0000
0100
0000
0000
0000
0010
0000
0000
0010
0000
0000
0010
0000
,
0200
0000
0000
0000
,
0000
0000
0000
0000
,
0000
0000
0000
0000
,
0000
0000
0000
0000
,
0300
0000
0000
0000
,
0000
0000
0000
0000
;
#NOTES:
     dance-single:
     :
     Hard:
     14:
     :
0000
0000
0000
0000
,
0000
0000
0000
0000
,
0000
0000
0000
0000
,
0000
0000
0000
0000
,
0000
0000
0000
0000
,
0001
0000
0001
0000
0100
0001
0100
0000
0010
0000
1000
0010
0000
1000
0001
0000
,
1000
0000
1000
0000
0001
0000
0100
0000
0110
0000
0000
1010
0000
0000
1001
0000
,
1000
0000
1000
0000
0100
1000
0100
0000
0010
0000
0001
0010
0000
0001
1000
0000
,
0001
0000
0001
0000
1000
0000
0100
0000
0110
0000
0000
0011
0000
0000
1001
0000
,
0001
0000
0001
0000
0100
0010
0100
0000
0001
0000
1000
0010
0000
1000
0001
0000
,
0010
0000
0010
0000
0100
0000
1000
0000
1001
0000
0000
0101
0000
0000
0110
0000
,
1000
0000
1000
0000
0100
0010
0100
0000
1000
0000
0001
0010
0000
0001
1000
0000
,
0010
0000
0010
0000
0100
0000
0001
0000
1001
0000
0000
1100
0000
0000
0110
0000
,
2002
0000
0000
0000
,
0000
0000
0000
0000
,
0000
0000
0000
0000
,
0000
0000
0000
3003
,
1000
0000
0010
0000
0100
0001
0000
0100
0010
0000
1000
0010
0000
1000
0001
0000
,
0000
0000
0010
0000
0001
0010
0000
0100
0010
0000
0001
1000
0000
0100
1000
0000
,
0001
0000
0010
0000
0100
1000
0000
0100
0010
0000
0001
0010
0000
0001
1000
0000
,
0000
0000
0010
0000
1000
0010
0000
0100
0010
0000
1000
0001
0000
0100
0001
0000
,
1000
0000
0100
0000
0010
0001
0000
0100
0010
0000
1000
0100
0000
1000
0001
0000
,
0000
0000
0010
0000
0001
0100
0000
0010
0100
0000
0001
1000
0000
0100
1000
0000
,
0001
0000
0100
0000
0010
1000
0000
0100
0010
0000
0001
0100
0000
0001
1000
0000
,
0000
0000
0100
0000
1000
0010
0000
0100
0010
0000
1000
0001
0000
0010
0001
0000
,
1000
0000
0000
0100
0000
0000
0001
0000
1000
0000
0000
0010
0000
0000
0001
0000
,
0100
0000
0100
0000
0100
0000
0100
0000
0010
0100
0000
0000
0010
0000
1000
0000
,
0001
0000
0000
0100
0000
0000
1000
0000
0001
0000
0000
0010
0000
0000
1000
0000
,
0000
0000
0001
0000
0100
0010
0000
1000
0010
0000
0000
1000
0000
0000
0100
0000
,
1000
0000
0000
0000
0100
0000
0000
0000
1000
0000
0000
0000
0100
0000
0000
0000
0010
0000
0000
0000
0001
0000
0000
0000
0010
0000
0000
0000
0000
0000
0000
0000
0000
0001
0000
0000
0000
0000
0000
0000
0000
0000
1000
0000
0000
0000
0000
0000
,
0010
0000
0010
0000
0010
0000
0010
0000
0100
0010
0000
0000
1000
0000
0001
0000
,
0100
0000
0000
0001
0000
0000
0010
0000
0100
0010
0000
0000
0001
0000
0000
0100
,
0000
0000
0110
0000
0000
0110
0000
0000
1010
0000
0001
0000
0100
0000
0010
0000
,
1000
0000
0010
0100
0000
0000
0110
0000
1000
0000
0100
0010
0000
0000
0110
0000
,
0001
0000
0100
0000
0001
0000
1000
0000
0000
0001
0010
0000
0001
0000
0100
0000
,
0010
0000
1000
0010
0000
0000
1001
0000
0010
0000
0001
0010
0000
0000
1001
0000
,
0000
0000
1000
0000
0001
0100
0001
0100
0000
0000
0010
0100
0000
0000
0110
0000
,
0100
0010
0100
0010
0100
0010
0100
0010
0100
0000
0010
1000
0000
0000
0010
0000
,
1000
0000
1000
0000
1000
0000
1000
0001
0000
1000
0100
0000
0010
0000
0100
0000
,
0110
0000
0000
0011
0000
0000
0110
0000
0000
1100
0000
0000
0110
0000
0000
0011
,
0000
0000
1001
0000
0000
1010
0000
0000
0110
0000
1000
0000
0100
0000
0010
0000
,
0001
0000
0000
0000
1000
0000
0000
0000
0001
0010
0001
0000
0000
0010
0000
0000
,
0100
0000
1000
0010
1000
0000
0000
0010
0000
0000
0100
0000
0000
0001
0000
0000
,
1000
0000
0000
0000
0001
0000
0000
0000
1000
0010
1000
0000
0000
0010
0000
0000
,
0100
0000
0001
0010
0001
0000
0000
0010
0000
0000
0100
0000
0000
1000
0000
0000
,
0100
0000
0000
0000
0010
0000
0000
0000
0001
1000
0001
0000
0000
1000
0000
0000
,
0100
0000
0010
0100
0010
0000
0000
0100
0000
0000
1000
0000
0000
0001
0000
0000
,
0100
0000
0220
0000
0330
0000
0001
0000
0000
0100
0000
0000
0001
1000
0001
0000
,
0000
0000
0000
0010
0000
0000
0000
0000
0000
0000
0000
0000
0001
0000
0000
0000
0100
0000
0000
0000
0001
0000
0000
0000
0100
0000
0000
0000
0001
0000
0000
0000
1000
0000
0000
0000
0100
0000
0000
0000
0010
0000
0000
0000
0001
0000
0000
0000
,
0200
0000
0300
0001
0010
0100
1000
0020
,
0000
2030
0000
3200
0000
0320
0000
0031
,
0100
2000
0000
3100
0010
1000
0001
0100
,
0001
0010
0100
1000
0001
0010
1000
0010
,
0002
0000
0003
1000
0010
0100
0001
2000
,
0000
3001
0100
0020
0000
2030
3020
0230
,
0302
0000
0000
0023
0000
0000
0230
0000
0000
0000
1300
0000
0100
0000
0002
0000
,
0000
0103
0010
0001
1000
0010
0001
0010
,
2000
0000
3010
0100
0000
0000
0010
0000
1000
0001
0000
0100
0000
0000
0001
0000
,
0010
0100
1000
0001
0010
0100
1000
0010
,
0200
0000
0301
0010
0000
0000
0001
0000
1000
0000
0100
0000
0010
0000
0001
0000
,
1000
0100
0010
0100
1000
0100
0001
0100
,
0010
0001
0000
0010
0001
0000
0200
0000
0000
0000
0310
0000
0100
0000
0010
0000
,
1000
0001
0000
0100
0000
0000
0010
0000
0100
0000
0001
1000
0100
0000
1000
0000
,
0001
0000
0010
0001
1000
0000
0010
0000
0100
0000
0020
0000
0000
0000
1030
0000
,
0000
0001
0100
1000
0001
1000
0100
0001
,
0000
0000
0000
0000
,
1000
0000
1000
0000
0100
1000
0100
0000
0010
0000
0001
0010
0000
0001
1000
0000
,
0001
0000
0001
0000
1000
0000
0100
0000
0110
0000
0000
0011
0000
0000
1001
0000
,
0001
0000
0001
0000
0100
0001
0100
0000
0010
0000
1000
0010
0000
1000
0001
0000
,
1000
0000
1000
0000
0001
0000
0100
0000
0110
0000
0000
1010
0000
0000
1001
0000
,
1000
0000
1000
0000
0100
0010
0100
0000
1000
0000
0001
0010
0000
0001
1000
0000
,
0010
0000
0010
0000
0100
0000
0001
0000
1001
0000
0000
1100
0000
0000
0110
0000
,
0001
0000
0001
0000
0100
0010
0100
0000
0001
0000
1000
0010
0000
1000
0001
0000
,
0010
0000
0010
0000
0100
0000
1000
0000
1001
0000
0000
0101
0000
0000
0110
0000
,
2002
0000
0000
0000
,
0000
0000
0000
0000
,
0000
0000
0000
0000
,
0000
0000
0000
0000
,
3003
0000
0000
0000
,
0000
0000
0000
0000
;
#NOTES:
     dance-double:
     :
     Easy:
     6:
     :
00000000
00000000
00000000
00000000
,
00000000
00000000
00000000
00000000
,
00000000
00000000
00000000
00000000
,
00000000
00000000
00000000
00000000
,
00000000
00000000
00000000
00000000
,
00010000
00000000
00001000
00000000
,
00100000
00010000
00110000
00000000
,
10000000
00000000
00100000
00000000
,
01000000
00010000
01010000
00000000
,
00001000
00000000
00010000
00000000
,
00000100
00001000
00001100
00000000
,
00000001
00000000
00000010
00000000
,
00000100
00001000
00000100
00010000
,
00002000
00000000
00000000
00000000
,
00000000
00000000
00000000
00000000
,
00000000
00000000
00000000
00000000
,
00000000
00000000
00000000
00003000
,
00100000
00001000
00100000
00000000
,
00010000
10000000
01000000
00100000
,
00010000
01000000
00010000
00000000
,
00011000
00000000
00001010
00000000
,
00000001
00000100
00000001
00000000
,
00001000
00000010
00010000
00001000
,
00100000
00010000
01000000
00000000
,
01100000
00000000
10010000
00000000
,
10000000
00000000
01000000
00000000
,
00010000
00001000
00010000
00001000
,
00000100
00000000
00000001
00000000
,
00001000
00001000
00000100
00000100
,
00010100
00000000
00011000
00000000
,
00100000
00010000
01000000
00100000
,
10000000
00000000
00010000
00000000
,
00100000
00000000
00001000
00000000
,
00010000
00000010
00010000
00000010
,
00001000
00001000
00000100
00000010
,
00000001
00000100
00000001
00000100
,
00000000
00001000
00001000
00010000
,
00002000
00000000
00003000
00000000
,
01000000
00010000
00100000
00000000
,
11000000
00000000
00000000
01010000
00000000
00000000
00011000
00000000
,
00000000
00001100
00000000
00000000
00000101
00000000
00000000
00000000
,
00000001
00000010
00000100
00000000
,
00001000
00000000
00000100
00000000
00000000
00010000
00000000
00000000
,
00001000
01000000
00010000
00000000
,
10000000
00000000
00010000
00000000
00000000
01000000
00000000
00000000
,
00001000
00010000
00001000
00000000
,
00010000
00000000
00000010
00000000
00000000
00001000
00000000
00000000
,
00000001
00000000
00000000
00000100
00000000
00000000
00000010
00000000
,
00000000
00002000
00000000
00000000
,
00003100
00000000
00010000
00000000
,
00001000
01000000
00010000
00100000
,
01000000
00000000
10000000
00000000
,
00010000
10000000
01000000
00010000
,
00001000
00000000
00010000
00000000
,
00000020
00000000
00001030
00000000
,
00002002
00000000
00000000
00003003
,
00000001
00000100
00001000
00010000
,
00100000
00100000
10000000
00010000
,
01000000
01000000
00010000
00100000
,
00001000
00010000
00000100
00001000
,
00000001
00000010
00000100
00001000
,
00000100
00000000
00011000
00000000
,
00010000
00000000
01010000
00000000
,
10000000
00100000
10000000
00010000
,
00100000
00001000
00010000
00001000
,
00000000
00000000
00000000
00000000
,
00010000
00000000
00000100
00000000
,
00001000
00000100
00001100
00000000
,
00000001
00000100
00000000
00000000
,
00000010
00001000
00001010
00000000
,
00010000
00000000
00001000
00000000
,
01000000
00010000
01010000
00000000
,
10000000
00000000
00100000
00000000
,
01000000
00010000
01000000
00001000
,
00020000
00000000
00000000
00000000
,
00000000
00000000
00000000
00000000
,
00000000
00000000
00000000
00000000
,
00000000
00000000
00000000
00000000
,
00030000
00000000
00000000
00000000
,
00000000
00000000
00000000
00000000
;
#NOTES:
     dance-double:
     :
     Medium:
     10:
     :
00000000
00000000
00000000
00000000
,
00000000
00000000
00000000
00000000
,
00000000
00000000
00000000
00000000
,
00000000
00000000
00000000
00000000
,
00000000
00000000
00000000
00000000
,
00000001
00000000
00000100
00000010
00001000
00000000
00000100
00000000
,
00001000
00000100
00010100
00011000
,
00001000
00000000
00100000
00010000
10000000
00000000
00100000
00000000
,
10000000
00100000
01100000
01010000
,
00010000
00000000
00100000
00001000
00010000
00000000
00001000
00000000
,
00010000
00000010
00001010
00001100
,
00000001
00000000
00000010
00000001
00001000
00000000
00000010
00000000
,
00001000
00000000
00000000
00000000
00000100
00000000
00000000
00000000
00010000
00000000
00000000
00010000
00000000
00000000
00010000
00000000
,
00002000
00000000
00000000
00000000
,
00000000
00000000
00000000
00000000
,
00000000
00000000
00000000
00000000
,
00000000
00000000
00000000
00003000
,
00010000
00001000
00010000
01000000
,
10000000
00000000
00000000
00000000
00100000
00000000
00000000
00000000
01000000
00000000
00000000
01000000
00000000
00000000
01000000
00000000
,
00010000
00100000
00001000
00010000
,
00001000
00000000
00000000
00000000
00000100
00000000
00000000
00000000
00000010
00000000
00000000
00000010
00000000
00000000
00000010
00000000
,
00001000
00000001
00000010
00000100
,
00000000
00000000
00001000
00000000
00000100
00000000
00000000
00000000
00010000
00000000
00000000
00010000
00000000
00000000
00010000
00000000
,
00001000
00101000
01010000
10000000
,
00000000
00000000
00100000
00000000
01000000
00000000
00000000
00000000
00010000
00000000
00000000
00010000
00000000
00000000
00010000
00000000
,
00100000
00001000
00010000
00000010
,
00001000
00001000
00001000
00000000
00000100
00000000
00000101
00000000
,
00000001
00001000
00000100
00010000
,
00000000
00001000
00010000
00000000
00001000
00000000
00001000
00000000
,
00101000
10100000
02020000
03030000
,
10000000
10000000
10000000
00000000
01000000
00000000
00100000
00000000
,
00010000
00000000
00000000
00100000
00000000
00000000
00001000
00000000
00000000
00010000
00000000
00000000
00001000
00000000
00000000
00000100
,
00000000
00000000
00000010
00000000
00000000
00001000
00000000
00000000
00000010
00000000
00000000
00000000
00001001
00000000
00000000
00000000
,
00001000
00000000
00000000
00000010
00000000
00000000
00001000
00000000
00000100
00000000
00000000
00010000
00000000
00000000
00001000
00000000
,
00100000
00000000
00010000
00000000
00100000
00000000
01000000
00000000
00000000
00100000
00000000
00000000
00010000
00000000
10000000
00000000
,
00010000
00000000
00000000
10000000
00000000
00000000
00100000
00000000
01000000
00000000
00000000
00100000
00000000
00000000
10000000
00000000
,
00000000
00010000
10000000
00000000
00110000
00000000
00011000
00000000
,
00020000
00000000
00000000
00000000
00000000
00000000
00000000
00000000
00030010
00000000
00000000
00000010
00000000
00000000
00000010
00000000
,
00001000
00000000
00001000
00000000
00001000
00000000
00001000
00000000
00000000
00000100
00000000
00000000
00000100
00000000
00000010
00000000
,
00000001
00000000
00000000
00000001
00000000
00000000
00000100
00000000
00000000
00000100
00000000
00000000
00001000
00000000
00000000
00001000
,
00000000
00000000
00010000
00000000
00000000
00010000
00000000
00000000
02000000
00000000
00000000
00000000
23000000
00000000
00000000
00000000
,
30100000
00000000
00000000
00000000
01000000
00000000
00000000
00000000
00010000
00000000
00100000
00000000
00000000
00100000
00000000
00000000
,
00001000
00000000
00000000
00000000
00010000
00000000
00000000
00001000
00000000
00000000
00000100
00000000
00000000
00000001
00000000
00000000
,
00000100
00000000
00000000
00000000
00000010
00000000
00000000
00000000
00001000
00000000
00000100
00000000
00000000
00000100
00000000
00000000
,
00010000
00000000
00000000
00000000
00001000
00000000
00000000
00010000
00000000
00000000
00100000
00000000
00000000
10000000
00000000
00000000
,
00100000
00000000
00000000
00000000
01000000
00000000
00000000
00000000
00010000
00000000
10000000
00000000
00000000
00010000
00000000
00000000
,
00100000
00000000
00000000
00000000
00001000
00000000
00000000
00010000
00000000
00000000
00001000
00000000
00000000
00000100
00000000
00000000
,
00000220
00000000
00000000
00000000
00000330
00000000
00000100
00000000
00000000
00000001
00000000
00000000
00001000
00000000
00000010
00000000
,
00000000
00010000
00000000
00000000
00002000
00000000
00000000
00000000
00023000
00000000
00000000
00000000
02030000
00000000
00000000
00000000
,
23000000
00000000
30000000
00100000
00100000
00000000
01000000
00020000
,
00000000
20030000
00000000
30200000
00000000
00320000
00000000
00031000
,
00000200
00000000
00000000
00000301
00001000
00000100
00000010
00000001
,
00000000
00000100
00000000
00000010
00000000
00001000
00000000
00000100
,
00020000
00000000
00030000
00001000
01000000
00000000
00010000
10000000
,
00000000
01000000
00100000
00010000
00000000
10000000
00000000
00010000
,
10000000
00000000
00000000
00010000
00000000
00000000
10000000
00000000
00000000
00000000
01000000
00000000
00010000
00000000
00001000
00000000
,
00000000
00010000
00001000
00000000
00010000
00000100
00001000
00000000
,
00000010
00001000
00000100
00000010
,
00000001
00001000
00001100
00011000
,
00001000
00010000
00001000
00000000
00100000
00010000
10000000
00000000
,
01000000
00100000
00101000
00011000
,
00001000
00000100
00000001
00000010
,
00001000
00010000
01000000
10000000
,
00100000
10000000
00100000
00000000
01000000
00001000
00010000
00000000
,
00000000
00001000
00010000
01000000
00010000
00001000
00000100
00000010
,
00000000
00000000
00000000
00000000
,
00010000
00001000
00010000
00000000
00000100
00000000
00000110
00000000
,
00000010
00000001
00000100
00000010
00001000
00000000
00000100
00000000
,
00001000
00000100
00010000
00000000
00011000
00000000
00001000
00000000
,
00010000
00001000
00010000
01000000
00100000
00000000
00010000
00000000
,
10000000
00100000
01000000
00000000
01100000
00000000
10000000
00000000
,
01000000
00010000
00001000
00010000
00001000
00000000
00010000
00000000
,
00011000
00000000
00001000
00000000
00000100
00000010
00001000
00000000
,
00000100
00000000
00000000
00000000
00000010
00000000
00000000
00000000
00000001
00000000
00000000
00000001
00000000
00000000
00000001
00000000
,
00002000
00000000
00000000
00000000
,
00000000
00000000
00000000
00000000
,
00000000
00000000
00000000
00000000
,
00000000
00000000
00000000
00000000
,
00003000
00000000
00000000
00000000
,
00000000
00000000
00000000
00000000
;
#NOTES:
     dance-double:
     :
     Hard:
     14:
     :
00000000
00000000
00000000
00000000
,
00000000
00000000
00000000
00000000
,
00000000
00000000
00000000
00000000
,
00000000
00000000
00000000
00000000
,
00000000
00000000
00000000
00000000
,
10000000
00000000
10000000
00000000
00100000
00000000
00100000
00000000
01000000
00000000
00010000
00100000
00000000
00010000
01000000
00000000
,
00001000
00000000
00001000
00000000
00010000
00000000
00000100
00000000
00001100
00000000
00000000
00001001
00000000
00000000
00000011
00000000
,
00000001
00000000
00000001
00000000
00000100
00000000
00000100
00000000
00000010
00000000
00001000
00000100
00000000
00001000
00000010
00000000
,
00010000
00000000
00010000
00000000
00001000
00000000
01000000
00000000
01010000
00000000
00000000
10010000
00000000
00000000
10100000
00000000
,
10000000
00000000
10000000
00000000
01000000
00000000
01000000
00000000
00100000
00000000
00010000
01000000
00000000
00010000
00100000
00000000
,
00001000
00000000
00001000
00000000
00010000
00000000
00000010
00000000
00001010
00000000
00000000
00001001
00000000
00000000
00000101
00000000
,
00000001
00000000
00000001
00000000
00000010
00000000
00000010
00000000
00000100
00000000
00001000
00000010
00000000
00001000
00000100
00000000
,
00010000
00000000
00010000
00000000
00001000
00000000
01000000
00000000
01010000
00000000
00000000
10010000
00000000
00000000
10100000
00000000
,
02200000
00000000
00000000
00000000
,
00000000
00000000
00000000
00000000
,
00000000
00000000
00000000
00000000
,
00000000
00000000
00000000
03300000
,
10000000
00000000
00100000
00000000
01000000
00100000
00000000
01000000
00010000
00000000
00100000
00001000
00000000
00010000
00001000
00000000
,
00000000
00000000
00010000
00000000
00000100
00001000
00000000
00000001
00001000
00000000
00000100
00000010
00000000
00000001
00000010
00000000
,
00000001
00000000
00000010
00000000
00000100
00000010
00000000
00000100
00001000
00000000
00000100
00010000
00000000
00001000
00010000
00000000
,
00000000
00000000
00001000
00000000
00100000
00010000
00000000
10000000
00010000
00000000
01000000
00100000
00000000
10000000
00100000
00000000
,
10000000
00000000
00010000
00000000
00100000
01000000
00000000
00100000
00010000
00000000
01000000
00001000
00000000
00010000
00001000
00000000
,
00000000
00000000
00010000
00000000
00000010
00001000
00000000
00000001
00001000
00000000
00000010
00000100
00000000
00000001
00000100
00000000
,
00000001
00000000
00001000
00000000
00000010
00000100
00000000
00000010
00001000
00000000
00000100
00010000
00000000
00001000
00010000
00000000
,
00000000
00000000
00001000
00000000
01000000
00010000
00000000
10000000
00010000
00000000
00100000
01000000
00000000
10000000
01000000
00000000
,
10000000
00000000
00000000
00100000
00000000
00000000
00010000
00000000
00001000
00000000
00000000
00000010
00000000
00000000
00000001
00000000
,
00001000
00000000
00001000
00000000
00001000
00000000
00001000
00000000
00000010
00000100
00000000
00000000
00000010
00000000
00001000
00000000
,
00000001
00000000
00000000
00000100
00000000
00000000
00001000
00000000
00010000
00000000
00000000
01000000
00000000
00000000
10000000
00000000
,
00000000
00000000
00010000
00000000
01000000
00100000
00000000
01000000
00010000
00000000
00000000
00100000
00000000
00000000
00001000
00000000
,
00010000
00000000
00000000
00000000
00001000
00000000
00000000
00000000
00010000
00000000
00000000
00000000
00000100
00000000
00000000
00000000
00001000
00000000
00000000
00000000
00000100
00000000
00000000
00000000
00001000
00000000
00000000
00000000
00000000
00000000
00000000
00000000
00000000
00000001
00000000
00000000
00000000
00000000
00000000
00000000
00000000
00000000
00000100
00000000
00000000
00000000
00000000
00000000
,
00000010
00000000
00000010
00000000
00000010
00000000
00000010
00000000
00001000
00000001
00000000
00000000
00001000
00000000
00000100
00000000
,
00010000
00000000
00000000
00001000
00000000
00000000
00010000
00000000
00001000
00100000
00000000
00000000
00010000
00000000
00000000
10000000
,
00000000
00000000
10100000
00000000
00000000
01100000
00000000
00000000
10000000
00000000
00010000
00000000
00100000
00000000
00001000
00000000
,
00010000
00000000
00000100
00001000
00000000
00000000
00001100
00000000
00000001
00000000
00000010
00000001
00000000
00000000
00000011
00000000
,
00001000
00000000
00000100
00000000
00001000
00000000
00000010
00000000
00000000
00010000
00001000
00000000
00010000
00000000
00001000
00000000
,
00100000
00000000
00010000
01000000
00000000
00000000
01010000
00000000
00100000
00000000
10000000
01000000
00000000
00000000
11000000
00000000
,
00000000
00000000
00010000
00000000
00100000
00001000
00100000
00001000
00000000
00000000
00010000
00001000
00000000
00000000
00011000
00000000
,
00001000
00010000
00001000
00010000
00001000
00010000
00001000
00010000
00001000
00000000
00010000
00000100
00000000
00000000
00001000
00000000
,
00000001
00000000
00000001
00000000
00000001
00000000
00000001
00000100
00000000
00000001
00001000
00000000
00000100
00000000
00010000
00000000
,
00011000
00000000
00000000
00101000
00000000
00000000
00110000
00000000
00000000
10010000
00000000
00000000
01010000
00000000
00000000
00011000
,
00000000
00000000
00010100
00000000
00000000
00001100
00000000
00000000
00001010
00000000
00000001
00000000
00000100
00000000
00000010
00000000
,
00001000
00000000
00000000
00000000
00000100
00000000
00000000
00000000
00010000
00001000
00010000
00000000
00000000
00001000
00000000
00000000
,
00100000
00000000
00010000
00100000
00010000
00000000
00000000
10000000
00000000
00000000
00100000
00000000
00000000
01000000
00000000
00000000
,
00010000
00000000
00000000
00000000
00100000
00000000
00000000
00000000
00001000
00010000
00001000
00000000
00000000
00010000
00000000
00000000
,
00000100
00000000
00001000
00000100
00001000
00000000
00000000
00000001
00000000
00000000
00000010
00000000
00000000
00000100
00000000
00000000
,
00001000
00000000
00000000
00000000
00000010
00000000
00000000
00000000
00010000
00001000
00010000
00000000
00000000
00001000
00000000
00000000
,
01000000
00000000
00010000
01000000
00010000
00000000
00000000
10000000
00000000
00000000
01000000
00000000
00000000
00010000
00000000
00000000
,
00001000
00000000
00022000
00000000
00033000
00000000
00010000
00000000
00000000
00000100
00000000
00000000
00001000
00000001
00001000
00000000
,
00000000
00000000
00000000
00000001
00000000
00000000
00000000
00000000
00000000
00000000
00000000
00000000
00000100
00000000
00000000
00000000
00000001
00000000
00000000
00000000
00000100
00000000
00000000
00000000
00000010
00000000
00000000
00000000
00001000
00000000
00000000
00000000
00000010
00000000
00000000
00000000
00010000
00000000
00000000
00000000
00001000
00000000
00000000
00000000
00010000
00000000
00000000
00000000
,
00002000
00000000
00003000
00100000
00010000
01000000
00100000
20000000
,
00000000
32000000
00000000
03020000
00000000
00032000
00000000
00003010
,
00000001
00002000
00000000
00003010
00000100
00000001
00001000
00000001
,
00000100
00001000
00010000
00100000
10000000
00100000
00010000
00001000
,
00020000
00000000
00030000
00001000
00100000
00001000
00010000
00000200
,
00000000
00001300
00000010
00000200
00000000
00000302
00000023
00002030
,
00023000
00000000
00000000
00032000
00000000
00000000
00203000
00000000
00000000
00000000
00310000
00000000
10000000
00000000
02000000
00000000
,
00000000
13000000
00100000
01000000
00010000
10000000
01000000
00010000
,
00002000
00000000
00013000
00000100
00000000
00000000
00010000
00000000
00000100
00001000
00000000
00000001
00000000
00000000
00000100
00000000
,
00000010
00001000
00000100
00000010
00000001
00000100
00001000
00010000
,
00002000
00000000
00103000
00010000
00000000
00000000
00100000
00000000
00010000
00000000
10000000
00000000
00100000
00000000
01000000
00000000
,
00010000
10000000
00010000
00100000
00001000
00010000
00001000
00010000
,
00000010
00001000
00000000
00000010
00001000
00000000
00000002
00000000
00000000
00000000
00000103
00000000
00000010
00000000
00000100
00000000
,
00000001
00001000
00000000
00000100
00000000
00000000
00010000
00000000
00001000
00000000
00100000
00000000
00010000
00000000
10000000
00000000
,
01000000
00100000
01000000
10000000
00010000
00200000
00000000
00301000
,
00000000
00010000
00001000
00000100
00000001
00000100
00001000
00010000
,
00000000
00000000
00000000
00000000
,
00001000
00000000
00001000
00000000
00010000
00001000
00010000
00000000
00001000
00000000
00100000
00010000
00000000
00100000
01000000
00000000
,
10000000
00000000
10000000
00000000
00100000
00000000
01000000
00000000
01100000
00000000
00000000
01010000
00000000
00000000
00011000
00000000
,
00010000
00000000
00010000
00000000
00001000
00010000
00001000
00000000
00010000
00000000
00000100
00001000
00000000
00000100
00000010
00000000
,
00000001
00000000
00000001
00000000
00000100
00000000
00000010
00000000
00000110
00000000
00000000
00001010
00000000
00000000
00011000
00000000
,
00001000
00000000
00001000
00000000
00010000
00001000
00010000
00000000
00001000
00000000
01000000
00010000
00000000
00100000
01000000
00000000
,
10000000
00000000
10000000
00000000
00100000
00000000
01000000
00000000
01100000
00000000
00000000
01010000
00000000
00000000
00011000
00000000
,
00010000
00000000
00010000
00000000
00001000
00010000
00001000
00000000
00010000
00000000
00000010
00001000
00000000
00000100
00000010
00000000
,
00000001
00000000
00000001
00000000
00000100
00000000
00000010
00000000
00000110
00000000
00000000
00001010
00000000
00000000
00011000
00000000
,
00022000
00000000
00000000
00000000
,
00000000
00000000
00000000
00000000
,
00000000
00000000
00000000
00000000
,
00000000
00000000
00000000
00000000
,
00033000
00000000
00000000
00000000
,
00000000
00000000
00000000
00000000
;
