
//----- song ID: puru -----//
#TITLE:Pure Rude;
#ARTIST:kors k;
#BANNER:Pure Rude.png;
#BACKGROUND:Pure Rude-bg.png;
#CDTITLE:./CDTitles/jubeat Ave.png;
#MUSIC:Pure Rude.ogg;
#SAMPLESTART:100.115;
#SAMPLELENGTH:15;
#BPMS:0=175;
#STAGE:5;
#NOTES:
     dance-single:
     :
     Beginner:
     3:
     :
0000
0000
0000
0000
,
0000
0000
0000
0000
,
0000
0000
0000
0000
,
0000
0000
0000
0000
,
0000
0000
0000
0000
,
1000
0000
0000
0000
,
0001
0000
0000
0000
,
0100
0000
0000
0000
,
0100
0000
0000
0000
,
0010
0000
0000
0000
,
0010
0000
0000
0000
,
1000
0000
0000
0000
,
0001
0000
0000
0000
,
1000
0000
0010
0000
,
1000
0000
0010
0000
,
1000
0000
0001
0000
,
1000
0000
0000
0000
,
0100
0000
0010
0000
,
0100
0000
0000
0000
,
1000
0000
0001
0000
,
0100
0000
0010
0000
,
0100
0000
0001
0000
,
0100
0000
0000
0000
,
0001
0000
0010
0000
,
0100
0000
1000
0000
,
0001
0000
0001
0000
,
1000
0000
1000
0000
,
0001
0000
0001
0000
,
0100
0000
0010
0000
,
1000
0000
1000
0000
,
0001
0000
0001
0000
,
1000
0000
1000
0000
,
0100
0000
0010
0000
,
0001
0000
1000
0000
,
1001
0000
0000
0000
,
0010
0000
0100
0000
,
0110
0000
0000
0000
,
1000
0000
0001
0000
,
1001
0000
0000
0000
,
0100
0000
0010
0000
,
0100
0000
0010
0000
,
1000
0000
1000
0000
,
0001
0000
0001
0000
,
0100
0000
0100
0000
,
0010
0000
0100
0000
,
0001
0000
0001
0000
,
1000
0000
1000
0000
,
0010
0000
0100
0000
,
0001
0000
1000
0000
,
1001
0000
0000
0000
,
0001
0000
0100
0000
,
0001
0000
0100
0000
,
0010
0000
1000
0000
,
0010
0000
1000
0000
,
0001
0000
0010
0000
,
0100
0000
1000
0000
,
0100
0000
1000
0000
,
0001
0000
0000
0000
,
1000
0000
0000
0000
,
0100
0000
0000
0000
,
0010
0000
0000
0000
,
0100
0000
0000
0000
,
1000
0000
0000
0000
,
0001
0000
0000
0000
,
0100
0000
0000
0000
,
0010
0000
1000
0000
,
0010
0000
1000
0000
,
0001
0000
0010
0000
,
0001
0000
0010
0000
,
0100
0000
1000
0000
,
0100
0000
1000
0000
,
0001
0000
1000
0000
,
1001
0000
0000
0000
,
0001
0000
0001
0000
,
0100
0000
0100
0000
,
0010
0000
0010
0000
,
0100
0000
0001
0000
,
1000
0000
1000
0000
,
0100
0000
0100
0000
,
0010
0000
0010
0000
,
0100
0000
1000
0000
,
0001
0000
1000
0000
,
0001
0000
1000
0000
,
0010
0000
0100
0000
,
0010
0000
0100
0000
,
0001
0000
0100
0000
,
0001
0000
0100
0000
,
0010
0000
1000
0000
,
0010
0000
1000
0000
,
0001
0000
0000
0000
,
0000
0000
0000
0000
;
#NOTES:
     dance-single:
     :
     Easy:
     7:
     :
0000
0000
0000
0000
,
0000
0000
0000
0000
,
0000
0000
0000
0000
,
0000
0000
0000
0000
,
0000
0000
0000
0000
,
0001
0001
0000
0100
,
0010
0000
1000
0000
,
0100
0100
0000
1000
,
0001
0000
0100
0000
,
0001
0100
0010
0100
,
0001
1000
0100
1000
,
0001
0100
0001
0100
,
0010
1000
0001
1001
,
1000
0100
1000
0100
,
0010
0001
0010
0001
,
1000
0000
0010
0000
1000
0010
1000
0000
,
0001
0000
0000
0000
,
1000
0100
1000
1000
,
0001
0010
0001
0001
,
0100
0100
0010
0100
,
0001
0010
0100
0110
,
0001
0010
0001
0001
,
1000
0100
1000
1000
,
0001
0001
1000
0001
,
0100
0001
1000
1001
,
0001
0100
0001
0100
,
0001
0010
0001
0010
,
0100
1000
0001
0100
,
0010
1000
0001
0010
,
0100
0010
0100
0010
,
0001
1000
0001
1000
,
0100
0010
0001
0100
,
0010
1000
0100
0010
,
0001
0001
1000
1000
,
0010
0100
0110
0110
,
1000
1000
0001
0001
,
0100
0010
0110
0110
,
0100
0100
0010
0010
,
1000
0001
1001
1001
,
1000
0100
0010
0001
,
0011
0101
1100
1001
,
1000
0010
1000
0010
,
0100
0000
0010
0000
0100
0010
0100
0000
,
0001
0010
0001
0010
,
0100
0000
1000
0000
0001
0100
0001
0000
,
1000
0100
1000
0100
,
0010
0000
0001
0000
1000
0100
1000
0000
,
0001
0010
0001
0010
,
0001
1000
0010
0100
,
0220
0000
0000
0330
,
0001
0001
1000
1000
,
0001
0010
0100
1000
,
0010
0000
0010
0000
0100
0010
0100
0000
,
0001
1000
0001
0010
,
0100
0100
1000
1000
,
0010
0100
0001
0100
,
0010
0000
1000
0000
0010
0100
0010
0000
,
1000
0001
0010
0110
,
0001
1000
0010
0110
,
0001
0100
0001
0100
,
0010
1000
0001
1000
,
0001
1000
0100
0110
,
1000
0001
0100
0110
,
1000
0100
1000
0100
,
0010
0001
0100
0001
,
1000
0100
1000
0100
,
0010
0001
0010
0001
,
1000
0010
1000
0010
,
0100
0001
0100
0001
,
1000
0100
1000
0000
0001
0100
0001
0000
,
0010
0100
0010
0000
0100
0010
0100
0000
,
1000
0100
1000
0000
0001
0100
0001
0000
,
1001
0000
0000
0000
,
1000
0100
0010
0010
,
0001
0100
0010
0010
,
1000
1000
0001
0001
,
0010
0010
0001
1001
,
0001
0010
0100
0100
,
1000
0010
0100
0100
,
0001
0001
1000
1000
,
0100
0100
1000
1001
,
1000
0000
0010
0000
1000
0100
1000
0000
,
0001
0000
0100
0000
0001
0010
0001
0000
,
1000
1000
0001
0001
,
1000
0010
0100
0110
,
0001
0000
0001
0000
0001
0010
0001
0000
,
1000
0000
1000
0000
1000
0010
1000
0000
,
0010
0100
0010
0000
0100
0010
0100
0000
,
0001
0010
0100
1000
,
1001
0000
0000
0000
,
0000
0000
0000
0000
;
#NOTES:
     dance-single:
     :
     Medium:
     13:
     :
0000
0000
0000
0000
,
0000
0000
0000
0000
,
0000
0000
0000
0000
,
0000
0000
0000
0000
,
0000
0000
0000
0000
,
0001
0000
1000
0010
0000
1000
0000
0001
,
0100
0000
0000
0010
1000
0000
0001
0000
,
1000
0000
0001
0000
0000
0010
0000
0100
,
0000
1000
0000
1000
0001
0000
0010
0000
,
0001
0000
1001
0000
1000
0010
1000
0000
,
0010
0000
0110
0000
0100
0001
0100
0000
,
0001
0000
0010
0000
0001
0010
0001
0010
,
0100
0000
1000
0001
1000
0000
0110
0000
,
1000
0100
1000
0000
0001
0010
0001
0000
,
1000
0010
1000
0000
0001
0010
0001
0000
,
0100
0010
0100
0010
1000
0001
1000
0001
,
1000
0000
0000
0000
,
1001
0000
0001
0100
0001
0100
0010
0000
,
1010
0000
1000
0100
1000
0100
0010
0000
,
0011
0000
0101
0000
0001
1000
0100
0000
,
1000
0010
1000
0010
0100
0000
0110
0000
,
1001
0000
1000
0100
1000
0100
0010
0000
,
0011
0000
0001
0100
0001
0100
0010
0000
,
1010
0000
1100
0000
1000
0001
0100
0000
,
0001
0010
0001
0010
0100
0000
1001
0000
,
1000
0010
1000
0010
0100
0001
0100
0000
,
0001
0010
0001
0010
0100
1000
0100
0000
,
1000
0010
0100
0001
1000
0010
0100
0001
,
1000
0100
0010
0001
1000
0100
0010
0000
,
0001
0100
0001
0100
0010
1000
0010
0000
,
1000
0100
1000
0100
0010
0001
0010
0000
,
0001
0100
0010
1000
0001
0100
0010
1000
,
0001
0010
0100
1000
0001
0100
1000
0000
,
0100
0010
0010
0100
0001
1000
1000
0001
,
1000
0010
1000
0010
0100
0100
0100
0000
,
0001
0010
0010
0001
1000
0010
0010
1000
,
0001
0100
0001
0100
0010
0010
0010
0000
,
1000
0100
0100
1000
0001
0100
0100
0001
,
1000
0010
1000
0010
0100
0100
0100
0000
,
0001
0010
1000
0010
0100
0001
0100
1000
,
1100
0000
0110
0000
0010
0100
0010
0000
,
0001
0010
0100
0010
0001
0010
0100
0010
,
0001
1000
0001
0100
0010
1000
0010
0000
,
1000
0010
0100
0010
1000
0010
0100
0010
,
1000
0100
0010
0001
0100
0010
0100
0000
,
0001
0100
0010
0100
0001
0100
0010
0100
,
0001
0010
1000
0010
0001
1000
0100
0000
,
1000
0100
0010
0100
1000
0100
0010
0100
,
1000
0010
0001
0010
0100
0001
0010
0000
,
2002
0000
0000
3003
,
1000
0100
0010
0001
0100
0001
0010
0100
,
1000
0100
1000
0100
0010
0001
0100
0001
,
0010
0100
1000
0010
0001
0010
0100
0000
,
0001
0010
0100
1000
0010
1000
0100
0010
,
0001
0010
0001
0010
0100
1000
0001
1000
,
0001
0100
0010
0100
0010
0100
0001
0010
,
0001
0100
0010
1000
0100
0010
0001
0000
,
1000
0000
0010
0100
0010
0000
0110
0000
,
0001
0000
0010
0100
0010
0000
0110
0000
,
1000
0010
1000
0001
,
1000
0010
1000
0000
0001
0100
0001
0000
,
0010
0000
0001
1000
0001
0000
1001
0000
,
0100
0000
1000
0001
1000
0000
1001
0000
,
0001
0010
0100
0010
,
0001
0100
0010
0000
1000
0100
0010
0000
,
0001
0100
0001
0100
0001
0100
0010
0000
,
1000
0100
1000
0100
1000
0100
0010
0000
,
0001
0010
0100
0010
1000
0010
0100
0000
,
1000
0010
0100
0010
0001
0010
0100
0000
,
0001
0100
0001
0100
0001
0100
0001
0100
,
0010
1000
0010
1000
0010
1000
0010
1000
,
0001
0100
0010
1000
0100
0010
0001
1000
,
0001
0000
0000
0000
,
1000
0100
0010
0100
1000
0100
0010
0001
,
0100
0010
0100
0001
0100
1000
0100
0001
,
1000
0010
0100
0010
1000
0010
0100
0010
,
1000
0000
0100
0000
0010
0000
0001
0000
0100
0001
0100
0000
0001
0000
0100
0000
,
0001
0010
0100
0010
0001
0010
0100
1000
,
0010
0100
0010
1000
0010
0001
0010
1000
,
0001
0100
0010
0100
0001
0100
0010
0100
,
0001
0000
0010
0000
0100
0000
1000
0000
0010
1000
0010
0000
1000
0000
0100
0000
,
0010
0001
0100
0001
0010
0001
0100
0010
,
1000
0100
1000
0010
1000
0100
0001
0100
,
0010
0001
0100
0001
0010
0001
0100
0001
,
1000
0000
0010
0000
0100
0000
0001
0000
0010
0100
0010
0000
0001
0000
1000
0000
,
0010
0100
0010
0100
0010
0100
0010
0100
,
0001
0010
0001
0010
0001
0010
0001
0010
,
0100
1000
0001
0010
0100
1000
0001
0010
,
0001
1000
0100
0001
1000
0010
0001
0010
,
0100
0000
0000
0000
,
0000
0000
0000
0000
;
#NOTES:
     dance-single:
     :
     Hard:
     15:
     :
0000
0000
0000
0000
,
0000
0000
0000
0000
,
0000
0000
0000
0000
,
0000
0000
0000
0000
,
0000
0000
0000
0000
,
1000
0000
0001
0010
0000
0001
0000
0010
,
0100
0000
0000
1000
0010
0000
0100
0000
,
0001
0000
0010
0000
0000
0001
0000
1000
,
0000
0010
0000
0010
0100
0000
0010
0000
,
1001
0000
0001
0100
0010
1000
0010
0000
,
0110
0000
1000
0100
0010
0001
0010
0000
,
0101
0000
1000
0010
0100
0001
0100
0001
,
1000
0000
0001
0010
0100
0010
0110
0000
,
1000
0010
1000
0010
0100
0001
0100
0001
,
0010
0001
0010
0001
1000
0100
1000
0100
,
1000
0001
1000
0001
1000
0001
1000
0001
1000
0001
1000
0001
1000
0001
1000
0001
,
1000
0000
0000
0000
,
1100
0000
0001
0010
0100
1000
0001
0100
,
0101
0000
1000
0010
0100
0001
1000
0000
,
0110
0000
0011
0000
0000
1000
0100
0001
,
0000
0100
1000
0000
1010
0000
0101
0000
,
0011
0000
1000
0100
0010
0001
1000
0010
,
1010
0000
0001
0100
0010
1000
0001
0000
,
0110
0000
0000
0000
1010
0000
0000
0000
0000
0000
0001
0000
0010
0000
0100
1000
,
0100
1000
0010
0100
0001
0010
0100
0000
,
1000
0100
0010
0001
1000
0010
0001
0010
,
1000
0100
0010
0001
1000
0100
0001
0100
,
1000
0010
0001
0010
0100
0010
0001
0010
,
1000
0000
0100
0000
0010
0000
0001
0000
1000
0010
0100
0000
0010
0000
1000
0000
,
0001
0010
0100
1000
0001
0100
1000
0100
,
0001
0010
0100
1000
0001
0010
1000
0010
,
0001
0000
0100
0000
1000
0000
0100
0000
0010
0000
0100
0000
0001
0000
1000
0100
,
0010
0000
0100
0000
0010
0000
0001
0000
0100
0001
0010
0000
0001
0000
1000
0000
,
0010
0000
0100
0010
0100
0000
0001
0000
1000
0000
0100
0010
0100
0000
0010
0000
,
0001
0100
0000
0100
0010
0000
0100
0000
0010
0000
0010
0000
1000
0000
0001
0000
,
0010
0000
0100
0010
0100
0000
1000
0000
0001
0000
0100
0010
0100
0000
0010
0000
,
1000
0100
0000
0100
0010
0000
0100
0000
1000
0000
1000
0000
0100
0000
0010
0000
,
0001
0000
1000
0001
1000
0000
0100
0000
0010
0000
0001
1000
0001
0000
0100
0000
,
0010
1000
0000
1000
0100
0000
0010
0000
0100
0000
0100
0000
1000
0000
0010
0000
,
1000
0010
0100
0000
0010
0000
0100
0001
0010
0000
0001
0000
0010
0000
0100
0000
,
0110
0000
1100
0000
0001
0010
0100
1000
,
0001
0100
1000
0100
0001
0100
1000
0100
,
0001
0000
0001
0000
1000
0000
0100
0000
0010
0001
0100
0000
0010
0000
0000
0000
,
1000
0100
0001
0100
1000
0100
0001
0100
,
1000
0000
0001
0010
0100
0000
1000
0010
0100
0000
0100
0000
0001
0000
0000
0000
,
0011
1000
0010
0100
1010
0001
0010
0100
,
1000
0000
0010
0000
0001
0000
0010
0100
0010
0000
0100
0000
0001
0000
1000
0000
,
1100
0001
0100
0010
0101
1000
0100
0010
,
0001
0000
1000
0010
1000
0000
0100
0000
0010
0000
0001
0000
1000
0000
0000
0000
,
0010
0000
0100
0000
0001
0000
0010
0001
0010
0001
0010
0000
0001
0000
0100
0000
,
0010
1000
0010
0000
0100
0000
0001
0000
0010
0001
0010
0000
0001
0000
0100
0000
,
0001
0000
1000
0100
1000
0100
1000
0000
0001
0100
0001
0000
1000
0000
0001
0000
,
0100
0010
0100
0000
0010
0000
1000
0000
0200
0000
0302
0000
0103
0010
0100
0000
,
1000
0000
0001
0000
0100
0000
0010
1000
0010
1000
0010
0000
1000
0000
0100
0000
,
0010
0001
0010
0000
0100
0000
1000
0000
0001
0100
0001
0000
0200
0000
2300
0000
,
3100
0000
0010
0000
1000
0000
0001
0010
0001
0010
0100
0000
0010
0000
0001
0000
,
1000
0100
0010
0000
0100
0000
1000
0000
0001
0000
0010
0000
0100
0000
0000
0000
,
1100
0000
0001
1000
0001
0100
0010
1000
,
1010
0000
1000
0001
1000
0100
0010
0001
,
0011
0000
1000
0001
1000
0010
0100
0001
,
1000
0100
0001
1000
0010
0001
1000
0000
,
0101
0000
1000
0001
1000
0100
0010
0001
,
0011
0000
0001
1000
0001
0100
0010
1000
,
1010
0000
0001
1000
0001
0010
0100
1000
,
0001
0100
1000
0001
0010
1000
0001
0000
,
1000
0100
1000
0100
0010
0001
0010
0001
,
1000
0010
1000
0010
0100
0001
0100
0001
,
1000
0100
0010
0001
1000
0100
0010
0001
,
1000
0010
0100
0001
1000
0010
0100
0001
,
0100
0010
0100
0010
0100
0010
0100
0010
,
1000
0001
1000
0001
1000
0001
1000
0001
,
0100
0010
0100
0010
0100
0010
0100
0010
1000
0001
1000
0001
1000
0001
1000
0001
,
1000
0000
0000
0000
,
1000
0010
1000
0000
0010
0000
0100
0000
0001
0010
0001
0000
0010
0000
0100
0000
,
1000
0100
1000
0000
0010
0000
0100
0000
0001
0100
0001
0000
0100
0000
0010
0000
,
1000
0010
0100
0000
0010
0000
1000
0000
0001
0010
0100
0000
0010
0000
0001
0000
,
1000
0100
0010
0000
0100
0010
0001
0000
0010
0001
0100
0010
1000
0000
1001
0000
,
0001
0010
0001
0000
0010
0000
0100
0000
1000
0010
1000
0000
0010
0000
0100
0000
,
0001
0100
0001
0000
0010
0000
0100
0000
1000
0100
1000
0000
0100
0000
0010
0000
,
0001
0010
0100
0000
0010
0000
0001
0000
1000
0010
0100
0000
0010
0000
1000
0000
,
0001
0010
0100
0000
0010
0100
1000
0000
0010
1000
0100
0010
0001
0000
1001
0000
,
0001
1000
0100
0000
0010
0000
0001
0000
1000
0001
0100
0000
0010
0000
1000
0000
,
0100
1000
0010
0000
0100
0000
0001
0000
0100
0001
0010
0000
0100
0000
1000
0000
,
0010
1000
0100
0000
0010
0000
0100
0000
0010
0001
0100
0000
0010
0000
0100
0000
,
0001
1000
0010
0000
1000
0010
0100
0000
0001
0010
0100
1000
0010
0000
0110
0000
,
0001
0000
0010
0001
0010
0000
0001
0100
0001
0000
0100
0010
0100
0000
0001
0000
,
1000
0000
0010
1000
0010
0000
1000
0100
1000
0000
0100
0010
0100
0000
1000
0000
,
0001
0010
0100
0000
1000
0010
0100
0000
0010
1000
0100
0000
0010
0001
0100
0000
,
0001
0000
0010
0000
0100
0000
1000
0000
0100
0010
0001
0000
1000
0000
0010
0000
,
0110
0000
0000
0000
,
0000
0000
0000
0000
;
#NOTES:
     dance-double:
     :
     Easy:
     7:
     :
00000000
00000000
00000000
00000000
,
00000000
00000000
00000000
00000000
,
00000000
00000000
00000000
00000000
,
00000000
00000000
00000000
00000000
,
00000000
00000000
00000000
00000000
,
10000000
10000000
00000000
00010000
,
00100000
00000000
00001000
00000000
,
00010000
00010000
00000000
00000010
,
00001000
00000000
00000001
00000000
,
00001000
00000100
00001000
00000100
,
00010000
00001000
00010000
00001000
,
01000000
00010000
01000000
00010000
,
10000000
01000000
00100000
00010000
,
00001000
00000100
00001000
00000100
,
00000010
00000001
00000010
00000001
,
00001000
00000010
00010000
00001000
,
00010000
00000000
00000000
00000000
,
00001000
00100000
00010000
00100000
,
01000000
10000000
00010000
01000000
,
00001000
00001000
00010000
00010000
,
00000100
00001000
00000001
00001001
,
00001000
00000010
00001000
00000010
,
00000100
00000001
00001000
00000100
,
00010000
00010000
00001000
00001000
,
01000000
00010000
10000000
10010000
,
10000000
01000000
10000000
00010000
,
00100000
00001000
00010000
00001000
,
00010000
00000100
00001000
00000001
,
00000010
00000100
00001000
00000100
,
00010000
00001000
00010000
00001000
,
01000000
00010000
01000000
00010000
,
10000000
00100000
01000000
00010000
,
10000000
01000000
00010000
00001000
,
00000010
00000010
00000001
00000001
,
00001000
00001000
00000010
00010000
,
00001000
00001000
00100000
00100000
,
00010000
00010000
00100000
01000000
,
10000000
10000000
00010000
00010000
,
00100000
00100000
00001000
00010000
,
00001000
00000100
00000001
00001000
,
00001100
00011000
01010000
01100000
,
10000000
00100000
10000000
00100000
,
10000000
00100000
00010000
00001000
,
00010000
00001000
00010000
00001000
,
00000100
00000001
00001000
00001001
,
00000001
00000100
00000001
00000100
,
00000001
00000100
00001000
00010000
,
00001000
00010000
00001000
00010000
,
00100000
10000000
00010000
10010000
,
02200000
00000000
00000000
03300000
,
10000000
01000000
00100000
00010000
,
00001000
00000100
00000010
00000001
,
00000100
00000100
00000010
00001000
,
00000001
00000010
00000100
00001000
,
00010000
00100000
01000000
10000000
,
01000000
00010000
00001000
00010000
,
00001000
00000010
00000001
00000010
,
00000001
00001000
00000100
00010100
,
00010000
00001000
01000000
01001000
,
00001000
00100000
00010000
10000000
,
01000000
00100000
00010000
01000000
,
00001000
00010000
00001000
00011000
,
00000100
00010000
00001000
00011000
,
00010000
00000010
00001000
00000100
,
00001000
00000001
00000010
00000100
,
00001000
00000010
00001000
00000010
,
00010000
00001000
00010000
00001000
,
01000000
00010000
01000000
00010000
,
10000000
00100000
01000000
00010000
,
00100000
00001000
00010000
00001000
,
00010000
00000100
00001000
00000100
,
00001000
00000001
00001000
00000001
,
00001001
00000000
00000000
00000000
,
00000001
00000100
00001000
00010000
,
00001000
00010000
00100000
10000000
,
00010000
01000000
00001000
00010000
,
00000100
00010000
00001000
00100000
,
00010000
10000000
01000000
00010000
,
00001000
00010000
00001000
00000010
,
00000001
00001000
00000100
00010000
,
00001000
01000000
00010000
01100000
,
10000000
01000000
00100000
00010000
,
00001000
00000100
00000010
00000100
,
00001000
00000001
00001000
00000010
,
00010000
00001000
00100000
00010000
,
10000000
10000000
01000000
01000000
,
00010000
00010000
00001000
00001000
,
00000100
00000010
00000100
00000000
00000010
00001000
00000010
00000000
,
00001000
00000100
00010000
00001000
,
00011000
00000000
00000000
00000000
,
00000000
00000000
00000000
00000000
;
#NOTES:
     dance-double:
     :
     Medium:
     13:
     :
00000000
00000000
00000000
00000000
,
00000000
00000000
00000000
00000000
,
00000000
00000000
00000000
00000000
,
00000000
00000000
00000000
00000000
,
00000000
00000000
00000000
00000000
,
00000001
00000000
00001000
00000010
00000000
00001000
00000000
00000100
,
00010000
00000000
00000000
00001000
00010000
00000000
00001000
00000000
,
01000000
00000000
00010000
00000000
00000000
10000000
00000000
01000000
,
00000000
00010000
00000000
00001000
00010000
00000000
00000010
00000000
,
00001000
00000000
00000100
00000000
00000010
00000001
00000010
00000000
,
00000001
00000000
00001000
00000000
00000100
00010000
00000100
00000000
,
00010000
00000000
00001000
00000000
00100000
00010000
00100000
00000000
,
00010000
00000000
10000000
00100000
10000000
00000000
10010000
00000000
,
10000000
01000000
10000000
00000000
00010000
01000000
00010000
00000000
,
01000000
00001000
01000000
00000000
00001000
00010000
00001000
00000000
,
00010000
00000100
00010000
00000100
00001000
00000100
00001000
00000100
,
00000010
00000000
00000000
00000000
,
00000001
00000000
00001000
00000100
00010000
00001000
00010000
00000000
,
00001000
00000000
01000000
00010000
10000000
00100000
10000000
00000000
,
01100000
00000000
01010000
00000000
00010000
00100000
00001000
00000000
,
00010000
00000010
00010000
00000010
00001000
00000000
00000100
00000000
,
00010000
00000000
00001000
00100000
00010000
01000000
00100000
00000000
,
10000000
00000000
00010000
00100000
00001000
00010000
00000010
00000000
,
00001010
00000000
00001001
00000000
00000001
00001000
00000010
00000000
,
00010000
00001000
01000000
00010000
10000000
00000000
10010000
00000000
,
00010000
01000000
00010000
01000000
00001000
00010000
00001000
00000000
,
00010000
00000100
00010000
00000100
00001000
00000010
00001000
00000000
,
00000001
00000010
00000100
00001000
00000100
00010000
00001000
01000000
,
00010000
00100000
01000000
10000000
00100000
01000000
00100000
00000000
,
01000000
00010000
01000000
00001000
00010000
00001000
00010000
00000000
,
00000010
00010000
00000010
00001000
00000100
00001000
00000100
00000000
,
00001000
00000010
00010000
00001000
00100000
00001000
00010000
00001000
,
00010000
01000000
10000000
00010000
10000000
01000000
00100000
00000000
,
00010000
00100000
00100000
00001000
00010000
00000010
00000010
00001000
,
00000001
00000010
00000100
00001000
00000001
00000100
00000001
00000000
,
00001000
00000010
00000010
00010000
00001000
00100000
00100000
00010000
,
10000000
00100000
01000000
00010000
10000000
01000000
10000000
00000000
,
00010000
01000000
01000000
00001000
00010000
00000100
00000100
00001000
,
00000001
00000010
00001000
00010000
01000000
10000000
00010000
00000000
,
10000000
00100000
00010000
00001000
00010000
00001000
00000100
00000010
,
00000110
00000000
00000101
00000000
00000001
00001000
00000100
00000000
,
00010000
00001000
00000100
00001000
00010000
00001000
00000100
00001000
,
00010000
00100000
01000000
00010000
00100000
01000000
10000000
00000000
,
01000000
00010000
00001000
00010000
01000000
00010000
00001000
00010000
,
00001000
00000010
00000001
00000100
00000010
00001000
00000100
00000000
,
00010000
00001000
00000010
00000001
00000010
00001000
00010000
01000000
,
00010000
10000000
00100000
00010000
10000000
00100000
00010000
00000000
,
00001000
00010000
01000000
10000000
01000000
00010000
00001000
00000010
,
00001000
00000001
00000100
00001000
00000001
00000010
00000100
00000000
,
00002000
00000000
00000000
00003000
,
00000100
00001000
00000010
00010000
00001000
00100000
00010000
01000000
,
10000000
01000000
00100000
10000000
01000000
00100000
00010000
01000000
,
00001000
00010000
00000010
00010000
00001000
00000100
00000001
00000000
,
00001000
00000100
00010000
00001000
01000000
00010000
00100000
00001000
,
00010000
00000100
00001000
00000010
00000001
00000010
00001000
00000001
,
00000100
00001000
00010000
00001000
00010000
00001000
00010000
00100000
,
10000000
00010000
10000000
01000000
00010000
00001000
00000010
00000000
,
00000001
00000000
00001000
00000100
00010000
00000000
00011000
00000000
,
00001000
00000000
01000000
00010000
10000000
00000000
10010000
00000000
,
00010000
00100000
00001000
00010000
,
00000100
00001000
00000100
00000000
00010000
00001000
00010000
00000000
,
00001000
00000000
00010000
00000100
00001000
00000000
00001001
00000000
,
00000001
00000000
00000010
00000100
00001000
00000000
00010100
00000000
,
00010000
00001000
01000000
00010000
,
10000000
01000000
00010000
00000000
00001000
00000010
00000001
00000000
,
00001000
00000100
00001000
00000100
00010000
00001000
00010000
00000000
,
00001000
00100000
00001000
00100000
00010000
10000000
00010000
00000000
,
01000000
00100000
01000000
00010000
01000000
00001000
00010000
00000000
,
00000100
00010000
00000100
00001000
00000100
00000010
00000001
00000000
,
00001000
00000010
00001000
00000010
00010000
00001000
00010000
00001000
,
01000000
00010000
01000000
00010000
10000000
00100000
10000000
00100000
,
10000000
00010000
01000000
00001000
00010000
00000100
00001000
00000001
,
00000010
00000000
00000000
00000000
,
00000001
00000010
00000100
00001000
00000010
00000100
00000001
00001000
,
00000010
00000100
00001000
00010000
00100000
10000000
00010000
10000000
,
01000000
00100000
01000000
00100000
00010000
10000000
00010000
01000000
,
00001000
00010000
00000010
00001000
00000100
00010000
00001000
00100000
,
00010000
00100000
01000000
10000000
00100000
01000000
00010000
10000000
,
01000000
00100000
00010000
00001000
00000100
00000010
00000001
00001000
,
00000001
00000100
00000001
00000100
00000010
00001000
00000010
00010000
,
00001000
00010000
01000000
10000000
00010000
01000000
00100000
00000000
,
10000000
01000000
00100000
00010000
01000000
00100000
10000000
00010000
,
01000000
00100000
00010000
00001000
00000100
00000001
00001000
00000001
,
00000010
00000100
00000010
00000100
00001000
00000001
00001000
00000010
,
00010000
00001000
01000000
00010000
00100000
00001000
00010000
00000100
,
00001000
00000100
00001000
00000100
00010000
00001000
00010000
00001000
,
01000000
00010000
01000000
00010000
10000000
00100000
10000000
00100000
,
10000000
01000000
00010000
00001000
00000010
00000001
00000100
00000001
,
00000010
00001000
00010000
00001000
00010000
00100000
10000000
00010000
,
01000000
00000000
00000000
00000000
,
00000000
00000000
00000000
00000000
;
#NOTES:
     dance-double:
     :
     Hard:
     15:
     :
00000000
00000000
00000000
00000000
,
00000000
00000000
00000000
00000000
,
00000000
00000000
00000000
00000000
,
00000000
00000000
00000000
00000000
,
00000000
00000000
00000000
00000000
,
10000000
00000000
01000000
00010000
00000000
00001000
00000000
00010000
,
00001000
00000000
00000000
00000010
00000100
00000000
00000010
00000000
,
00000001
00000000
00000100
00000000
00000000
00001000
00000000
00010000
,
00000000
00100000
00000000
01000000
00100000
00000000
10000000
00000000
,
10010000
00000000
00010000
00100000
00001000
00010000
00001000
00000000
,
00011000
00000000
00010000
00000010
00001000
00000001
00001000
00000000
,
00000101
00000000
00001000
00000010
00010000
00001000
00100000
00001000
,
00010000
00000000
00001000
00010000
01000000
10000000
01000000
00000000
,
10000000
00100000
10000000
00100000
01000000
00010000
01000000
00010000
,
00001000
00000010
00001000
00000010
00000100
00000001
00000100
00000001
,
00001000
00000001
00001000
00000001
00001000
00000001
00001000
00000001
00001000
00000001
00001000
00000001
00001000
00000001
00001000
00000001
,
00001000
00000000
00000000
00000000
,
00001100
00000000
00000001
00000010
00000100
00001000
00010000
00100000
,
01000000
00000000
10000000
00010000
01000000
00001000
00010000
00000000
,
00011000
00000000
00010100
00000000
00000000
00010000
00001000
00000100
,
00000000
00001000
00010000
00000000
00100000
00000000
01000000
00000000
,
00110000
00000000
10000000
01000000
00100000
00010000
00001000
00000100
,
00000010
00000000
00000001
00001000
00000010
00010000
00001000
00000000
,
00011000
00000000
00101000
00000000
00000000
00001000
00010000
00100000
,
01000000
10000000
01000000
00010000
00100000
00001000
00010000
00000000
,
00000010
00001000
00000001
00000100
00000010
00010000
00001000
00100000
,
00010000
10000000
00100000
01000000
00001000
00010000
00000100
00001000
,
00000001
00000100
00001000
00000100
00001000
00010000
00100000
00010000
,
00100000
00000000
01000000
00000000
00010000
00000000
00100000
00000000
01000000
10000000
01000000
00000000
10000000
00000000
00100000
00000000
,
01000000
00010000
10000000
00100000
01000000
00001000
00010000
00000100
,
00001000
00000001
00000100
00000010
00010000
00001000
00100000
00010000
,
10000000
00100000
00010000
00100000
00010000
00001000
00000100
00001000
,
00000100
00000000
00000010
00000000
00001000
00000000
00000100
00000000
00000010
00000001
00000010
00000000
00000001
00000000
00001000
00000000
,
00000100
00000000
00010000
00001000
00010000
00000000
00001000
00000000
01000000
00000000
00001000
00010000
00001000
00000000
00010000
00000000
,
01000000
10000000
00000000
10000000
00010000
00000000
00100000
00000000
00010000
00000000
00010000
00000000
01000000
00000000
00010000
00000000
,
00100000
00000000
00001000
00010000
00001000
00000000
00010000
00000000
00000010
00000000
00010000
00001000
00010000
00000000
00001000
00000000
,
00000010
00000001
00000000
00000001
00001000
00000000
00000100
00000000
00001000
00000000
00001000
00000000
00000010
00000000
00001000
00000000
,
00000001
00000000
00000100
00001000
00000100
00000000
00001000
00000000
00010000
00000000
00100000
10000000
00100000
00000000
10000000
00000000
,
00010000
01000000
00000000
01000000
00001000
00000000
00010000
00000000
00000010
00000000
00000010
00000000
00001000
00000000
00000001
00000000
,
00001000
00000100
00010000
00000000
00001000
00000000
00100000
00010000
01000000
00000000
00010000
00000000
10000000
00000000
01000000
00000000
,
01100000
00000000
00110000
00000000
10000000
01000000
00100000
00010000
,
00001000
00000100
00000010
00000100
00001000
00010000
00100000
00010000
,
10000000
00000000
10000000
00000000
00100000
00000000
00010000
00000000
00001000
00010000
00001000
00000000
00000100
00000000
00000000
00000000
,
00000001
00000010
00000100
00001000
00010000
00100000
01000000
00100000
,
00010000
00000000
10000000
01000000
00100000
00000000
00010000
00100000
00001000
00000000
00001000
00000000
00010000
00000000
00000000
00000000
,
00001000
00000100
00001000
00010000
00001000
00010000
00100000
00010000
,
00001000
00000000
00000100
00000000
00000001
00000000
00001000
00000100
00001000
00000000
00000100
00000000
00010000
00000000
00001000
00000000
,
00010000
01000000
00010000
00001000
00010000
00001000
00000010
00001000
,
00010000
00000000
01000000
00100000
01000000
00000000
00100000
00000000
00010000
00000000
10000000
00000000
00100000
00000000
00000000
00000000
,
10000000
00000000
00010000
00000000
00100000
00000000
00001000
00010000
00001000
00000000
00010000
00000000
00001000
00000000
00000010
00000000
,
00000001
00000010
00000001
00000000
00000100
00000000
00000010
00000000
00001000
00000100
00001000
00000000
00000100
00000000
00010000
00000000
,
00001000
00000000
00010000
00001000
00010000
00000000
00001000
00000000
00100000
00010000
00100000
00000000
01000000
00000000
10000000
00000000
,
00010000
01000000
00010000
00000000
01000000
00000000
00001000
00000000
00020000
00000000
00032000
00000000
00013000
00000000
00000010
00000000
,
00001000
00000000
00000100
00000000
00000010
00000000
00000001
00000100
00000001
00000000
00000010
00000000
00000001
00000000
00001000
00000000
,
00000100
00010000
00000100
00000000
00010000
00000000
00001000
00000000
01000000
00010000
01000000
00000000
00020000
00000000
20030000
00000000
,
31000000
00000000
00100000
00000000
00010000
00000000
00100000
00001000
00100000
00000000
00001000
00000000
00010000
00000000
00000100
00000000
,
00001000
00000001
00000100
00000010
00010000
00001000
00100000
00000000
,
01100000
00000000
10000000
01000000
00100000
00010000
00001000
00000000
,
00000110
00000000
00000001
00000010
00000100
00001000
00010000
00100000
,
01100000
00000000
10000000
00100000
01000000
00010000
00100000
00010000
,
10000000
01000000
00010000
00001000
00000010
00000001
00000010
00000000
,
00000001
00000000
00000100
00000001
00000010
00001000
00010000
00100000
,
10000000
00000000
00100000
10000000
01000000
00010000
00001000
00000100
,
00000001
00000000
00001000
00000010
00001000
00000001
00000100
00001000
,
00010000
00100000
01000000
00010000
00001000
00000100
00000010
00000000
,
00000001
00000100
00000001
00000100
00000010
00001000
00000010
00001000
,
00010000
01000000
00010000
01000000
00100000
10000000
00100000
10000000
,
01000000
00100000
00010000
00001000
00000100
00000010
00000001
00001000
,
00000001
00000010
00000100
00001000
00010000
00100000
01000000
10000000
,
00010000
01000000
00010000
01000000
00001000
00010000
00001000
00010000
,
00000100
00001000
00000100
00001000
00000001
00000010
00000001
00000010
,
00000100
00000010
00000100
00000010
00000100
00000010
00000100
00000010
00000100
00000010
00000100
00000010
00000100
00000010
00000100
00000010
,
00000100
00000000
00000000
00000000
,
00001000
00000100
00001000
00000000
00000100
00000000
00010000
00000000
00001000
00100000
00001000
00000000
00100000
00000000
00010000
00000000
,
10000000
01000000
10000000
00000000
00100000
00000000
01000000
00000000
00010000
00100000
00010000
00000000
01000000
00000000
00001000
00000000
,
00010000
00000100
00001000
00000000
00000001
00000000
00001000
00000000
00000001
00000010
00000100
00000000
00000010
00000000
00000001
00000000
,
00001000
00000100
00010000
00000000
00001000
00000000
00010000
00000000
00001000
00100000
00010000
00000000
10000000
00000000
00100000
00000000
,
01000000
00010000
01000000
00000000
00010000
00000000
00100000
00000000
00001000
00010000
00001000
00000000
00010000
00000000
00000010
00000000
,
00001000
00000010
00001000
00000000
00000100
00000000
00000010
00000000
00000001
00000100
00000001
00000000
00001000
00000000
00000100
00000000
,
00010000
00001000
00100000
00000000
00010000
00000000
10000000
00000000
00100000
01000000
00010000
00000000
00100000
00000000
00001000
00000000
,
00010000
00000100
00001000
00000000
00000010
00000000
00000100
00000000
00000001
00000010
00000100
00000000
00001000
00000000
00000001
00000000
,
00000100
00001000
00000100
00000000
00001000
00000000
00010000
00000000
01000000
00010000
01000000
00000000
00100000
00000000
00010000
00000000
,
10000000
01000000
00100000
00000000
00010000
00000000
00100000
00000000
00001000
00010000
00000010
00000000
00001000
00000000
00000001
00000000
,
00000010
00000001
00000100
00000000
00001000
00000000
00010000
00000000
01000000
10000000
00100000
00000000
00010000
00000000
00001000
00000000
,
00010000
00001000
00010000
00000000
00001000
00000000
00000100
00000000
00001000
00010000
00001000
00000000
00010000
00000000
01000000
00000000
,
10000000
00000000
00100000
01000000
00100000
00000000
10000000
00100000
10000000
00000000
00010000
10000000
00010000
00000000
01000000
00000000
,
00010000
00000000
00100000
00010000
00100000
00000000
00001000
00010000
00001000
00000000
00010000
00000100
00010000
00000000
00000100
00000000
,
00001000
00000100
00000010
00000000
00000100
00000010
00000001
00000000
00001000
00000010
00000100
00000000
00000010
00001000
00000100
00000000
,
00010000
00000000
00000010
00000000
00001000
00000000
00000001
00000000
00000100
00000010
00000100
00000000
00001000
00000000
00010000
00000000
,
00100000
00000000
00000000
00000000
,
00000000
00000000
00000000
00000000
;
