
//----- song ID: pupu -----//
#TITLE:Pump Pump Pump;
#ARTIST:kors k;
#BANNER:Pump Pump Pump.png;
#BACKGROUND:Pump Pump Pump-bg.png;
#CDTITLE:./CDTitles/DDR A3.png;
#MUSIC:Pump Pump Pump.ogg;
#SAMPLESTART:81.539;
#SAMPLELENGTH:15;
#BPMS:0=156;
#STAGE:31;
#NOTES:
     dance-single:
     :
     Beginner:
     2:
     :
0000
0000
0000
0000
,
0000
0000
0000
0000
,
0000
0000
0000
0000
,
0000
0000
0000
0000
,
0000
0000
0000
0000
,
1000
0000
0000
0000
,
1000
0000
0000
0000
,
1000
0000
0000
0000
,
0001
0000
0001
0000
,
0010
0000
0000
0000
,
0010
0000
0000
0000
,
0010
0000
0000
0000
,
0100
0000
0100
0000
,
1000
0000
0000
0000
,
0001
0000
0000
0000
,
1000
0000
0000
0000
,
0001
0000
1000
0000
,
1001
0000
0000
0000
,
1001
0000
0000
0000
,
1001
0000
0000
0000
,
1001
0000
0000
0000
,
1000
0000
0000
0000
,
0100
0000
0000
0000
,
0010
0000
0000
0000
,
0001
0000
0000
0000
,
2002
0000
0000
0000
,
0000
0000
3003
0000
,
2002
0000
0000
0000
,
0000
0000
3003
0000
,
2002
0000
0000
0000
,
0000
0000
3003
0000
,
2002
0000
0000
0000
,
0000
0000
3003
0000
,
0001
0000
0001
0000
,
0010
0000
0010
0000
,
0100
0000
0100
0000
,
1000
0000
0000
0000
,
0001
0000
0000
0000
,
1000
0000
0000
0000
,
0001
0000
0000
0000
,
1000
0000
0000
0000
,
0010
0000
0000
0000
,
0100
0000
0000
0000
,
0010
0000
0000
0000
,
0100
0000
0000
0000
,
1000
0000
1000
0000
,
0010
0000
0010
0000
,
0100
0000
0100
0000
,
0001
0000
0001
0000
,
1000
0000
0000
0000
,
0001
0000
0000
0000
,
1000
0000
0000
0000
,
0001
0000
0100
0100
,
0100
0000
0000
0000
,
0001
0000
0000
0000
,
1000
0000
0000
0000
,
0001
0000
0000
0000
,
0010
0000
0000
0000
,
0100
0000
0000
0000
,
0010
0000
0000
0000
,
0100
0000
0000
0000
,
0001
0000
0001
0000
,
1000
0000
1000
0000
,
0001
0000
0001
0000
,
1000
0000
1000
0000
,
0010
0000
0010
0000
,
0100
0000
0100
0000
,
0010
0000
0100
0000
,
0001
0000
1000
0000
,
1001
0000
0000
0000
,
1001
0000
0000
0000
,
0001
0000
1000
0000
,
0001
0000
1000
0000
,
1001
0000
0000
0000
,
0000
0000
0000
0000
;
#NOTES:
     dance-single:
     :
     Easy:
     6:
     :
0000
0000
0000
0000
,
0000
0000
0000
0000
,
0000
0000
0000
0000
,
0000
0000
0000
0000
,
1001
0000
0000
0000
,
1000
0100
1000
0000
,
0001
0100
0001
0000
,
1000
0010
1000
0000
,
0001
0110
1001
0110
,
1000
0010
1000
0000
,
0001
0100
0001
0000
,
0010
0100
0010
0000
,
0001
1000
2000
3001
,
0100
0010
1000
0000
,
0100
0010
0001
0000
,
1000
0001
0010
0000
,
0001
1001
0110
1001
,
1000
0000
1001
0110
,
0010
0000
0110
1001
,
0001
0100
0010
1000
,
0002
0000
0000
0000
,
1003
0000
0000
0000
,
0000
0000
0000
0000
,
1000
0010
0100
0001
,
0010
0010
0100
0110
,
2001
0000
0001
0000
,
0001
0000
3001
0000
,
1002
0000
1000
0000
,
1000
0000
1003
0000
,
0210
0000
0010
0000
,
0010
0000
0310
0000
,
0220
0000
0000
0000
,
0330
0000
0000
0000
,
1000
0100
1000
0100
,
0010
0001
0010
0001
,
0100
0010
0100
0010
,
0110
0000
0000
0000
,
2000
0000
3010
0000
,
0002
0000
0013
0000
,
2000
0000
3010
0000
,
0002
0000
0013
0000
,
2000
0000
3100
0000
,
0002
0000
0103
0000
,
2000
0000
3100
0000
,
0002
0000
0103
0000
,
0001
0000
0100
0000
,
0001
0000
0100
0000
,
0010
0000
1000
0000
,
0010
0000
1000
0000
,
0100
0100
0010
0010
,
0100
0100
0010
0010
,
0001
0001
1000
1000
,
0001
1000
1001
0000
,
0001
0010
0001
0100
,
0010
1000
0010
0000
,
1000
0100
1000
0010
,
0100
0001
0010
0000
,
0001
1000
0001
0100
,
0010
1000
0100
0000
,
1000
0001
1000
0010
,
0100
0001
0010
0000
,
0001
0001
0010
0100
,
1000
1000
0010
0000
,
1000
1000
0100
0010
,
0001
0001
0100
0000
,
0010
0100
0010
1000
,
0001
0001
1000
0000
,
0001
1000
0010
0100
,
0001
0001
1000
0000
,
0110
0000
0000
0000
,
1001
0000
0000
0000
,
0110
0000
0000
0000
,
1000
0110
1001
0110
,
1001
0000
0000
0000
,
0000
0000
0000
0000
;
#NOTES:
     dance-single:
     :
     Medium:
     11:
     :
0000
0000
0000
0000
,
0000
0000
0000
0000
,
0000
0000
0000
0000
,
0000
0000
0000
0000
,
1000
1000
1000
0110
,
0010
1000
0010
0000
0100
0000
0100
0000
,
0001
0010
0001
0000
0100
0000
0100
0000
,
0001
1000
0001
0000
0100
0000
0100
0000
,
0010
1010
0011
0101
,
1000
0100
0010
0000
0001
0000
1000
0000
,
0001
0100
0010
0000
1000
0000
0001
0000
,
1000
0010
0100
0000
0001
0000
1000
0000
,
0001
0000
0100
0010
0100
0000
0110
0000
,
0010
1000
0010
1000
0100
0000
0110
0000
,
0010
0001
0010
0001
0100
0000
0110
0000
,
0001
1000
0001
1000
0010
0000
0110
0000
,
0010
1010
0101
1001
,
2000
0000
0000
0000
0000
0000
0000
0000
3001
0000
0000
1100
0000
0000
0000
0000
,
0002
0000
0000
0000
0000
0000
0000
0000
1003
0000
0000
1010
0000
0000
0000
0000
,
0010
1000
0010
1000
0001
0100
0001
0100
,
0010
1000
0100
0010
0001
0100
0010
0100
,
0020
0100
0100
0130
,
0002
1000
1000
1003
,
0001
0001
1000
1000
0010
0010
0100
0100
,
0001
0100
0010
1000
0001
0000
1001
0000
,
2001
0000
0000
0000
0000
0000
0000
0000
3001
0000
0000
0001
0000
0000
0001
0000
,
0010
0000
0000
0010
0000
0000
0010
0000
0100
0000
0000
0100
0000
0000
0100
0000
,
2000
0000
0000
0000
3002
0000
0000
0000
1003
0000
0000
1000
0000
0000
1000
0000
,
0010
0000
0000
0010
0000
0000
0010
0000
0100
0000
0001
0000
0010
0000
0100
0000
,
2000
0000
0000
0000
0000
0000
0000
0000
3001
0000
0000
0001
0000
0000
0001
0000
,
1000
0000
0000
1000
0000
0000
1000
0000
0010
0000
0000
0010
0000
0000
0010
0000
,
0200
0000
0000
0010
0000
0000
0010
0000
0000
0010
0000
0000
0010
0000
0000
0000
,
0300
0000
0110
1001
,
1000
0100
1000
0000
0001
0100
0001
0000
,
1000
0010
1000
0000
0001
0100
0001
0000
,
1000
0100
0001
0000
1000
0010
0001
1000
,
0000
0000
0000
0000
,
2000
0000
0010
0000
0000
0100
0000
0000
,
3001
0000
0001
1000
,
0002
0000
0010
0000
0000
0100
0000
0000
,
1003
0000
0000
0000
1000
1000
0001
0001
,
0020
0000
0100
0000
0000
1000
0000
0000
,
0031
0000
1000
0001
,
0200
0000
0010
0000
0000
0001
0000
0000
,
1300
0000
0000
0000
1000
0100
0001
0010
,
0100
0100
0010
0010
,
0001
0001
1000
1000
,
0010
0010
0100
0100
,
0001
0000
0001
0000
1000
0001
0002
0000
,
1003
0010
1000
0010
0100
0001
0100
0001
,
0010
0001
0010
0001
1000
0100
1000
0100
,
0010
0001
1000
0000
0010
1000
0100
0000
,
0010
0001
1000
0010
0110
0000
1001
0000
,
0001
0100
0010
1000
0100
0010
0001
1000
,
0010
0100
0001
1000
0001
0001
1000
0000
,
1000
0010
0100
0001
0010
0100
1000
0001
,
0100
0010
1000
0001
1000
1000
0001
0000
,
0001
0010
0100
0010
0001
1000
0010
0100
,
0010
1000
0001
0100
0010
0010
0100
0000
,
1000
0100
0010
0100
1000
0001
0100
0010
,
0100
0001
1000
0010
0100
0100
0010
0000
,
1000
0100
0001
0000
0100
1000
0010
0000
,
0100
0001
0010
0000
0001
0100
1000
0100
,
0001
1000
0010
0000
1000
0010
0001
0000
,
0010
1000
0100
0001
0100
1000
0001
0010
,
0100
0010
0001
0000
1000
0010
0001
0000
,
0010
1000
0100
0000
0010
0001
0100
0000
,
0001
0010
0001
0100
0010
1000
0100
1000
,
0020
0000
0100
0000
0130
0010
1000
0001
,
0100
0000
0000
0000
0100
0000
0000
0000
0001
0000
0000
1000
0000
0000
0001
0000
,
0010
0000
0000
0000
0010
0000
0000
0000
0100
0000
0000
0010
0000
0000
0100
0000
,
1000
0010
0100
0001
0010
0100
1000
0001
,
1000
1100
0011
0110
,
1001
0000
0000
0000
,
0000
0000
0000
0000
;
#NOTES:
     dance-single:
     :
     Hard:
     15:
     :
0000
0000
0000
0000
,
0000
0000
0000
0000
,
0000
0000
0000
0000
,
0000
0000
0000
0000
,
0001
0000
1000
0000
0100
1000
0001
0000
,
1000
0100
1000
0000
0100
1000
0100
0000
0010
0000
0001
0000
1000
0000
0000
0000
,
0001
0100
0001
0000
0100
0001
0100
0000
0010
0000
1000
0000
0001
0000
0000
0000
,
1000
0100
1000
0000
0001
0100
0001
0000
0010
0000
0001
0000
1000
0000
0000
0000
,
0010
0100
0010
0000
1000
0001
1000
0000
0001
0000
0100
0000
1000
0000
0100
0000
,
0001
0100
0001
0000
0100
0001
0100
0000
0010
0000
1000
0000
0001
0000
0000
0000
,
1000
0100
1000
0000
0100
1000
0100
0000
0010
0000
0001
0000
1000
0000
0000
0000
,
0001
0100
0001
0000
1000
0100
1000
0000
0010
0000
1000
0000
0001
0000
0000
0000
,
0010
0100
0010
0000
1001
0000
0000
0000
1010
0000
0000
0000
0101
0000
0000
0000
,
1000
0010
0100
0000
0010
0100
0001
0000
0020
0000
0130
1000
0000
0000
0001
0000
,
0100
0010
1000
0000
0001
0010
0100
0000
2000
0000
3010
0100
0000
0000
0001
0000
,
0010
0100
1000
0000
0001
0100
0010
0000
2000
0000
3001
0010
0000
0000
0100
0000
,
1000
0100
1000
0000
0001
0100
0001
0000
0200
0000
0000
0310
1000
0001
0100
0010
,
0200
0000
0000
0000
0000
0000
0300
0000
0100
0000
0000
1001
0000
0000
0000
0000
,
0020
0000
0000
0000
0000
0000
0030
0000
0010
0000
0000
1001
0000
0000
0000
0000
,
0001
0100
0010
0000
1000
0100
0010
0000
0001
0010
0100
0000
1000
0010
0100
0000
,
0100
0000
0100
0000
0010
0000
1000
0001
0100
0001
1000
0000
1001
0000
0000
0000
,
2001
0100
0001
3100
,
1002
0100
1000
0103
,
0001
0010
0001
0010
0100
1000
0100
1000
,
0001
1000
0001
0000
1000
0001
1000
0000
0001
0100
0010
1000
0001
0000
0000
0000
,
0001
0020
0000
0000
0000
0000
0000
0000
0130
0000
0010
0001
0000
0010
0100
0000
,
1000
0100
0000
0010
0000
0001
0010
0000
0100
1000
0000
0001
0000
1000
0001
0000
,
1000
0000
0000
0000
0100
0000
0000
0000
0100
0000
0000
0000
0010
0000
0000
0000
0001
0000
0000
0000
0001
0000
0000
0000
1000
0000
0000
0010
0000
0000
0000
0000
0000
0100
0000
0000
0000
0000
0000
0001
0000
0000
0010
0000
0000
0000
0000
0000
,
0100
1000
1100
0000
0101
0000
0110
0000
,
0010
0100
0000
0000
0100
0010
0000
0000
1000
0000
0010
1000
0000
0001
1000
0000
,
0001
0000
0010
0001
0000
1000
0001
0000
0100
0000
0010
1000
0000
0010
0100
0000
,
0220
0000
0330
0000
1010
0000
0000
1001
0000
0000
0101
0000
0000
0110
0000
0000
,
0000
0100
0010
1000
0001
0000
1001
0000
,
1000
0100
0010
0001
1000
0000
0010
0000
0100
0000
0010
1000
0000
0010
0100
0000
,
0001
0000
0010
0001
0000
0100
0010
0000
1000
0000
0002
0000
0203
0000
2300
0000
,
3100
0001
0000
0001
0010
0000
0001
0000
1000
0100
0000
0100
1000
0000
0220
0000
,
0000
0000
0000
0000
0000
0000
0000
0000
0000
0000
0000
0330
0000
0000
0000
0000
,
0010
0000
0101
0000
0000
0110
0000
0000
,
2002
0000
0000
3003
,
0010
0000
1100
0000
0000
0101
0000
0000
,
2002
0000
0000
0003
0001
3001
0100
0010
,
1000
0000
1001
0000
0000
0110
0000
0000
,
2002
0000
0000
0000
0000
0000
0000
0000
0000
0000
0000
0000
0000
3003
0000
0000
,
0100
0000
0110
0000
0000
1100
0000
0000
,
2002
0000
0000
3000
1000
1003
0100
0010
,
0001
0001
0010
0010
,
0100
0100
1000
1000
,
0010
0100
0001
0010
,
0100
0000
1000
0000
1000
0001
0100
0000
,
0001
0010
0000
0000
0010
0001
0000
0000
0100
0010
0000
0000
0010
0100
0000
0000
,
0010
1000
0000
0000
1000
0100
0000
0000
0100
0010
0000
0000
0010
0100
0000
0000
,
0010
0001
1000
0010
0100
0001
0010
0100
,
1000
0100
1000
0100
0010
0001
0010
0001
1000
0000
0000
0000
1001
0000
0000
0000
,
0001
0100
0000
0010
1000
0010
0000
0100
0000
0001
0000
0010
0001
0010
0000
0100
,
0000
1000
0000
0001
1000
0001
0000
0100
0000
0010
0100
0000
0010
0000
0100
0000
,
0001
0010
0000
0100
1000
0100
0000
0010
0000
0001
0000
0100
0001
0100
0000
0010
,
0000
1000
0000
0001
1000
0001
0000
0010
0000
0100
0010
0000
0100
0000
0100
0000
,
1000
0010
0000
0100
0001
0100
0000
0010
0000
1000
0000
0100
1000
0100
0000
0010
,
0000
0001
0000
1000
0001
1000
0000
0010
0000
0100
0010
0000
0100
0000
0010
0000
,
1000
0100
0000
0010
0001
0010
0000
0100
0000
1000
0000
0010
1000
0010
0000
0100
,
0020
0000
0000
0000
0230
0000
0000
0000
0301
1000
0001
0000
0100
0000
0010
0000
,
1000
0100
0010
0000
0001
0100
0010
0000
1000
0100
0010
0000
0001
0100
0010
0000
,
1000
0010
0001
0010
1000
0100
0001
0100
,
1000
0010
0100
0000
0001
0010
0100
0000
1000
0010
0100
0000
0001
0010
0100
0000
,
1000
0001
1000
0001
1000
0010
0100
0000
0010
0000
1000
0000
0001
0000
0010
0000
,
0001
1000
0010
0000
1000
0001
0010
0000
0001
1000
0010
0000
1000
0001
0010
0000
,
0001
0010
1000
0010
0001
0100
1000
0100
,
0001
1000
0100
0000
1000
0001
0100
0000
0001
1000
0100
0000
1000
0001
0100
0000
,
0001
0000
1000
0000
0100
0100
0100
0000
,
1000
0100
1000
0000
0100
1000
0100
0000
0020
0000
0031
0010
0000
0000
0000
0000
,
0001
0100
0001
0000
0100
0001
0100
0000
0020
0000
0000
1030
0010
1000
0010
0100
,
0010
1000
0010
0000
0100
0001
0100
0000
0020
0000
1030
0100
0000
0000
0010
0000
,
0001
0010
0001
0000
1000
0010
1000
0000
0020
0000
0000
0130
0010
1000
0001
0010
,
0100
0000
0000
0000
,
0000
0000
0000
0000
;
#NOTES:
     dance-double:
     :
     Easy:
     6:
     :
00000000
00000000
00000000
00000000
,
00000000
00000000
00000000
00000000
,
00000000
00000000
00000000
00000000
,
00000000
00000000
00000000
00000000
,
00011000
00000000
00000000
00000000
,
00010000
00000100
00010000
00000000
,
00000010
00001000
00000010
00000000
,
00000100
00000001
00000100
00000000
,
00000001
00000101
00001100
00011000
,
00001000
00100000
00001000
00000000
,
01000000
00010000
01000000
00000000
,
00100000
10000000
00100000
00000000
,
10000000
00010000
00020000
01030000
,
00001000
00010000
00000100
00000000
,
00001000
00000010
00000100
00000000
,
00000001
00000010
00000100
00000000
,
00001000
00011000
00110000
01100000
,
10000000
00000000
00010000
01010000
,
00001000
00000000
00010000
00010100
,
00000100
00001000
00000001
00000010
,
00000200
00000000
00000000
00000000
,
00010300
00000000
00000000
00000000
,
00000000
00000000
00000000
00000000
,
10000000
00100000
01000000
00010000
,
00100000
00100000
00001000
00011000
,
00001020
00000000
00001000
00000000
,
00001000
00000000
00001030
00000000
,
00000201
00000000
00000001
00000000
,
00000001
00000000
00000301
00000000
,
00010200
00000000
00010000
00000000
,
00010000
00000000
00010300
00000000
,
00022000
00000000
00000000
00000000
,
00033000
00000000
00000000
00000000
,
00001000
00010000
00001000
00100000
,
00010000
00100000
01000000
10000000
,
00100000
01000000
00100000
01000000
,
01100000
00000000
00000000
00000000
,
20000000
00000000
31000000
00000000
,
00020000
00000000
00031000
00000000
,
00000020
00000000
00000031
00000000
,
00000200
00000000
00001300
00000000
,
00020000
00000000
00130000
00000000
,
20000000
00000000
30010000
00000000
,
00200000
00000000
00301000
00000000
,
00020000
00000000
00030010
00000000
,
00001000
00000000
00000001
00000000
,
00000010
00000000
00000100
00000000
,
00010000
00000000
00001000
00000000
,
00010000
00000000
01000000
00000000
,
10000000
10000000
00100000
00100000
,
01000000
01000000
00001000
00001000
,
00010000
00010000
00000010
00000010
,
00001000
00000001
00001001
00000000
,
00000001
00000100
00000001
00001000
,
00000100
00010000
00001000
00000000
,
00100000
00010000
10000000
00100000
,
10000000
01000000
00100000
00000000
,
00001000
00010000
00000100
00010000
,
00001000
00000010
00000001
00000100
,
00000010
00001000
00000001
00000100
,
00001000
00010000
00001000
00000000
,
00010000
00010000
00001000
01000000
,
00010000
00010000
00100000
00000000
,
01000000
01000000
10000000
00010000
,
00100000
00100000
00001000
00000000
,
00010000
00001000
00010000
00000100
,
00001000
00001000
00000001
00000000
,
00000010
00000100
00001000
00000100
,
00010000
00010000
00001000
00000000
,
01100000
00000000
00000000
00000000
,
10010000
00000000
00000000
00000000
,
00011000
00000000
00000000
00000000
,
00000001
00000101
00001100
00011000
,
01010000
00000000
00000000
00000000
,
00000000
00000000
00000000
00000000
;
#NOTES:
     dance-double:
     :
     Medium:
     11:
     :
00000000
00000000
00000000
00000000
,
00000000
00000000
00000000
00000000
,
00000000
00000000
00000000
00000000
,
00000000
00000000
00000000
00000000
,
00000001
00000001
00000001
00001010
,
00001000
00000100
00001000
00000000
00000100
00000000
00000100
00000000
,
00010000
00001000
00010000
00000000
00001000
00000000
00001000
00000000
,
00100000
00010000
00100000
00000000
00010000
00000000
00010000
00000000
,
10000000
10100000
00110000
01010000
,
00001000
00010000
00000100
00000000
00000010
00000000
00000001
00000000
,
00001000
00000100
00010000
00000000
00001000
00000000
01000000
00000000
,
00100000
10000000
01000000
00000000
00100000
00000000
00010000
00000000
,
01000000
00000000
00001000
00010000
00001000
00000000
00011000
00000000
,
00010000
00000100
00010000
00000100
00001000
00000000
00001010
00000000
,
00000001
00000100
00000001
00000100
00001000
00000000
00011000
00000000
,
00001000
00100000
00001000
00100000
00010000
00000000
01010000
00000000
,
10000000
11000000
01010000
00011000
,
00020000
00000000
00000000
00000000
00000000
00000000
00000000
00000000
00031000
00000000
00000000
00001100
00000000
00000000
00000000
00000000
,
00000002
00000000
00000000
00000000
00000000
00000000
00000000
00000000
00000013
00000000
00000000
00000110
00000000
00000000
00000000
00000000
,
00001000
00000100
00001000
00000100
00010000
00001000
00010000
00001000
,
01000000
00010000
00100000
01000000
10000000
00010000
00100000
00001000
,
00020000
00000010
00000010
00030010
,
00000200
00001000
00001000
00001300
,
00000001
00000001
00000010
00000010
00000100
00000100
00001000
00001000
,
00000010
00010000
00001000
00100000
00010000
00000000
10010000
00000000
,
10020000
00000000
00000000
00000000
00000000
00000000
00000000
00000000
01030000
00000000
00000000
01000000
00000000
00000000
01000000
00000000
,
00001000
00000000
00000000
00001000
00000000
00000000
00001000
00000000
00010000
00000000
00000000
00010000
00000000
00000000
00010000
00000000
,
00002000
00000000
00000000
00000000
00003200
00000000
00000000
00000000
00000301
00000000
00000000
00000001
00000000
00000000
00000001
00000000
,
00000010
00000000
00000000
00000010
00000000
00000000
00000010
00000000
00000001
00000000
00000100
00000000
00000010
00000000
00001000
00000000
,
00000200
00000000
00000000
00000000
00000000
00000000
00000000
00000000
00010300
00000000
00000000
00010000
00000000
00000000
00010000
00000000
,
00001000
00000000
00000000
00001000
00000000
00000000
00001000
00000000
01000000
00000000
00000000
01000000
00000000
00000000
01000000
00000000
,
00020000
00000000
00000000
10000000
00000000
00000000
10000000
00000000
00000000
10000000
00000000
00000000
10000000
00000000
00000000
00000000
,
00030000
00000000
01100000
10010000
,
00010000
00100000
00010000
00000000
01000000
00001000
01000000
00000000
,
00001000
00010000
00001000
00000000
00010000
00000010
00010000
00000000
,
00001000
00000100
00000001
00000000
00000010
00001000
00010000
00001000
,
00000000
00000000
00000000
00000000
,
00002000
00000000
00100000
00000000
00000000
00010000
00000000
00000000
,
01003000
00000000
00010000
10000000
,
00200000
00000000
00010000
00000000
00000000
01000000
00000000
00000000
,
10300000
00000000
00000000
00000000
00010000
00010000
01000000
01000000
,
00002000
00000000
00100000
00000000
00000000
00010000
00000000
00000000
,
00003100
00000000
00000001
00000010
,
00000200
00000000
00010000
00000000
00000000
00001000
00000000
00000000
,
00010300
00000000
00000000
00000000
00001000
00010000
00100000
01000000
,
00100000
00100000
10000000
10000000
,
01000000
01000000
00010000
00010000
,
00001000
00001000
00000010
00000010
,
00000001
00000000
00000001
00000000
00001000
00000100
00000200
00000000
,
00010300
00001000
00010000
00001000
01000000
00010000
01000000
00010000
,
10000000
00100000
10000000
00100000
01000000
00100000
01000000
00100000
,
10000000
01000000
00010000
00000000
00001000
00000010
00000001
00000000
,
00000100
00000010
00001000
00000100
00001100
00000000
00011000
00000000
,
00010000
00001000
01000000
00010000
00100000
01000000
10000000
00000000
,
00100000
01000000
00010000
00100000
00001000
00001000
00010000
00000000
,
00010000
00000100
00000010
00000100
00001000
00000001
00000100
00000000
,
00000010
00001000
00000100
00010000
00001000
00001000
00010000
00000000
,
00010000
00001000
01000000
00100000
10000000
00010000
10000000
00000000
,
00100000
01000000
00001000
00010000
00001000
00001000
00010000
00000000
,
00010000
00001000
00000100
00001000
00000100
00000001
00001000
00000000
,
00000100
00000010
00000100
00010000
00001000
00001000
00010000
00000000
,
00001000
00010000
01000000
00000000
10000000
00010000
01000000
00000000
,
00100000
00010000
00001000
00000000
00010000
00000100
00001000
00000000
,
00000010
00000100
00000001
00000000
00000010
00001000
00010000
00000000
,
00001000
01000000
00010000
01000000
00100000
00000000
10000000
00000000
,
00010000
00100000
00001000
00000000
00010000
00001000
00000010
00000000
,
00000100
00001000
00000001
00000000
00000100
00001000
00010000
00000000
,
00001000
00010000
00001000
00100000
00010000
01000000
00100000
10000000
,
02000000
00000000
10000000
00000000
03100000
00010000
00100000
00001000
,
00010000
00000000
00000000
00000000
00010000
00000000
00000000
00000000
00000010
00000000
00000000
00001000
00000000
00000000
00000001
00000000
,
00000010
00000000
00000000
00000000
00000010
00000000
00000000
00000000
00000100
00000000
00000000
00001000
00000000
00000000
00000010
00000000
,
00010000
00001000
00010000
00000000
00001000
00100000
00001000
00000000
,
01000000
01100000
10010000
00011000
,
00001001
00000000
00000000
00000000
,
00000000
00000000
00000000
00000000
;
#NOTES:
     dance-double:
     :
     Hard:
     15:
     :
00000000
00000000
00000000
00000000
,
00000000
00000000
00000000
00000000
,
00000000
00000000
00000000
00000000
,
00000000
00000000
00000000
00000000
,
01000000
00000000
00010000
00000000
00100000
00001000
00010000
00000000
,
00001000
00010000
00001000
00000000
00010000
00001000
00010000
00000000
00000100
00000000
00001000
00000000
00000001
00000000
00000000
00000000
,
00000010
00000100
00000010
00000000
00000100
00000010
00000100
00000000
00001000
00000000
00000100
00000000
00010000
00000000
00000000
00000000
,
00001000
00010000
00001000
00000000
00010000
00001000
00010000
00000000
00001000
00000000
00100000
00000000
00010000
00000000
00000000
00000000
,
10000000
00100000
10000000
00000000
00010000
01000000
00010000
00000000
10000000
00000000
01000000
00000000
00010000
00000000
00001000
00000000
,
00010000
00001000
00010000
00000000
00000100
00001000
00000100
00000000
00001000
00000000
00000010
00000000
00000100
00000000
00000000
00000000
,
00000001
00000010
00000001
00000000
00001000
00000100
00001000
00000000
00000001
00000000
00000100
00000000
00001000
00000000
00000000
00000000
,
00010000
00001000
00010000
00000000
00001000
00100000
00001000
00000000
00100000
00000000
00010000
00000000
10000000
00000000
00000000
00000000
,
00100000
01000000
00100000
00000000
01100000
00000000
00000000
00000000
01010000
00000000
00000000
00000000
00011000
00000000
00000000
00000000
,
00010000
00000000
00001000
00000000
00000100
00000000
00000001
00000000
00002000
00000000
00003010
00000100
00000000
00000000
00000001
00000000
,
00000010
00000000
00001000
00000000
00010000
00000000
00001000
00000000
02000000
00000000
03100000
10000000
00000000
00000000
00010000
00000000
,
01000000
00000000
00001000
00000000
00010000
00000000
00000010
00000000
00002000
00000000
00003001
00000010
00000000
00000000
00000001
00000000
,
00000100
00000010
00000100
00000000
00000010
00001000
00000010
00000000
00020000
00000000
00031000
00000000
00100000
00000000
00001000
00000000
,
02000000
00000000
00000000
00000000
00000000
00000000
03000000
00000000
00100000
00000000
00000000
10100000
00000000
00000000
00000000
00000000
,
00020000
00000000
00000000
00000000
00000000
00000000
00030000
00000000
00100000
00000000
00000000
00011000
00000000
00000000
00000000
00000000
,
00010000
00000100
00001000
00000100
00000010
00000001
00000100
00000010
,
00001000
00000000
00001000
00000000
00000100
00000000
00010000
00001000
00010000
00001000
00010000
00000000
00011000
00000000
00000000
00000000
,
00120000
01000000
10000000
00130000
,
00021000
00000010
00000100
00031000
,
00010000
00001000
00010000
00001000
00000100
00000010
00000100
00000010
,
00001000
00000001
00001000
00000000
00000001
00001000
00000001
00000000
00001000
00000000
00000100
00010000
00001000
00000000
00000000
00000000
,
00010000
00002000
00000000
00000000
00000000
00000000
00000000
00000000
00103000
00000000
00000000
00001000
00000000
00010000
00001000
00000000
,
01000000
00000000
00000000
00010000
00000000
10000000
00010000
00000000
00100000
00000000
00000000
01000000
00000000
00100000
00010000
00000000
,
10000000
00000000
00000000
00000000
01000000
00000000
00000000
00000000
00010000
00000000
00000000
00000000
00001000
00000000
00000000
00000000
00000010
00000000
00000000
00000000
00000001
00000000
00000000
00000000
00000010
00000000
00000000
00000000
00000000
00000000
00000000
00000000
00000000
00000100
00000000
00000000
00000000
00000000
00000000
00000010
00000000
00000000
00000001
00000000
00000000
00000000
00000000
00000000
,
00001000
00000010
00010000
00000000
00011000
00000000
01010000
00000000
,
10000000
00100000
00000000
00000000
00100000
10000000
00000000
00000000
00010000
00000000
10000000
01000000
00000000
00100000
00010000
00000000
,
01000000
00000000
00001000
00010000
00000000
00000010
00001000
00000000
00000100
00000000
00000010
00000001
00000000
00000100
00000010
00000000
,
00000220
00000000
00000330
00000000
00001010
00000000
00000000
00011000
00000000
00000000
00110000
00000000
00000000
01100000
00000000
00000000
,
00000000
10000000
01000000
00100000
00010000
00000000
00011000
00000000
,
00001000
00010000
00001000
00010000
00001000
00000000
00010000
00000000
00000100
00000000
00001000
00000010
00000000
00001000
00000001
00000000
,
00000010
00000000
00000100
00001000
00000000
00000100
00010000
00000000
00001000
00000000
00020000
00000000
00230000
00000000
20300000
00000000
,
30010000
00100000
00000000
00100000
00001000
00000000
00010000
00000000
00000010
00001000
00000000
00001000
00000001
00000000
00000220
00000000
,
00000000
00000000
00000000
00000000
00000000
00000000
00000000
00000000
00000000
00000000
00000000
00000330
00000000
00000000
00000000
00000000
,
00001000
00000000
00011000
00000000
00000000
00101000
00000000
00000000
,
02200000
00000000
00000000
03300000
,
10000000
00000000
01010000
00000000
00000000
00011000
00000000
00000000
,
00002020
00000000
00000000
00003000
00001000
00001030
00000001
00000100
,
00000010
00000000
00001010
00000000
00000000
00011000
00000000
00000000
,
20020000
00000000
00000000
00000000
00000000
00000000
00000000
00000000
00000000
00000000
00000000
00000000
00000000
30030000
00000000
00000000
,
00010000
00000000
00101000
00000000
00000000
00011000
00000000
00000000
,
00002002
00000000
00000000
00000003
00000001
00003001
00000010
00000001
,
00000100
00000100
00001000
00001000
,
00010000
00010000
01000000
01000000
,
10000000
00100000
01000000
00010000
,
00100000
00000000
00001000
00000000
00010000
00001000
00000010
00000000
,
00000001
00000100
00000000
00000000
00000100
00001000
00000000
00000000
00001000
00010000
00000000
00000000
00010000
01000000
00000000
00000000
,
01000000
10000000
00000000
00000000
10000000
00100000
00000000
00000000
00100000
01000000
00000000
00000000
01000000
00010000
00000000
00000000
,
10000000
01000000
00010000
00001000
00000010
00000001
00000100
00000001
,
00001000
00000100
00001000
00000000
00000100
00010000
00000100
00000000
00010000
00000000
00000000
00000000
00011000
00000000
00000000
00000000
,
00001000
00100000
00000000
00100000
00010000
10000000
00000000
10000000
00000000
00100000
00000000
01000000
00100000
01000000
00000000
00010000
,
00000000
00100000
00000000
00001000
00010000
00001000
00000000
00010000
00000000
00000100
00010000
00000000
00001000
00000000
00000010
00000000
,
00000100
00000010
00000000
00000010
00000001
00001000
00000000
00001000
00000000
00000100
00000000
00010000
00001000
00010000
00000000
00001000
,
00000000
01000000
00000000
00010000
01000000
00010000
00000000
10000000
00000000
01000000
10000000
00000000
00100000
00000000
00100000
00000000
,
01000000
00010000
00000000
00010000
00100000
00001000
00000000
00001000
00000000
00010000
00000000
00000010
00001000
00000010
00000000
00001000
,
00000000
00000100
00000000
00000010
00000001
00000010
00000000
00000001
00000000
00001000
00000100
00000000
00010000
00000000
00001000
00000000
,
00100000
00001000
00000000
00001000
00100000
00010000
00000000
00010000
00000000
10000000
00000000
00100000
01000000
00100000
00000000
10000000
,
02000000
00000000
03020000
00000000
00031000
00010000
00001000
00010000
,
00001000
00000010
00000100
00000001
00000100
00001000
00000010
00100000
,
00010000
00000000
01000000
00000000
00100000
00000000
10000000
00000000
01000000
00100000
01000000
00000000
10000000
00000000
00010000
00000000
,
10000000
00100000
01000000
00010000
00100000
00001000
00000010
00000001
,
00000100
00000010
00000100
00000000
00000010
00001000
00000010
00000000
00001000
00000000
00000100
00000000
00000010
00000000
00000001
00000000
,
00000100
00001000
00010000
00100000
10000000
00010000
00100000
10000000
,
00100000
00010000
00001000
00000100
00000001
00000100
00001000
00000010
,
00010000
00001000
00010000
00000000
00001000
00100000
00010000
00000000
10000000
00100000
10000000
00000000
00010000
00100000
00001000
00000000
,
00010000
00000000
00000010
00000000
00001000
00001000
00001000
00000000
,
00000001
00001000
00000001
00000000
00001000
00000100
00001000
00000000
00000200
00000000
00010300
00001000
00000000
00000000
00000000
00000000
,
00100000
00001000
00100000
00000000
00010000
01000000
00010000
00000000
20000000
00000000
30000000
00100000
10000000
00100000
10000000
00000000
,
00010000
01000000
00010000
00000000
01000000
00001000
01000000
00000000
00002000
00000000
00013000
00001000
00000000
00000000
00010000
00000000
,
00000100
00001000
00000100
00000000
00001000
00000001
00001000
00000000
00000002
00000000
00000003
00001000
00000100
00010000
00000100
00010000
,
00001000
00000000
00000000
00000000
,
00000000
00000000
00000000
00000000
;
