
//----- song ID: pref -----//
#TITLE:Prettiful!;
#ARTIST:BlackY;
#BANNER:Prettiful!.png;
#BACKGROUND:Prettiful!-bg.png;
#CDTITLE:./CDTitles/DANCE aROUND.png;
#MUSIC:Prettiful!.ogg;
#SAMPLESTART:16.744;
#SAMPLELENGTH:15;
#BPMS:0=129;
#STAGE:5;
#NOTES:
     dance-single:
     :
     Beginner:
     2:
     :
0000
0000
0000
0000
,
0000
0000
0000
0000
,
0000
0000
0000
0000
,
0000
0000
0000
0000
,
0000
0000
0000
0000
,
0001
0000
0010
0000
,
1000
0000
0010
0000
,
1001
0000
0000
0000
,
1001
0000
0000
0000
,
0010
0000
0000
0000
,
0010
0000
0000
0000
,
0010
0000
0000
0000
,
0010
0000
0000
0000
,
0100
0000
0000
0000
,
0100
0000
0000
0000
,
1000
0000
0001
0000
,
0010
0000
0100
0000
,
0001
0000
0000
0000
,
1000
0000
0001
0000
,
0010
0000
0000
0000
,
0100
0000
0000
0000
,
1000
0000
0000
0000
,
0001
0000
1000
0000
,
0010
0000
0000
0000
,
0100
0000
0000
0000
,
1000
0000
0000
0000
,
0001
0000
0000
0000
,
1000
0000
0000
0000
,
0001
0000
0000
0000
,
1000
0000
0000
0000
,
0001
0000
0000
0000
,
1000
0000
0000
0000
,
0001
0000
0010
0000
,
0000
0000
0010
0000
,
0000
0000
0100
0000
,
0100
0000
1001
0000
,
0000
0000
0010
0000
,
0000
0000
0010
0000
,
0000
0000
0100
0000
,
0000
0000
0100
0000
,
0000
0000
0001
0000
,
0100
0000
1000
0000
,
0000
0000
1001
0000
,
0000
0000
1001
0000
,
0000
0000
0010
0000
,
0000
0000
0010
0000
,
0000
0000
0010
0000
,
1000
0000
0010
0000
,
0001
0000
0010
0000
,
0000
0000
0010
0000
,
0000
0000
0001
0000
,
1000
0000
0010
0000
,
0100
0000
0001
0000
,
0001
0000
0010
0000
,
0010
0000
0001
0000
,
0001
0000
1000
0000
,
1000
0000
0001
0000
,
0010
0000
0010
0000
,
0100
0000
1000
0000
,
1000
0000
0001
0000
,
0001
0000
0000
0000
,
0000
0000
0000
0000
;
#NOTES:
     dance-single:
     :
     Easy:
     5:
     :
0000
0000
0000
0000
,
0000
0000
0000
0000
,
0000
0000
0000
0000
,
0000
0000
0000
0000
,
0000
0000
0000
0000
,
0001
1000
0010
0000
,
1000
0001
0010
1001
,
0000
1001
0000
0000
,
1001
0000
1000
0001
,
0010
0000
0010
0000
,
0010
0000
0010
0000
,
0010
0000
1000
0000
,
0010
0000
0001
0000
,
0100
0000
0100
0000
,
0100
0000
0100
0000
,
1000
0000
0001
0000
,
0010
1001
0100
0000
,
0001
0000
0010
0000
,
1000
0000
0001
0000
,
0010
0000
0010
0000
,
0100
0000
0100
0000
,
1000
0000
0010
0000
,
0001
0000
1000
0000
,
0010
0000
0010
0000
,
0100
0000
0100
0000
,
1000
1000
1000
0000
,
0001
0001
0001
0000
,
1000
0000
1000
0000
,
0001
0000
0001
0000
,
1000
1000
1000
0000
,
0001
0001
0001
0000
,
1000
1000
1000
0000
,
0001
1000
0010
0000
,
1001
0000
0010
0000
,
1001
0000
0100
0010
,
0100
0010
1001
0000
,
0000
0000
0010
0000
,
0010
0000
0010
0000
,
0010
0000
0100
0000
,
0100
0000
0100
0000
,
0100
0000
0001
1000
,
0100
0000
1000
0001
,
0100
1001
0000
1001
,
0000
1001
1001
0010
,
1000
0001
0010
0000
,
0010
0000
0010
0000
,
0010
0000
0010
0000
,
1000
0000
0010
0000
,
0001
0000
0010
0000
,
0010
0000
0010
0000
,
0010
0000
0001
0000
,
1000
0000
0010
1001
,
0100
0000
0011
0000
,
0011
0000
0010
0100
,
0010
0000
0001
0001
,
0001
0001
1000
1000
,
1000
1000
0001
0000
,
0011
0000
0010
0010
,
0100
0100
1000
1000
,
1000
1000
0001
0001
,
0001
1001
0000
0000
,
0000
0000
0000
0000
;
#NOTES:
     dance-single:
     :
     Medium:
     10:
     :
0000
0000
0000
0000
,
0000
0000
0000
0000
,
0000
0000
0000
0000
,
0000
0000
0000
0000
,
0000
0000
0000
0000
,
0001
0000
1000
0100
0010
0100
1000
0000
,
1000
0000
0001
0100
0010
0100
0001
0000
,
1000
0001
1000
0000
0010
0100
0010
0000
,
1000
0001
1000
0001
1000
0000
0001
0000
,
0010
0000
0001
0100
0010
0000
0110
0000
,
0010
0000
1000
0100
0010
0000
0100
1000
,
0010
0000
1000
0100
1000
0000
1001
0000
,
0010
0000
0001
0100
0001
0000
0010
0001
,
0100
0000
0010
1000
0100
0000
0110
0000
,
0100
0000
0010
0001
0100
0000
0001
0100
,
1000
0000
0100
0001
1000
0000
1001
0000
,
0010
0000
1000
0001
0100
0000
1001
0000
,
0001
0000
1000
0000
0000
0001
0000
0000
0010
0000
0000
0100
0000
0000
1000
0000
,
0001
0000
1000
0000
0000
0010
0000
0000
0100
0000
0000
0001
0000
0000
0010
0000
,
0100
0000
0010
0000
0000
0001
0000
0000
0100
0000
0000
0010
0000
0000
1000
0000
,
0100
0000
1000
0000
0000
0001
0000
0000
0100
0000
0000
0010
0000
0000
1000
0000
,
0001
0000
0100
0000
0000
0010
0000
0000
1000
0000
0000
0100
0000
0000
0001
0000
,
0100
0000
1000
0000
0000
0001
0000
0000
1000
0000
0000
0010
0000
0000
0001
0000
,
0010
0000
1000
0000
0000
0001
0000
0000
0010
0000
0000
0100
0000
0000
0010
0000
,
0110
0000
0000
1001
0000
0000
0000
0000
1001
0000
0000
0110
0000
0000
0000
0000
,
1000
0000
1000
0100
1000
0000
0001
0000
,
0011
0000
1001
0000
0001
0010
0100
0000
,
1000
0010
1000
0000
1000
0001
1000
0000
,
0001
0010
0100
0010
0001
0000
0100
0000
,
0001
0000
0001
0010
0001
0000
1000
0000
,
1010
0000
1001
0000
1000
0010
0100
0000
,
0001
0010
0001
0000
0001
1000
0001
0000
,
1000
0010
0100
0010
1000
0000
1000
0000
,
0001
0000
0001
0000
0010
0001
0010
0001
,
1000
0010
1000
0010
0100
0001
0010
0100
,
1000
0001
0010
0100
1000
0000
0000
0000
,
0000
0000
0000
0000
0001
0000
1000
0010
,
1000
0000
0001
0000
0100
0010
0100
0010
,
0100
0000
0010
1000
0100
0000
1000
0001
,
1000
0000
0001
0000
0010
0100
0010
0100
,
0010
0000
0100
1000
0001
0000
1000
0010
,
0100
0000
0001
0000
1000
0100
0001
0100
,
1000
0000
1000
0001
1000
0000
1001
0000
,
0010
1001
1001
0110
,
1000
0000
0001
0000
0010
0000
0001
0100
,
0010
0000
0110
0000
1000
0000
0010
0100
,
0010
0000
1000
0001
0010
0000
0100
1000
,
0010
0000
0110
0000
0001
0000
0010
0100
,
0010
0000
0001
1000
0010
0000
0100
0001
,
0010
0000
0110
0000
1000
0000
0001
0100
,
0010
0000
1000
0100
0001
0000
0100
1000
,
0001
0000
1001
0000
1000
0000
0001
0010
,
1000
0010
0011
1000
,
0011
0000
1000
0000
0010
1000
0100
1000
,
0010
1000
1010
0001
,
1010
0000
0001
0000
1000
0010
1000
0001
,
1000
0100
0001
0000
0110
0000
1000
0000
,
1010
0000
0001
0000
0100
0001
0100
0001
,
1000
0010
0110
0001
,
0110
0000
1000
0000
0001
1000
0001
0010
,
0100
1001
0000
0000
,
0000
0000
0000
0000
;
#NOTES:
     dance-single:
     :
     Hard:
     15:
     :
0000
0000
0000
0000
,
0000
0000
0000
0000
,
0000
0000
0000
0000
,
0000
0000
0000
0000
,
0000
0000
0000
0000
,
2000
0000
3000
0010
0000
1000
0001
1000
0000
0001
0010
0100
0010
0000
0001
0000
,
0200
0000
0300
0001
0000
0010
0100
0010
0000
0100
1000
0001
1000
0000
0010
0000
,
2000
0000
3001
0100
0002
0000
0103
0010
0200
0000
0310
1000
0020
0000
1030
0100
,
2000
3000
0002
0003
0020
0030
0200
0300
0110
0000
0000
0000
1100
0000
0000
0000
,
1001
0000
0000
0000
1000
0000
0010
0000
0200
0000
0000
0000
0301
0010
0100
0000
,
1000
0000
0010
0100
0010
0000
0100
0000
0001
0000
0000
0000
1000
0100
0010
0001
,
0010
0000
0001
0100
0020
0000
1030
0010
,
0100
0000
0010
1000
0010
0000
0100
0000
0001
0000
0010
0001
1000
0100
0010
0001
,
1000
0000
0000
0000
0001
0000
0010
0000
0200
0000
0000
0000
1300
0010
0100
0000
,
0001
0000
0010
0100
0010
0000
0100
0000
1000
0000
0000
0000
0001
0100
0010
1000
,
0010
0000
1000
0100
0020
0000
0031
0010
,
0100
0000
0010
0001
0010
0000
0100
0000
1000
0010
1000
0010
0100
0001
0010
0100
,
1000
0000
0001
0000
0100
0010
0100
0000
0001
0010
0001
0010
0100
0000
1000
0000
,
0002
0103
0000
0100
2000
3100
0000
0100
0002
0103
0000
0100
2000
3100
0010
0100
,
0001
0000
1000
0010
1000
0000
0001
0000
0100
0010
0000
1000
0010
0100
0010
0000
,
2000
3100
0000
0100
0002
0103
0000
0100
2000
3100
0000
0100
0002
0103
0010
0001
,
1000
0000
0001
0000
0010
0100
0010
0000
0001
0100
0001
0100
0010
0000
1000
0000
,
0002
0013
0000
0010
2000
3010
0000
0010
0002
0013
0000
0010
2000
3010
0100
0010
,
0001
0000
1000
0010
1000
0000
0001
0000
0010
0100
0000
1000
0100
0010
0100
0000
,
0110
0000
0000
0011
0000
1000
0010
0000
1010
0000
0000
0110
0001
0000
0010
0000
,
0001
0000
1000
0010
0100
0010
1000
0000
0001
0100
0000
0100
0010
1000
0001
0000
,
0010
0000
0001
1000
0001
1000
0100
0000
1000
0010
0000
0010
1000
0100
0010
0001
,
0010
0000
0001
0100
0001
0100
0010
0000
1000
0001
0000
0001
1000
0010
0100
0001
,
1000
0000
0010
0100
0010
0100
0001
1000
0010
1000
0000
1000
0001
0010
0100
1000
,
0001
0000
1000
0010
1000
0010
0100
0000
0001
1000
0000
1000
0010
0100
0010
0000
,
1000
0000
0100
0010
0000
0001
0000
0101
0000
1010
0000
0110
0000
1000
0001
0000
,
1000
0100
0010
0001
1000
0100
0010
0100
1000
0001
0010
0100
1000
0001
0010
0001
,
0100
0010
1000
0001
0100
0010
1000
0001
0100
0000
0000
0000
0100
0000
0000
0000
,
0010
0000
0010
0000
1010
1010
1010
1010
,
1001
0000
1001
0000
1001
0000
1001
0000
0001
0010
0001
0010
0100
1000
0100
1000
,
0010
0100
0010
0100
0001
0100
0010
1000
0001
0000
0000
0000
0000
0000
0000
0000
,
0000
0000
0000
0000
1000
0100
0010
0001
0020
0000
0000
0000
0031
0000
0100
0000
,
0020
0000
0000
0000
1030
0001
0100
0000
0001
0000
1000
0010
1000
0000
0001
0000
,
0200
0000
0000
0000
0301
0010
0100
1000
0002
0000
0000
0000
1003
0000
0010
0000
,
0200
0000
0000
0000
0301
0000
0010
0000
0001
0000
1000
0010
1000
0000
0001
0000
,
0200
0000
0000
0000
0310
1000
0100
0010
0002
0000
0000
0000
0103
0000
0010
0000
,
2000
0000
0000
0000
3001
0010
0100
0000
1000
0000
0010
0100
0010
0000
1000
0000
,
0020
0000
0000
0000
0130
0001
0010
0100
1000
0000
0010
0000
1000
0000
0010
0000
,
0100
0000
0001
0000
0010
0000
0100
0000
1000
0000
0010
0100
0010
0000
0100
0000
,
0101
0000
0000
0000
1001
0000
0000
0000
1000
0100
0000
0100
0010
0000
0100
0000
,
1000
0010
0000
0010
0100
0000
0001
0000
1000
0000
0010
0100
0010
0000
0100
0000
,
0001
0010
0000
0010
0001
0100
0010
1000
0001
0010
0000
0010
0100
0000
0010
0000
,
0001
0100
0000
0100
0010
0000
1000
0000
0001
0000
0100
0010
0100
0000
0010
0000
,
1000
0001
0000
0001
1000
0100
0010
0001
0100
0010
0000
0010
1000
0000
0001
0000
,
0010
0100
0000
0100
0010
0000
0001
0000
0100
0000
0010
1000
0010
0000
1000
0000
,
0001
0010
0000
0010
0001
0100
0010
1000
0001
0100
0000
0100
0001
0000
1000
0000
,
0100
0010
0000
0010
0001
0000
1000
0000
0010
0000
0100
0001
0100
0000
0010
0000
,
1000
0100
0000
0100
1000
0001
0010
0100
2000
0000
3100
0001
0000
0001
0000
0001
,
0000
0100
0010
0100
1000
0000
1100
0000
0002
0000
0013
1000
0000
1000
0000
1000
,
0000
0010
0100
0010
0001
0000
0011
0000
2000
0000
3010
0001
0000
0001
0000
0001
,
0000
0010
1000
0100
0010
0000
0110
0000
0002
0000
0103
1000
0000
1000
0000
1000
,
0002
0003
0020
0030
2000
3000
0002
0003
0020
0000
0130
1000
0000
1000
0000
1000
,
0000
0001
0100
1000
0100
0000
0110
0000
0002
0000
0013
0100
0000
0100
0000
0100
,
0000
1000
0010
0001
0010
0000
0110
0000
2000
0000
3100
0010
0000
0010
0000
0010
,
0000
0001
0010
1000
0010
0000
0110
0000
0002
0000
1003
0100
0000
0100
0000
0100
,
0000
1000
0010
0100
0001
0000
0000
0000
0000
0000
0000
0000
0000
0000
0000
0000
,
0000
0000
0000
0000
;
#NOTES:
     dance-double:
     :
     Easy:
     4:
     :
00000000
00000000
00000000
00000000
,
00000000
00000000
00000000
00000000
,
00000000
00000000
00000000
00000000
,
00000000
00000000
00000000
00000000
,
00000000
00000000
00000000
00000000
,
00000001
00001000
00000010
00000000
,
00010000
00001000
00010000
00011000
,
00000000
00011000
00000000
00000000
,
10010000
00000000
10000000
00010000
,
00100000
00000000
00010000
00000000
,
00001000
00000000
00000010
00000000
,
00000001
00000000
00001000
00000000
,
00000100
00000000
00000001
00000000
,
00001000
00000000
00010000
00000000
,
00100000
00000000
01000000
00000000
,
10000000
00000000
00010000
00000000
,
00100000
10010000
01000000
00000000
,
00001000
00000000
00010000
00000000
,
00000010
00000000
00001000
00000000
,
00000100
00000000
00000100
00000000
,
00000010
00000000
00000010
00000000
,
00010000
00000000
00001000
00000000
,
01000000
00000000
00010000
00000000
,
00100000
00000000
00100000
00000000
,
01000000
00000000
01000000
00000000
,
10000000
10000000
10000000
00000000
,
00001000
00001000
00001000
00000000
,
00010000
00000000
00010000
00000000
,
00000001
00000000
00000001
00000000
,
00001000
00001000
00001000
00000000
,
00000001
00000001
00000001
00000000
,
00010000
00010000
00010000
00000000
,
00001000
00100000
00010000
00000000
,
10010000
00000000
00100000
00000000
,
10010000
00000000
01000000
00010000
,
00100000
00001000
00011000
00000000
,
00000000
00000000
00000010
00000000
,
00000010
00000000
00000100
00000000
,
00000100
00000000
00010000
00000000
,
00010000
00000000
00001000
00000000
,
00001000
00000000
00100000
00010000
,
10000000
00000000
00010000
00100000
,
00001000
00011000
00000000
00011000
,
00000000
00001001
00001001
00000010
,
00001000
00000001
00000100
00000000
,
00000100
00000000
00010000
00000000
,
00010000
00000000
00001000
00000000
,
01000000
00000000
00010000
00000000
,
10000000
00000000
00100000
00000000
,
00100000
00000000
01000000
00000000
,
01000000
00000000
00001000
00000000
,
00010000
00000000
00000010
00001001
,
00000100
00000000
00001100
00000000
,
00001100
00000000
00010000
00001000
,
00010000
00000000
00100000
00100000
,
00100000
00100000
01000000
01000000
,
01000000
01000000
00010000
00000000
,
00110000
00000000
00001000
00001000
,
00010000
00010000
00000100
00000100
,
00000100
00000100
00001000
00001000
,
00001000
00001001
00000000
00000000
,
00000000
00000000
00000000
00000000
;
#NOTES:
     dance-double:
     :
     Medium:
     10:
     :
00000000
00000000
00000000
00000000
,
00000000
00000000
00000000
00000000
,
00000000
00000000
00000000
00000000
,
00000000
00000000
00000000
00000000
,
00000000
00000000
00000000
00000000
,
00001000
00000000
00010000
00001000
00100000
00010000
10000000
00000000
,
00010000
00000000
01000000
00010000
00100000
00001000
00010000
00000000
,
00000100
00001000
00000100
00000000
00001000
00000010
00001000
00000000
,
00000001
00000010
00000001
00000010
00000001
00000000
00001000
00000000
,
00000100
00000000
00010000
00001000
00010000
00000000
00101000
00000000
,
00001000
00000000
01000000
00100000
10000000
00000000
00010000
00100000
,
00001000
00000000
00010000
00001000
00010000
00000000
00010100
00000000
,
00001000
00000000
00000010
00000100
00000001
00000000
00001000
00000010
,
00010000
00000000
00001000
00010000
00001000
00000000
01001000
00000000
,
00010000
00000000
00100000
01000000
10000000
00000000
00010000
01000000
,
00001000
00000000
00010000
00001000
00010000
00000000
00010010
00000000
,
00001000
00000000
00000100
00000010
00000001
00000000
00001000
00000000
,
00000001
00000000
00000100
00000000
00000000
00000001
00000000
00000000
00000100
00000000
00000000
00001000
00000000
00000000
00010000
00000000
,
00001000
00000000
00010000
00000000
00000000
00001000
00000000
00000000
00010000
00000000
00000000
00100000
00000000
00000000
10000000
00000000
,
00010000
00000000
01000000
00000000
00000000
00010000
00000000
00000000
10000000
00000000
00000000
01000000
00000000
00000000
00100000
00000000
,
00010000
00000000
10000000
00000000
00000000
01000000
00000000
00000000
00010000
00000000
00000000
00001000
00000000
00000000
00000010
00000000
,
00000001
00000000
00001000
00000000
00000000
00000100
00000000
00000000
00010000
00000000
00000000
00001000
00000000
00000000
01000000
00000000
,
00010000
00000000
00100000
00000000
00000000
01000000
00000000
00000000
10000000
00000000
00000000
00010000
00000000
00000000
00100000
00000000
,
00001000
00000000
00010000
00000000
00000000
00000100
00000000
00000000
00001000
00000000
00000000
00000001
00000000
00000000
00000100
00000000
,
00000110
00000000
00000000
00001010
00000000
00000000
00000000
00000000
00011000
00000000
00000000
00101000
00000000
00000000
00000000
00000000
,
00010000
00000000
00010000
01000000
00010000
00000000
10000000
00000000
,
00100000
00000000
01000000
00000000
00010000
00100000
00001000
00000000
,
00010000
00000100
00010000
00000000
00001000
00000010
00001000
00000000
,
00000001
00000100
00000010
00000100
00000001
00000000
00001000
00000000
,
00000010
00000000
00000010
00010000
00000010
00000000
00010000
00000000
,
00001000
00000000
00100000
00000000
00010000
10000000
00100000
00000000
,
10000000
00010000
10000000
00000000
10000000
00100000
10000000
00000000
,
00010000
00100000
00001000
00010000
00000010
00000000
00000010
00000000
,
00001000
00000000
00001000
00000000
00000001
00000100
00000001
00000000
,
00001000
00000100
00001000
00000000
00000100
00010000
00001000
00010000
,
00001000
01000000
00010000
01000000
00100000
00000000
00000000
00000000
,
00000000
00000000
00000000
00000000
10000000
00000000
00010000
00100000
,
00010000
00000000
01000000
00000000
00001000
00010000
00001000
00010000
,
00001000
00000000
00010000
00000010
00001000
00000000
00000001
00000010
,
00000001
00000000
00000100
00000000
00000010
00001000
00000010
00001000
,
00000010
00000000
00010000
00001000
01000000
00000000
00010000
10000000
,
01000000
00000000
10000000
00000000
01000000
00010000
00001000
00000010
,
00000001
00000000
00001000
00000100
00001000
00000000
00001001
00000000
,
00000100
00010100
00011000
00110000
,
10000000
00000000
00010000
00000000
00100000
00000000
00010000
01000000
,
00100000
00000000
01100000
00000000
10000000
00000000
00010000
01000000
,
00010000
00000000
00100000
00001000
00010000
00000000
00000010
00001000
,
00000100
00000000
00000110
00000000
00000001
00000000
00001000
00000010
,
00001000
00000000
00000100
00010000
00001000
00000000
00100000
00010000
,
10000000
00000000
10010000
00000000
00010000
00000000
01000000
00001000
,
00010000
00000000
00001000
00000100
00000001
00000000
00001000
00000100
,
00010000
00000000
00011000
00000000
00001000
00000000
00010000
01000000
,
10000000
00010000
00110000
10000000
,
00011000
00000000
00100000
00000000
00001000
00010000
00000010
00001000
,
00000001
00001000
00001100
00000001
,
00011000
00000000
00000100
00000000
00010000
00001000
00100000
00010000
,
10000000
00010000
01100000
10000000
,
10100000
00000000
00010000
00000000
00100000
00001000
00010000
00001000
,
00010000
00000010
00000110
00001000
,
00000110
00000000
00000001
00000000
00000100
00001000
00010000
00100000
,
10000000
10010000
00000000
00000000
,
00000000
00000000
00000000
00000000
;
#NOTES:
     dance-double:
     :
     Hard:
     15:
     :
00000000
00000000
00000000
00000000
,
00000000
00000000
00000000
00000000
,
00000000
00000000
00000000
00000000
,
00000000
00000000
00000000
00000000
,
00000000
00000000
00000000
00000000
,
00020000
00000000
00030000
00001000
00000000
00010000
00000100
00001000
00000000
00000001
00000010
00000100
00000010
00000000
00000001
00000000
,
00002000
00000000
00003000
00000100
00000000
00010000
00001000
00100000
00000000
00010000
01000000
00100000
01000000
00000000
00010000
00000000
,
20000000
00000000
31000000
00100000
02000000
00000000
03100000
00010000
00200000
00000000
00301000
00010000
00002000
00000000
00013000
00000010
,
00020000
00030000
00000200
00000300
00002000
00003000
00000020
00000030
00001010
00000000
00000000
00000000
00000101
00000000
00000000
00000000
,
00001001
00000000
00000000
00000000
00001000
00000000
00000010
00000000
00020000
00000000
00000000
00000000
00031000
00010000
00001000
00000000
,
01000000
00000000
00010000
00100000
00010000
00000000
10000000
00000000
00100000
00000000
00000000
00000000
10000000
01000000
00100000
00010000
,
00100000
00000000
00001000
00010000
00000020
00000000
00001030
00000001
,
00000010
00000000
00000100
00001000
00000100
00000000
00001000
00000000
00000001
00000000
00000000
00000000
00001000
00000100
00010000
00001000
,
00100000
00000000
00000000
00000000
00010000
00000000
00100000
00000000
02000000
00000000
00000000
00000000
13000000
00010000
01000000
00000000
,
00001000
00000000
00010000
00001000
00010000
00000000
00000100
00000000
00001000
00000000
00000000
00000000
00000001
00000010
00000100
00001000
,
00000100
00000000
00010000
00001000
02000000
00000000
03010000
10000000
,
00100000
00000000
01000000
00010000
01000000
00000000
00010000
00000000
00100000
00001000
00100000
00001000
00010000
00000100
00001000
00000001
,
00000010
00000000
00000001
00000000
00001000
00000100
00001000
00000000
00000010
00010000
00000010
00010000
00001000
00000000
00100000
00000000
,
00020000
01030000
00000000
01000000
20000000
31000000
00000000
01000000
00020000
01030000
00000000
01000000
20000000
31000000
00010000
01000000
,
00001000
00000000
00010000
00000000
01000000
00000000
10000000
00000000
00010000
01000000
00000000
01000000
00001000
00010000
00000010
00000000
,
00002000
00003100
00000000
00000100
00000002
00000103
00000000
00000100
00002000
00003100
00000000
00000100
00000002
00000103
00001000
00000100
,
00010000
00000000
00001000
00000000
01000000
00010000
01000000
00000000
00001000
00010000
00001000
00010000
00000100
00000000
00001000
00000000
,
00000002
00000013
00000000
00000010
00002000
00003010
00000000
00000010
00000002
00000013
00000000
00000010
00002000
00003010
00000100
00001000
,
00000001
00000000
00000100
00000000
00001000
00000000
00010000
00000000
00001000
00100000
00000000
00100000
00010000
10000000
01000000
00000000
,
01100000
00000000
00000000
00110000
00000000
00001000
00010000
00000000
00011000
00000000
00000000
00001100
00000001
00000000
00000010
00000000
,
00000001
00000000
00001000
00000000
00000100
00000000
00010000
00000000
00001000
00100000
00000000
00100000
00010000
10000000
01000000
00000000
,
10000000
00000000
00010000
01000000
00010000
01000000
00001000
00000000
00010000
00000010
00000000
00000010
00001000
00000000
00000001
00000000
,
00001000
00000000
00000100
00010000
00000100
00010000
00001000
00000000
01000000
00010000
00000000
00010000
10000000
00000000
00100000
00000000
,
01000000
00000000
00001000
00010000
00001000
00010000
00000100
00001000
00000001
00001000
00000000
00001000
00000010
00000000
00000100
00000000
,
00000001
00000000
00001000
00000010
00001000
00000010
00010000
00000000
00001000
01000000
00000000
01000000
00010000
00000000
00100000
00000000
,
00010000
00000000
10000000
01000000
00000000
00010000
00000000
00011000
00000000
00001010
00000000
00000011
00000000
00000001
00001000
00000000
,
00000001
00000010
00000100
00001000
00000100
00010000
00001000
00010000
00001000
01000000
00010000
00100000
01000000
10000000
00100000
01000000
,
00010000
01000000
00001000
00010000
00000010
00001000
00000001
00001000
00000100
00000000
00000000
00000000
00000100
00000000
00000000
00000000
,
00010000
00000000
00010000
00000000
00011000
00011000
00011000
00011000
,
00101000
00000000
00101000
00000000
00110000
00000000
00110000
00000000
10000000
01000000
10000000
01000000
00100000
00010000
00100000
00010000
,
01000000
00001000
00010000
00001000
00010000
00000010
00001000
00000100
00000010
00000000
00000000
00000000
00000000
00000000
00000000
00000000
,
00000000
00000000
00000000
00000000
00000001
00000100
00000010
00001000
00000200
00000000
00000000
00000000
00010300
00000000
00001000
00000000
,
00020000
00000000
00000000
00000000
00031000
00100000
00010000
00000000
10000000
00000000
00100000
01000000
00100000
00000000
10000000
00000000
,
00020000
00000000
00000000
00000000
10030000
01000000
00100000
00010000
00200000
00000000
00000000
00000000
00301000
00000000
00010000
00000000
,
00000020
00000000
00000000
00000000
00001030
00000000
00000001
00000000
00001000
00000000
00000100
00000010
00000100
00000000
00001000
00000000
,
00000002
00000000
00000000
00000000
00001003
00000010
00010000
00001000
02000000
00000000
00000000
00000000
03010000
00000000
10000000
00000000
,
00200000
00000000
00000000
00000000
01300000
00010000
00100000
00000000
00001000
00000000
00010000
00001000
00010000
00000000
00000100
00000000
,
00002000
00000000
00000000
00000000
00003001
00000010
00000100
00001000
00000010
00000000
00010000
00000000
00000010
00000000
00010000
00000000
,
00001000
00000000
00100000
00000000
00010000
00000000
10000000
00000000
00010000
00000000
00100000
00001000
00100000
00000000
00001000
00000000
,
00011000
00000000
00000000
00000000
00001010
00000000
00000000
00000000
00000001
00000100
00000000
00000100
00001000
00000000
00010000
00000000
,
00100000
10000000
00000000
10000000
00010000
00000000
01000000
00000000
00100000
00000000
10000000
00010000
10000000
00000000
01000000
00000000
,
00010000
00001000
00000000
00001000
00010000
00000100
00001000
00000001
00000010
00000100
00000000
00000100
00001000
00000000
00000100
00000000
,
00010000
00001000
00000000
00001000
01000000
00000000
00100000
00000000
10000000
00000000
00010000
01000000
00010000
00000000
00100000
00000000
,
00001000
00010000
00000000
00010000
00000010
00001000
00000001
00001000
00000100
00010000
00000000
00010000
00001000
00000000
01000000
00000000
,
00010000
10000000
00000000
10000000
00100000
00000000
01000000
00000000
00010000
00000000
00100000
00001000
00100000
00000000
00001000
00000000
,
00010000
00000100
00000000
00000100
00001000
00000010
00000100
00000010
00001000
00000001
00000000
00000001
00000100
00000000
00001000
00000000
,
00010000
01000000
00000000
01000000
10000000
00000000
00010000
00000000
00100000
00000000
00001000
00010000
00001000
00000000
00010000
00000000
,
00000010
00001000
00000000
00001000
00000001
00000010
00000100
00001000
00000002
00000000
00000103
00000010
00000000
00000010
00000000
00001000
,
00000000
00000001
00000100
00001000
00000100
00000000
00001000
00000000
00020000
00000000
00031000
00100000
00000000
00100000
00000000
00010000
,
00000000
10000000
01000000
00010000
01000000
00000000
10000000
00000000
00020000
00000000
00130000
01000000
00000000
01000000
00000000
10000000
,
00000000
00100000
00010000
00001000
00010000
00000000
00001000
00000000
00020000
00000000
00030010
00001000
00000000
00001000
00000000
00000001
,
00002000
00003000
00000200
00000300
00000002
00000003
00002000
00003000
00000020
00000000
00000031
00001000
00000000
00001000
00000000
00000001
,
00000000
00000100
00001000
00010000
00100000
00000000
01100000
00000000
00020000
00000000
10030000
00100000
00000000
00100000
00000000
10000000
,
00000000
01000000
00010000
00001000
00000010
00000000
00000011
00000000
00000002
00000000
00001003
00000010
00000000
00000010
00000000
00001000
,
00000000
00000001
00000100
00001000
00010000
00000000
00011000
00000000
00002000
00000000
00013000
01000000
00000000
01000000
00000000
10000000
,
00000000
00100000
00010000
00001000
00000100
00000000
00000000
00000000
00000000
00000000
00000000
00000000
00000000
00000000
00000000
00000000
,
00000000
00000000
00000000
00000000
;
