
//----- song ID: poda -----//
#TITLE:ポジティブ☆ダンスタイム;
#ARTIST:キノシタ feat.音街ウナ・鏡音リン;
#TITLETRANSLIT:Positive☆dance time;
#ARTISTTRANSLIT:Kinoshita feat. Otomachi Una, Kagamine Rin;
#BANNER:Positive dance time.png;
#BACKGROUND:Positive dance time-bg.png;
#CDTITLE:./CDTitles/DDR A3.png;
#MUSIC:Positive dance time.ogg;
#SAMPLESTART:61.144;
#SAMPLELENGTH:15;
#BPMS:0=210;
#NOTES:
     dance-single:
     :
     Beginner:
     2:
     :
0000
0000
0000
0000
,
0000
0000
0000
0000
,
0000
0000
0000
0000
,
0000
0000
0000
0000
,
0000
0000
0000
0000
,
0000
0000
0000
0000
,
1000
0000
0000
0000
,
0001
0000
0000
0000
,
1000
0000
0000
0000
,
0000
0000
0000
0000
,
0001
0000
0000
0000
,
0000
0000
0000
0000
,
0001
0000
0000
0000
,
0000
0000
0000
0000
,
1000
0000
0000
0000
,
0000
0000
0000
0000
,
1000
0000
0000
0000
,
0000
0000
0000
0000
,
0010
0000
0000
0000
,
0000
0000
0000
0000
,
0100
0000
0000
0000
,
0000
0000
0000
0000
,
0001
0000
0000
0000
,
0010
0000
0000
0000
,
0001
0000
0000
0000
,
0010
0000
0000
0000
,
0001
0000
0000
0000
,
0000
0000
0000
0000
,
1000
0000
0000
0000
,
0000
0000
0000
0000
,
0010
0000
0000
0000
,
1000
0000
0000
0000
,
0010
0000
0000
0000
,
1000
0000
0000
0000
,
0001
0000
0000
0000
,
0001
0000
0000
0000
,
1000
0000
0000
0000
,
1000
0000
0000
0000
,
0001
0000
0000
0000
,
0000
0000
0000
0000
,
1000
0000
0000
0000
,
0001
0000
0000
0000
,
1000
0000
0000
0000
,
0000
0000
0000
0000
,
0100
0000
0000
0000
,
0000
0000
0000
0000
,
0010
0000
0000
0000
,
0000
0000
0000
0000
,
0010
0000
0000
0000
,
0000
0000
0000
0000
,
2002
0000
0000
0000
,
0000
0000
0000
0000
,
3003
0000
0000
0000
,
0000
0000
0000
0000
,
0001
0000
0000
0000
,
1000
0000
0000
0000
,
0001
0000
0000
0000
,
0000
0000
0000
0000
,
1000
0000
0000
0000
,
0001
0000
0000
0000
,
1000
0000
0000
0000
,
0000
0000
0000
0000
,
0001
0000
0000
0000
,
1000
0000
0000
0000
,
0001
0000
0000
0000
,
0000
0000
0000
0000
,
1000
0000
0000
0000
,
0001
0000
0000
0000
,
1000
0000
0000
0000
,
0010
0000
0000
0000
,
0000
0000
0000
0000
,
1000
0000
0000
0000
,
0001
0000
0000
0000
,
1000
0000
0000
0000
,
0001
0000
0000
0000
,
1000
0000
0000
0000
,
0000
0000
0000
0000
,
0010
0000
0000
0000
,
0010
0000
0000
0000
,
0010
0000
0000
0000
,
0000
0000
0000
0000
,
1000
0000
0000
0000
,
0001
0000
0000
0000
,
1000
0000
0000
0000
,
0000
0000
0000
0000
,
0010
0000
0000
0000
,
0010
0000
0000
0000
,
0020
0000
0030
0000
,
0000
0000
0000
0000
,
1000
0000
0000
0000
,
1000
0000
0000
0000
,
0001
0000
0000
0000
,
0001
0000
0000
0000
,
1000
0000
0000
0000
,
0001
0000
0000
0000
,
1001
0000
0000
0000
,
0000
0000
0000
0000
;
#NOTES:
     dance-single:
     :
     Easy:
     4:
     :
0000
0000
0000
0000
,
0000
0000
0000
0000
,
0000
0000
0000
0000
,
0000
0000
0000
0000
,
0000
0000
0000
0000
,
0000
0000
0000
0000
,
1000
0000
1000
0000
,
0001
0000
0001
0000
,
1001
0000
0000
0000
,
0000
0000
0000
0000
,
1000
0000
0100
0000
,
1000
0000
0000
0000
,
0001
0000
0100
0000
,
0001
0000
0000
0000
,
0100
0000
0100
0000
,
0010
0000
0010
0000
,
1000
0000
0001
0000
,
1000
0000
1001
0000
,
0001
0000
0000
0000
,
0001
0000
0010
0000
,
0100
0000
0000
0000
,
1000
0000
0001
0000
,
0100
0000
0100
0000
,
0010
0000
0010
0000
,
1000
0000
1000
0000
,
0001
0000
0000
0000
,
1000
0000
0000
0000
,
1000
0000
0010
0000
,
0100
0000
0000
0000
,
0001
0000
1000
0000
,
0100
0000
0100
0000
,
0010
0000
0010
0000
,
0001
0000
0001
0000
,
1000
0000
0000
0000
,
0010
0000
0010
0000
,
0110
0000
0000
0000
,
1000
0000
1000
0000
,
1001
0000
0000
0000
,
0100
0000
0000
0000
,
0110
0000
0000
0000
,
0001
0000
1000
0000
,
1001
0000
0000
0000
,
0001
0000
0001
0000
,
1000
0000
1000
0000
,
0001
0000
0001
0000
,
1000
0000
1000
0000
,
0100
0000
0100
0000
,
0010
0000
0010
0000
,
0001
0000
1000
0000
,
0001
0000
1000
0000
,
2002
0000
0000
0000
,
3003
0000
0000
0000
,
1000
0000
0000
0000
,
0001
0000
0000
0000
,
0001
0000
0100
0000
,
1001
0000
0010
0000
,
0100
0000
0010
0000
,
1001
0000
0000
0000
,
0001
0000
0001
0000
,
0010
0000
0100
0000
,
1000
0000
0010
0000
,
1000
0000
0000
0000
,
1000
0000
0010
0000
,
1001
0000
0100
0000
,
0010
0000
0100
0000
,
1001
0000
0000
0000
,
0110
0000
0000
0000
,
1001
0000
0000
0000
,
1001
0000
0000
0000
,
0110
0000
0000
0000
,
1001
0000
0000
0000
,
1000
0000
0001
0000
,
1000
0000
0000
0000
,
0010
0000
0010
0000
,
0100
0000
0100
0000
,
0001
0000
1000
0000
,
0001
0000
0000
0000
,
1000
0000
1000
0000
,
0001
0000
0001
0000
,
0010
0000
0100
0000
,
1000
0000
0000
0000
,
0010
0000
0010
0000
,
0100
0000
0100
0000
,
0001
0000
0100
0000
,
0010
0000
1000
0000
,
1001
0000
0000
0000
,
0110
0000
0000
0000
,
0110
0000
0000
0000
,
1001
0000
0000
0000
,
1000
0000
0010
0000
,
1000
0000
0010
0000
,
0100
0000
0001
0000
,
1000
0000
0001
0000
,
0010
0000
0001
0000
,
1000
0000
0010
0000
,
0110
0000
0000
0000
,
1001
0000
0000
0000
,
0000
0000
0000
0000
;
#NOTES:
     dance-single:
     :
     Medium:
     8:
     :
0000
0000
0000
0000
,
0000
0000
0000
0000
,
0000
0000
0000
0000
,
0000
0000
0000
0000
,
0000
0000
0000
0000
,
0000
0000
0000
0000
,
0001
0010
0001
0001
,
1000
0100
0010
0001
,
1001
0000
0000
0000
,
0000
0000
0000
0000
,
1000
0010
1000
0001
,
0010
0001
0100
0000
,
0001
0010
0001
1000
,
0010
1000
0100
0000
,
1000
0100
0001
0100
,
1000
0001
1000
0000
,
0010
0010
0100
0001
,
1000
0001
1001
0000
,
1000
0000
0000
1000
0001
0000
0000
0001
,
0010
0010
0001
1000
,
0001
0000
0000
0001
1000
0000
0000
1000
,
0100
0100
0010
0001
,
1000
0100
1000
0100
,
0010
0001
1000
0001
,
0100
0100
0010
0010
,
0110
0000
0110
0000
,
0001
0000
0000
0001
1000
0000
0000
1000
,
0100
0100
1000
0001
,
1000
0000
0000
1000
0001
0000
0000
0001
,
0010
0010
0100
1000
,
0001
0010
0001
0010
,
0100
1000
0001
1000
,
0010
0010
0100
0100
,
0110
0000
1001
0000
,
0001
0001
0001
0000
,
0100
0010
0100
0000
,
1000
1000
1000
0000
,
0010
0100
0010
0000
,
2000
0000
3000
0000
,
0002
0000
1003
0000
,
0010
0010
0100
0100
,
0110
0000
1001
0000
,
0001
0001
1000
1000
,
0100
0010
0100
1000
,
0010
0010
0100
0100
,
0001
0010
0001
0000
,
1000
1000
0001
0001
,
0010
0100
0010
0001
,
1000
0001
1000
0001
,
0100
0100
0110
0110
,
2002
0000
0000
0000
,
3003
0000
0000
0000
,
0010
0010
0010
0010
,
0100
0000
0110
0000
,
0001
0100
0001
0010
,
0001
0100
0001
0010
,
0001
0100
1000
0100
,
1001
0000
0001
0000
,
1000
0010
1000
0001
,
1000
0100
0010
0001
,
1000
1000
0010
0010
,
0110
0000
0000
0000
,
1000
0100
1000
0010
,
1000
0100
1000
0010
,
1000
0100
0001
0100
,
1001
0000
0000
0000
,
0001
0000
0101
0000
,
1000
0000
1100
0000
,
0110
0000
0000
0000
,
0011
0000
1001
0000
,
1010
0000
1001
0000
,
0001
0010
0100
1000
,
0001
0000
0000
0000
,
1000
0100
0001
0100
,
0010
1000
0010
0001
,
1000
0010
0100
0001
,
1001
0000
0000
0000
,
1000
0010
1000
0100
,
1000
0010
1000
0001
,
0100
0100
0010
0010
,
0110
0000
0000
0000
,
0001
0100
1000
0100
,
0010
0001
0010
1000
,
0001
0010
0100
1000
,
1001
0000
0001
0000
,
0101
0000
0010
0000
,
1010
0000
0100
0000
,
0220
0000
0330
0000
,
0110
0000
1001
0000
,
0001
0100
0010
0100
,
0001
1000
0100
0010
,
0001
1000
0010
1000
,
0001
0010
0100
0000
,
1000
0010
0100
0010
,
1000
0100
0010
0001
,
1001
0000
0000
0000
,
0100
0010
0110
0000
,
0000
0000
0000
0000
;
#NOTES:
     dance-single:
     :
     Hard:
     12:
     :
0000
0000
0000
0000
,
0000
0000
0000
0000
,
0000
0000
0000
0000
,
0000
0000
0000
0000
,
0000
0000
0000
0000
,
0000
0000
0000
0000
,
1000
0000
0100
0000
0010
0000
0010
0100
,
0000
0100
1000
0000
0010
0000
1001
0000
,
1000
0100
0010
0001
0000
1000
0000
0010
,
0000
0100
0001
1000
0100
0000
0000
0000
,
1000
0010
0000
0100
0000
0001
0010
0001
,
0000
1000
0010
0100
0000
0010
1000
0001
,
0010
0100
1000
0001
0000
1000
0100
0010
,
0000
0001
1000
0100
1000
0100
0010
0000
,
0001
0100
0001
0010
0000
0100
1000
0010
,
0000
0100
0001
0100
0000
0001
0010
0001
,
1000
0100
0010
0001
0000
0100
0010
0100
,
0000
0001
0000
1000
0001
0000
0000
0000
,
1000
0000
0001
0010
0001
0000
1000
0010
,
1000
0000
0001
0100
0001
0100
0001
0000
,
1000
0000
0001
0100
0001
0000
1000
0100
,
1000
0000
0001
0010
0001
0010
0001
0000
,
0010
0000
0100
0010
0000
0001
0100
0001
,
0000
1000
0100
1000
0000
0010
0100
0000
,
0001
0000
0010
0100
0000
0010
0000
0001
,
0000
1000
0100
0010
0001
0000
1001
0000
,
0001
0000
1000
0100
1000
0000
0001
0100
,
0001
0000
1000
0010
1000
0010
1000
0000
,
0001
0000
1000
0010
1000
0000
0001
0010
,
0001
0000
1000
0100
1000
0100
1000
0000
,
0100
0000
0010
0100
0000
1000
0010
1000
,
0000
0001
0010
0001
0000
0100
0010
0000
,
1000
0000
0100
0010
0000
0100
0010
0001
,
0000
1000
0100
0010
0001
0000
1001
0000
,
1000
0000
1010
0000
0101
0000
0001
0010
,
0000
0100
0010
0100
0000
1000
1000
0000
,
0001
0000
0011
0000
1100
0000
1000
0010
,
0000
0100
0010
0100
0001
0010
0010
0000
,
0001
0000
0010
0000
0100
0000
1000
0001
,
0000
1000
0100
1000
0000
0010
0100
0001
,
1000
0000
0100
0000
0010
0100
0010
0100
,
0000
1000
0100
0010
0001
0000
0000
0000
,
1000
0000
1000
0000
0010
0100
0000
0002
,
0000
1003
0100
1000
0100
0010
0001
0010
,
0001
0000
0001
0000
0100
0010
0000
2000
,
0000
3001
0010
0100
1000
0000
1001
0000
,
1000
0000
1000
0000
0001
0100
0000
0020
,
0000
0130
0001
0100
0001
0010
0100
1000
,
0001
0101
1000
1010
,
1001
1001
0110
0110
,
0220
0000
0000
0000
,
0330
0000
0000
0000
,
0001
0000
0001
0000
0100
0010
0100
0010
,
0000
1000
0100
0010
0001
0000
1001
0000
,
1000
0000
0010
0100
0000
0100
0010
0000
,
0100
0000
0001
1000
0000
1000
0001
0000
,
1000
0100
1000
0000
0010
0100
0010
0000
,
0100
0000
0001
0000
0100
0010
0100
0000
,
0001
0011
1000
1010
,
0001
0000
0101
0000
1000
0001
0100
0001
,
0000
1000
0100
1000
0000
0010
0100
0010
,
0000
0100
0100
0000
0010
0000
1001
0000
,
0001
0000
0100
0010
0000
0010
0100
0000
,
0010
0000
1000
0001
0000
0001
1000
0000
,
0001
0010
0001
0000
0100
0010
0100
0000
,
0010
0000
1000
0000
0010
0100
0010
0000
,
1000
0000
0000
0000
1001
0000
0000
0100
,
0010
0000
0000
0000
0110
0000
0000
0001
,
1000
0000
0000
0000
0000
0000
0000
0001
,
0000
0100
0010
0100
0010
0000
0000
1000
,
0000
0100
0010
0000
0110
0000
0000
0000
,
0001
0100
0001
0100
0010
1000
0010
2000
,
0000
3000
0001
1001
,
1000
0000
0010
0100
0000
0100
0010
0100
,
0001
0000
0010
0100
0000
0100
0010
0100
,
1000
0001
0010
0001
1000
0100
0010
0100
,
1000
0000
0001
0000
0100
0010
0100
0000
,
0001
0101
1000
1100
,
0001
0000
0011
0000
0001
1000
0100
0010
,
0000
0001
0010
0100
0000
1000
0010
1000
,
0000
0100
0100
0000
1000
0000
1001
0000
,
0001
0000
0010
0100
0000
0100
0010
0100
,
1000
0000
0001
1000
0000
1000
0010
0100
,
0001
1000
0100
1000
0100
0010
0001
1000
,
0001
0000
0100
0000
0010
0100
0010
0000
,
1000
0000
0000
0000
1001
0000
0000
0010
,
0100
0000
0000
0000
0110
0000
0000
0001
,
2000
0000
0000
0000
3000
0000
0000
0001
,
0000
0100
0001
0100
0001
1000
0001
0010
,
0100
0000
0100
0000
1000
0010
0000
0100
,
0000
0001
0010
0001
1000
0100
1000
0100
,
0010
0000
0010
0000
0001
1000
0000
0010
,
0000
0100
0010
0000
0110
0000
1001
0000
,
0101
0000
1000
0000
1010
0000
0001
0010
,
0000
0010
0100
0000
1000
0000
1001
0000
,
0001
0010
0100
1000
0000
0001
0000
0010
,
0000
0100
1000
0001
0100
0000
0000
0000
,
0000
0000
0000
0000
;
#NOTES:
     dance-double:
     :
     Easy:
     4:
     :
00000000
00000000
00000000
00000000
,
00000000
00000000
00000000
00000000
,
00000000
00000000
00000000
00000000
,
00000000
00000000
00000000
00000000
,
00000000
00000000
00000000
00000000
,
00000000
00000000
00000000
00000000
,
10000000
00000000
00010000
00000000
,
00100000
00000000
00001000
00000000
,
00011000
00000000
00000000
00000000
,
00000000
00000000
00000000
00000000
,
00010000
00000000
00000100
00000000
,
00001000
00000000
00000000
00000000
,
00000001
00000000
00000010
00000000
,
00000100
00000000
00000000
00000000
,
00001000
00000000
00001000
00000000
,
00000100
00000000
00000100
00000000
,
00010000
00000000
00001000
00000000
,
00011000
00000000
00000000
00000000
,
00001000
00000000
00000000
00000000
,
00100000
00000000
00010000
00000000
,
10000000
00000000
00000000
00000000
,
00010000
00000000
01000000
00000000
,
00001000
00000000
00001000
00000000
,
00010000
00000000
00010000
00000000
,
00000010
00000000
00000010
00000000
,
00001000
00000000
00000000
00000000
,
00000001
00000000
00000000
00000000
,
00000010
00000000
00000100
00000000
,
00001000
00000000
00000000
00000000
,
00000010
00000000
00010000
00000000
,
00001000
00000000
00001000
00000000
,
01000000
00000000
01000000
00000000
,
00010000
00000000
00010000
00000000
,
10000000
00000000
00000000
00000000
,
00010000
00000000
00100000
00000000
,
00110000
00000000
00000000
00000000
,
00001000
00000000
00010000
00000000
,
00011000
00000000
00000000
00000000
,
00000100
00000000
00000000
00000000
,
00000110
00000000
00000000
00000000
,
00000001
00000000
00001000
00000000
,
00001001
00000000
00000000
00000000
,
00001000
00000000
00001000
00000000
,
00000100
00000000
00000100
00000000
,
00010000
00000000
00010000
00000000
,
00001000
00000000
00001000
00000000
,
00100000
00000000
00100000
00000000
,
00010000
00000000
00010000
00000000
,
00100000
00000000
00001000
00000000
,
00010000
00000000
00001000
00000000
,
00022000
00000000
00000000
00000000
,
00033000
00000000
00000000
00000000
,
00100000
00000000
00000000
00000000
,
00010000
00000000
00000000
00000000
,
10000000
00000000
01000000
00000000
,
00010000
00000000
00001000
00000000
,
00010000
00000000
00001000
00000000
,
00000010
00000000
00000000
00000000
,
00000001
00000000
00000001
00000000
,
00001000
00000000
00001000
00000000
,
00000100
00000000
00010000
00000000
,
00001000
00000000
00000000
00000000
,
00010000
00000000
00001000
00000000
,
00000100
00000000
00000001
00000000
,
00001000
00000000
00000100
00000000
,
00010000
00000000
00000000
00000000
,
00011000
00000000
00000000
00000000
,
01001000
00000000
00000000
00000000
,
01010000
00000000
00000000
00000000
,
10010000
00000000
00000000
00000000
,
10100000
00000000
00000000
00000000
,
01000000
00000000
00100000
00000000
,
01000000
00000000
00000000
00000000
,
10000000
00000000
00100000
00000000
,
00010000
00000000
00001000
00000000
,
00000100
00000000
00000001
00000000
,
00001000
00000000
00000000
00000000
,
00000100
00000000
00010000
00000000
,
00001000
00000000
01000000
00000000
,
00010000
00000000
10000000
00000000
,
01000000
00000000
00000000
00000000
,
10000000
00000000
01000000
00000000
,
00010000
00000000
00001000
00000000
,
00000010
00000000
00000001
00000000
,
00001000
00000000
00000001
00000000
,
00001001
00000000
00000000
00000000
,
00001100
00000000
00000000
00000000
,
00010100
00000000
00000000
00000000
,
00011000
00000000
00000000
00000000
,
00001000
00000000
00100000
00000000
,
00010000
00000000
01000000
00000000
,
00100000
00000000
10000000
00000000
,
00010000
00000000
00000000
00000000
,
00100000
00000000
00001000
00000000
,
00010000
00000000
00000010
00000000
,
00001000
00000000
00000000
00000000
,
00001001
00000000
00000000
00000000
,
00000000
00000000
00000000
00000000
;
#NOTES:
     dance-double:
     :
     Medium:
     8:
     :
00000000
00000000
00000000
00000000
,
00000000
00000000
00000000
00000000
,
00000000
00000000
00000000
00000000
,
00000000
00000000
00000000
00000000
,
00000000
00000000
00000000
00000000
,
00000000
00000000
00000000
00000000
,
00000001
00000100
00000010
00000010
,
00001000
00000100
00010000
00001000
,
00011000
00000000
00000000
00000000
,
00000000
00000000
00000000
00000000
,
00001000
00100000
00010000
10000000
,
00100000
10000000
00010000
00000000
,
10000000
01000000
10000000
00010000
,
00100000
00001000
00010000
00000000
,
00000010
00001000
00000100
00001000
,
00000010
00000100
00000001
00000000
,
00001000
00001000
00000100
00010000
,
00001000
01000000
00010000
00000000
,
10000000
00000000
10010000
00000000
,
00010000
00000000
00011000
00000000
,
00000010
00000000
00001010
00000000
,
00000001
00000000
00001100
00000000
,
00000100
00000100
00010000
00010000
,
00001000
00001000
01010000
00000000
,
10000000
01000000
00100000
00001000
,
00010000
00001000
00001010
00000000
,
00000001
00000000
00001001
00000000
,
00001000
00000000
00010100
00000000
,
00010000
00000000
10100000
00000000
,
10000000
00000000
01010000
00000000
,
01000000
01000000
00001000
00001000
,
00010000
00010000
00010100
00000000
,
00000100
00010000
00001000
00100000
,
00010000
00000000
10010000
00000000
,
10000000
10000000
10000000
00000000
,
00010000
00100000
00001000
00000000
,
00010000
00010000
00010000
00000000
,
00000010
00001000
00000001
00000000
,
00002000
00000000
00003000
00000000
,
00000200
00000000
00010300
00000000
,
00001000
00001000
00010000
00010000
,
00011000
00000000
00000000
00000000
,
00100000
00100000
00010000
00010000
,
10000000
01000000
00100000
00010000
,
00100000
00100000
00001000
00001000
,
00010000
00000100
00001000
00000000
,
00000001
00000001
00000100
00000100
,
00000001
00000010
00000100
00001000
,
00000100
00010000
00001000
00010000
,
00001000
01000000
00010000
10000000
,
20020000
00000000
00000000
00000000
,
30030000
00000000
00000000
00000000
,
00100000
00100000
00100000
00100000
,
01000000
00000000
01100000
00000000
,
10000000
00100000
01000000
00010000
,
00100000
00001000
00010000
00000100
,
00001000
00000010
00000100
00000001
,
00001000
00000000
00001001
00000000
,
00001000
00000010
00010000
00001000
,
00100000
00001000
00010000
00000100
,
00001000
00001000
00000001
00000001
,
00001001
00000000
00000000
00000000
,
00000001
00000010
00000100
00001000
,
00000010
00010000
00001000
01000000
,
00010000
00100000
01000000
10000000
,
00010000
00000000
00100000
00000000
,
00001000
00000000
00011000
00000000
,
00010000
00000000
00010010
00000000
,
00000010
00000000
00000000
00000000
,
00000110
00000000
00001001
00000000
,
00001100
00000000
00010100
00000000
,
00010000
00001000
01000000
00010000
,
10000000
00000000
00000000
00000000
,
10000000
00100000
01000000
00010000
,
00100000
00001000
00010000
00000100
,
00001000
00000010
00000100
00000001
,
00001001
00000000
00000000
00000000
,
00001000
00000100
00010000
00000010
,
00001000
00000100
00010000
00001000
,
00010000
00010000
00000010
00000010
,
00001010
00000000
00000000
00000000
,
00000001
00000010
00000100
00001000
,
00000100
00010000
00001000
00100000
,
00010000
01000000
00010000
10000000
,
10010000
00000000
00010000
00000000
,
01010000
00000000
01000000
00000000
,
01001000
00000000
00001000
00000000
,
00022000
00000000
00033000
00000000
,
00011000
00000000
00010100
00000000
,
00000100
00001000
00000010
00001000
,
00000001
00000010
00000100
00001000
,
00000100
00010000
00001000
00010000
,
00001000
00100000
00010000
00000000
,
01000000
00010000
00100000
00010000
,
10000000
01000000
00100000
00010000
,
00011000
00000000
00000000
00000000
,
00000100
00000010
00000110
00000000
,
00000000
00000000
00000000
00000000
;
#NOTES:
     dance-double:
     :
     Hard:
     12:
     :
00000000
00000000
00000000
00000000
,
00000000
00000000
00000000
00000000
,
00000000
00000000
00000000
00000000
,
00000000
00000000
00000000
00000000
,
00000000
00000000
00000000
00000000
,
00000000
00000000
00000000
00000000
,
00001000
00000000
00010000
00000000
00001000
00000000
00001000
00100000
,
00000000
00100000
00010000
00000000
10000000
00000000
10010000
00000000
,
00010000
00100000
01000000
10000000
00000000
00010000
00000000
00100000
,
00000000
00001000
00010000
00001000
00010000
00000000
00000000
00000000
,
00000010
00001000
00000000
00000001
00000000
00000100
00000000
00000010
,
00000000
00010000
00001000
00010000
00000000
00001000
00100000
00010000
,
10000000
01000000
00100000
00010000
00000000
00100000
00001000
00100000
,
00000000
00001000
00010000
00001000
00010000
00000100
00001000
00000000
,
00000001
00000010
00000001
00000010
00000000
00000100
00001000
00000100
,
00000000
00010000
00001000
00010000
00000000
00001000
01000000
00010000
,
10000000
00100000
01000000
00010000
00000000
01000000
00001000
01000000
,
00000000
00001000
00000000
00010000
00000010
00000000
00000000
00000000
,
00001000
00000000
00000001
00000100
00000001
00000000
00001000
00000100
,
00001000
00000000
00000100
00010000
00000100
00000000
00010000
00000000
,
00001000
00000000
00100000
00010000
00100000
00000000
00010000
01000000
,
00010000
00000000
10000000
01000000
10000000
00000000
00010000
00000000
,
10000000
00000000
01000000
00010000
00000000
00001000
00000000
00010000
,
00000000
00001000
00000000
00000100
00000000
00000001
00001000
00000000
,
00000100
00000000
00010000
00001000
00000000
00100000
00000000
00010000
,
00000000
10000000
01000000
00100000
00010000
00000000
10010000
00000000
,
00010000
00000000
10000000
00100000
10000000
00000000
00010000
00100000
,
00010000
00000000
00100000
00001000
00100000
00000000
00001000
00000000
,
00010000
00000000
00000100
00001000
00000100
00000000
00001000
00000010
,
00001000
00000000
00000001
00000010
00000001
00000000
00001000
00000000
,
00000001
00000000
00000010
00001000
00000000
00010000
00000000
00001000
,
00000000
00010000
00000000
00100000
00000000
10000000
00010000
00000000
,
00100000
00000000
00001000
00010000
00000000
00000010
00001000
00000010
,
00000000
00001000
00000100
00000010
00000001
00000000
00001001
00000000
,
00001000
00000000
00001100
00000000
00010100
00000000
00010000
00001000
,
00000000
01000000
00010000
01000000
00000000
00100000
00100000
00000000
,
01000000
00000000
01001000
00000000
00011000
00000000
00010000
00001000
,
00000000
00010000
00000100
00001000
00000001
00001000
00001000
00000000
,
00000001
00000000
00000100
00000000
00001000
00000000
00010000
00001000
,
00000000
00100000
00010000
00100000
00000000
00010000
10000000
01000000
,
00100000
00000000
01000000
00000000
10000000
00100000
10000000
00100000
,
00000000
01000000
00010000
00100000
00001000
00000000
00000000
00000000
,
00010000
00000000
00010000
00000000
00000100
00001000
00000000
00000010
,
00000000
00000100
00000001
00000100
00000001
00001000
00000010
00001000
,
00000010
00000000
00000010
00000000
00010000
00001000
00000000
00001000
,
00000000
01000000
00010000
10000000
01000000
00000000
01100000
00000000
,
10000000
00000000
10000000
00000000
01000000
00010000
00000000
00001000
,
00000000
00010000
00000010
00010000
00000010
00001000
00000001
00000100
,
00000010
00001010
00010000
00011000
,
00011000
00011000
01001000
01010000
,
20020000
00000000
00000000
00000000
,
30030000
00000000
00000000
00000000
,
10000000
00000000
10000000
00000000
00100000
01000000
00100000
01000000
,
00000000
00010000
00100000
00001000
00010000
00000000
00011000
00000000
,
00010000
00000000
00000010
00001000
00000000
00001000
00000010
00000000
,
00000100
00000000
00000001
00000010
00000000
00000010
00000001
00000000
,
00001000
00000100
00001000
00000000
00000100
00010000
00000100
00000000
,
00010000
00000000
00001000
00000000
00100000
00010000
00100000
00000000
,
00010000
01010000
01000000
01001000
,
00001000
00000000
00011000
00000000
00010000
00000100
00001000
00000100
,
00000000
00010000
00000100
00010000
00000000
00000100
00001000
00000100
,
00000000
00010000
00010000
00000000
00001000
00000000
00011000
00000000
,
00001000
00000000
01000000
00010000
00000000
00010000
01000000
00000000
,
00100000
00000000
10000000
01000000
00000000
01000000
10000000
00000000
,
00010000
01000000
00010000
00000000
01000000
00001000
01000000
00000000
,
00001000
00000000
00010000
00000000
00000010
00001000
00000010
00000000
,
00001000
00000000
00000000
00000000
00001001
00000000
00000000
00000001
,
00000100
00000000
00000000
00000000
00000110
00000000
00000000
00001000
,
00010000
00000000
00000000
00000000
00000000
00000000
00000000
00001000
,
00000000
01000000
00010000
01000000
00010000
00000000
00000000
10000000
,
00000000
00100000
01000000
00000000
01100000
00000000
00000000
00000000
,
00010000
00100000
00010000
00100000
00001000
00010000
00001000
00020000
,
00000000
00030000
00001000
00011000
,
00001000
00000000
00010000
00000100
00000000
00000100
00001000
00000000
,
00000001
00000000
00000010
00000100
00000000
00000100
00001000
00000000
,
00000100
00010000
00001000
00000000
00100000
00010000
10000000
00000000
,
00100000
00000000
01000000
00000000
00010000
00100000
00001000
00000000
,
00010000
00010100
00000100
00001100
,
00001000
00000000
00001001
00000000
00000001
00001000
00000100
00000010
,
00000000
00000001
00000010
00000100
00000000
00001000
00000100
00010000
,
00000000
00001000
00001000
00000000
00010000
00000000
00011000
00000000
,
00010000
00000000
00001000
00100000
00000000
00100000
00010000
00000000
,
10000000
00000000
01000000
00100000
00000000
00100000
00010000
00000000
,
00100000
00001000
00010000
00000000
00000100
00001000
00000001
00000000
,
00000100
00000000
00000010
00000000
00001000
00000100
00010000
00000000
,
00001000
00000000
00000000
00000000
00011000
00000000
00000000
01000000
,
00001000
00000000
00000000
00000000
00011000
00000000
00000000
00000100
,
00010000
00000000
00000000
00000000
00000000
00000000
00000000
00001000
,
00000000
00010000
00000100
00001000
00000001
00001000
00000010
00000100
,
00000001
00000000
00000001
00000000
00000010
00001000
00000000
00010000
,
00000000
00001000
00010000
00001000
00100000
00010000
00100000
01000000
,
10000000
00000000
10000000
00000000
01000000
00010000
00000000
00001000
,
00000000
00000100
00000010
00000000
00000100
00000000
00001001
00000000
,
00000001
00000000
00000100
00000000
00001000
00000000
00010000
00100000
,
00000000
00100000
01000000
00000000
00010000
00000000
10010000
00000000
,
10000000
01000000
00100000
00010000
00000000
01000000
00000000
00001000
,
00000000
00010000
00000100
00001000
00000001
00000000
00000000
00000000
,
00000000
00000000
00000000
00000000
;
