
//----- song ID: poca -----//
#TITLE:ポッピンキャンディ☆フィーバー!;
#ARTIST:キノシタ feat.音街ウナ・鏡音リン;
#TITLETRANSLIT:Poppin' candy☆fever!;
#ARTISTTRANSLIT:Kinoshita feat. Otomachi Una, Kagamine Rin;
#BANNER:Poppin' candy fever!.png;
#BACKGROUND:Poppin' candy fever!-bg.png;
#CDTITLE:./CDTitles/DDR A3.png;
#MUSIC:Poppin' candy fever!.ogg;
#SAMPLESTART:54.316;
#SAMPLELENGTH:15;
#BPMS:0=190;
#NOTES:
     dance-single:
     :
     Beginner:
     2:
     :
0000
0000
0000
0000
,
0000
0000
0000
0000
,
0000
0000
0000
0000
,
0000
0000
0000
0000
,
0000
0000
0000
0000
,
1000
0000
0000
0000
,
0000
0000
0000
0000
,
0100
0000
0000
0000
,
0000
0000
0000
0000
,
0010
0000
0000
0000
,
0000
0000
0000
0000
,
0010
0000
0000
0000
,
0000
0000
0000
0000
,
0001
0000
0000
0000
,
0000
0000
0000
0000
,
0000
0000
0000
0000
,
0000
0000
0000
0000
,
0001
0000
0000
0000
,
0000
0000
0000
0000
,
0001
0000
0000
0000
,
0000
0000
0000
0000
,
0100
0000
0000
0000
,
0000
0000
0000
0000
,
0000
0000
0000
0000
,
0000
0000
0000
0000
,
0100
0000
0000
0000
,
0000
0000
0000
0000
,
0010
0000
0000
0000
,
0000
0000
0000
0000
,
0100
0000
0000
0000
,
0000
0000
0000
0000
,
0010
0000
0000
0000
,
0000
0000
0000
0000
,
1000
0000
0000
0000
,
0000
0000
0000
0000
,
1000
0000
0000
0000
,
0000
0000
0000
0000
,
0010
0000
0000
0000
,
0000
0000
0000
0000
,
0100
0000
0000
0000
,
0000
0000
0000
0000
,
0001
0000
0000
0000
,
0000
0000
0000
0000
,
0002
0000
0000
0000
,
0003
0000
0000
0000
,
0001
0000
0000
0000
,
0000
0000
0000
0000
,
0010
0000
0000
0000
,
0010
0000
0000
0000
,
0200
0000
0000
0000
,
0300
0000
0000
0000
,
2000
0000
0000
0000
,
3000
0000
0000
0000
,
1000
0000
0000
0000
,
0000
0000
0000
0000
,
0010
0000
0000
0000
,
0010
0000
0000
0000
,
0200
0000
0000
0000
,
0300
0000
0000
0000
,
0001
0000
0000
0000
,
0000
0000
0000
0000
,
0010
0000
0000
0000
,
0000
0000
0000
0000
,
1000
0000
0000
0000
,
0000
0000
0000
0000
,
0100
0000
0000
0000
,
0000
0000
0000
0000
,
0001
0000
0000
0000
,
0000
0000
0000
0000
,
0010
0000
0000
0000
,
0000
0000
0000
0000
,
0001
0000
0000
0000
,
0000
0000
0000
0000
,
0100
0000
0000
0000
,
0000
0000
0000
0000
,
0000
0000
0000
0000
,
1000
0000
0000
0000
,
0000
0000
0000
0000
,
1000
0000
0000
0000
,
0100
0000
0000
0000
,
1000
0000
0000
0000
,
0000
0000
0000
0000
,
0100
0000
0000
0000
,
0000
0000
0000
0000
,
1000
0000
0000
0000
,
0000
0000
0000
0000
,
0010
0000
0000
0000
,
0000
0000
0000
0000
,
0001
0000
0000
0000
,
0000
0000
0000
0000
,
0100
0000
0000
0000
,
0000
0000
1001
0000
,
0000
0000
0000
0000
;
#NOTES:
     dance-single:
     :
     Easy:
     4:
     :
0000
0000
0000
0000
,
0000
0000
0000
0000
,
0000
0000
0000
0000
,
0000
0000
0000
0000
,
0000
0000
0000
0000
,
0001
0000
1000
0000
,
0001
0000
0000
0000
,
0100
0000
0010
0000
,
0100
0000
0000
0000
,
0002
0000
0000
0000
,
0003
0000
0001
0000
,
0200
0000
0000
0000
,
0300
0000
0100
0000
,
0020
0000
0000
0000
,
0030
0000
0010
0000
,
2000
0000
0000
0000
,
3000
0000
0000
0000
,
1000
0000
0100
0000
,
1000
0000
0001
0000
,
1000
0000
0000
0000
,
0001
0000
0000
0000
,
0001
0000
0010
0000
,
0001
0000
1000
0000
,
0001
0000
0000
0000
,
1000
0000
0000
0000
,
0020
0000
0000
0000
,
0030
0000
0000
0000
,
0200
0000
0000
0000
,
0300
0000
0000
0000
,
0002
0000
0000
0000
,
0003
0000
0000
0000
,
2000
0000
0000
0000
,
3000
0000
0000
0000
,
1000
0000
1000
0000
,
0010
0000
0000
0000
,
1000
0000
0100
0000
,
0010
0000
0000
0000
,
0002
0000
0000
0000
,
0003
0000
0000
0000
,
0001
0000
0100
0000
,
0010
0000
1000
0000
,
0001
0000
0000
0000
,
0000
0000
0000
0000
,
1000
0000
0010
0000
,
1000
0001
1000
0000
,
0001
0000
0001
0000
,
0001
0000
0000
0000
,
0001
0000
0010
0000
,
0001
1000
0001
0000
,
1000
0000
1000
0000
,
1000
0000
0000
0000
,
1000
0000
0001
0000
,
0100
0010
0100
0000
,
0010
0000
0010
0000
,
0010
0000
0000
0000
,
0001
0000
1000
0000
,
0100
0010
0100
0000
,
0010
0000
0010
0000
,
0010
0000
0000
0000
,
1001
0000
0000
0000
,
0110
0000
0000
0000
,
1001
0000
0000
0000
,
1000
0001
1000
0000
,
1001
0000
0000
0000
,
0110
0000
0000
0000
,
1001
0000
0000
0000
,
0001
1000
0001
0000
,
2000
0000
0000
0000
,
3000
0000
0000
0000
,
0002
0000
0000
0000
,
0003
0000
0000
0000
,
0200
0000
0000
0000
,
0300
0000
0000
0000
,
0020
0000
0000
0000
,
0030
0000
0000
0000
,
0000
0000
0000
0000
,
1000
0000
0000
0000
,
0010
0000
0000
0000
,
0100
0000
0001
0000
,
0100
0000
0000
0000
,
0001
0000
0000
0000
,
0010
0000
0000
0000
,
0100
0000
1000
0000
,
0100
0000
0000
0000
,
1001
0000
0000
0000
,
0110
0000
0000
0000
,
1001
0000
0000
0000
,
0010
0100
0010
0000
,
1001
0000
0000
0000
,
0110
0000
0000
0000
,
1001
0000
0000
0000
,
0100
0010
0100
0000
,
0000
0000
0000
0000
;
#NOTES:
     dance-single:
     :
     Medium:
     10:
     :
0000
0000
0000
0000
,
0000
0000
0000
0000
,
0000
0000
0000
0000
,
0000
0000
0000
0000
,
0000
0000
0000
0000
,
0001
0000
1000
0100
1000
0000
0001
0100
,
0001
0011
1001
0000
,
1000
0000
0010
0000
0001
0010
1000
0000
,
0001
1000
1001
0000
,
1000
0001
1000
0001
,
0100
0000
0010
1000
0000
0010
0000
1000
,
0000
0001
0100
0001
,
0010
0000
0001
1000
0000
0001
0000
0202
,
0000
0303
0000
2020
0000
3030
0000
2200
,
0000
3300
0000
0022
0000
0000
0033
0000
,
0001
0000
1000
0000
0100
0000
0010
0100
,
0000
0110
0000
0000
1001
0000
0000
0000
,
1000
0000
0100
0000
0010
0001
0010
0000
,
0002
0000
1000
0000
0000
1000
0000
1003
,
0000
1000
0100
0001
,
0200
0000
0010
0000
0000
0010
0000
0310
,
0000
0001
1000
0000
,
1100
0000
0000
1001
0000
0000
0000
0000
,
0001
0010
0100
1000
,
0001
1000
1001
0000
,
1000
0010
1000
0010
,
0100
0000
0001
0000
0100
0001
0100
0000
,
0001
0010
0001
0010
,
0100
1000
0100
1000
0100
0000
0000
0000
,
1000
0010
0001
0010
,
1000
0100
0001
0100
,
1000
0001
1000
0000
0001
1000
0001
0000
,
2002
0000
0000
3003
,
1000
0010
0110
0000
,
0001
0010
0110
0000
,
1000
0010
1000
0000
0001
0010
0001
0000
,
0100
0100
0110
0000
,
0002
0000
0203
0000
,
0320
0000
2030
3000
,
1010
0000
1100
0000
,
0101
0000
0011
0000
,
1001
0000
0000
0000
,
0001
1000
0001
1000
0001
0000
0000
0000
,
1010
0000
0011
0000
,
1010
0011
1010
0000
,
0001
0010
0100
0000
1000
0010
0100
0000
,
0101
0001
1001
0000
,
1000
0000
0100
0000
0001
0100
1000
0000
,
0001
0000
0100
0000
1000
0100
0001
0000
,
0100
0010
0100
0000
0010
0100
0010
0000
,
2002
0000
0000
3003
,
0101
0000
1100
0000
,
0101
1100
0101
0000
,
1000
0100
0010
0000
0001
0100
0010
0000
,
1010
1000
1001
0000
,
0001
0000
0010
0000
1000
0010
0001
0000
,
1000
0000
0010
0000
0001
0010
1000
0000
,
0010
0100
0010
0000
0100
0010
0100
0000
,
2002
0000
0000
3003
,
0001
0100
0010
0000
1001
0000
0000
0000
,
1000
0100
0010
0000
1001
0000
0000
0000
,
0001
0010
0100
0000
1001
0000
0000
0000
,
1000
0000
0100
0010
0002
0000
0003
0000
,
1000
0010
0100
0000
1001
0000
0000
0000
,
0001
0010
0100
0000
1001
0000
0000
0000
,
1000
0100
0010
0000
1001
0000
0000
0000
,
0001
0100
0020
0030
,
1000
0000
0000
0010
0000
0000
0100
0000
,
0000
0001
0000
0000
0010
0000
0110
0000
,
0001
0000
0000
0100
0000
0000
0010
0000
,
0000
1000
0000
0000
0001
0000
1001
0000
,
1000
0001
0000
0000
0000
0000
0000
0000
,
0100
0010
2002
3003
,
1000
0000
0001
0100
0000
0010
0000
2000
,
0000
0000
0001
0000
0001
0000
3001
0100
,
0000
0010
0100
0010
0100
0000
0000
0000
,
0011
0000
1010
0000
,
0011
1010
0011
0000
,
1000
0010
0100
0000
0001
0010
0100
0000
,
1100
1000
1001
0000
,
0001
0000
0100
0000
1000
0100
0001
0000
,
1000
0000
0100
0000
0001
0100
1000
0000
,
0100
0010
0100
0000
0010
0100
0010
0000
,
2002
0000
0000
3003
,
0001
0100
0001
0000
1010
0000
0000
0000
,
1000
0100
1000
0000
0011
0000
0000
0000
,
0001
0010
0001
0000
1100
0000
0000
0000
,
2000
0000
3010
0100
0002
0000
0003
0000
,
0001
1000
0001
0000
0110
0000
0000
0000
,
1000
0001
1000
0000
0110
0000
0000
0000
,
0010
0100
0010
0000
1001
0000
0000
0000
,
1000
0000
0001
0100
0010
0000
0000
0000
,
0000
0000
0000
0000
;
#NOTES:
     dance-single:
     :
     Hard:
     14:
     :
0000
0000
0000
0000
,
0000
0000
0000
0000
,
0000
0000
0000
0000
,
0000
0000
0000
0000
,
0000
0000
0000
0000
,
0001
0100
0010
0000
1000
0100
0010
0000
,
0011
0000
0000
0000
1010
0000
0000
0000
1000
0000
0001
1000
0001
0000
0000
0000
,
1000
0000
0100
0010
0000
0001
1000
0000
0001
0000
0100
0000
0010
0000
1000
0000
,
1001
0110
2002
3003
,
1000
0100
1000
0100
0010
0001
0010
0001
,
0200
0000
1300
0200
0000
0302
0000
0023
,
0000
0031
0100
0001
1000
0100
1000
0010
,
1000
0000
0100
0010
0000
0010
0100
1000
,
0000
0001
0010
0001
0000
1000
0010
1000
,
0000
0001
0100
0001
0000
1000
0100
1000
,
0200
0000
0301
0100
1000
0100
0001
0200
,
0000
1300
0010
1000
0002
0000
0003
0000
,
0001
0100
0010
1000
0001
0100
0010
1000
,
1010
0000
0010
0200
0000
0302
0000
2003
,
0000
3010
0001
0010
1000
0010
0001
0010
,
2000
0000
3001
0200
0000
0320
0000
1030
,
0000
0100
0010
0001
0010
0100
0010
0001
,
1000
0000
0010
0100
0000
0000
0001
1000
,
0100
0001
0100
1000
0000
0001
0010
0100
,
0000
1000
0001
1000
0001
0000
1001
0000
,
1000
0001
0100
0010
1000
0001
0010
0100
,
1000
0000
0001
0000
0100
0000
0010
0000
0000
0000
0010
0100
0010
0000
0000
0000
,
1000
0100
1000
0100
0001
0100
0001
0100
,
1000
0010
0001
0010
1000
0001
0001
0000
,
1000
0010
0100
0001
1000
0100
0010
0001
,
1000
0010
0100
0001
0101
0000
1100
0000
,
0010
0100
0010
0100
0010
0100
0010
0200
,
0020
0000
0000
0330
,
1000
0001
0010
0100
1100
0000
1010
0000
,
1000
0010
0100
0001
2002
0000
3003
1000
,
0010
0100
0010
0001
0010
0100
0010
1000
,
0001
0000
0101
0000
0110
0000
0000
1000
,
0002
0000
1003
0100
0002
0000
1003
0010
,
0001
0000
0000
1000
0000
0000
0100
0000
0000
0001
0000
0000
0200
0000
0000
0000
0000
0000
1300
0000
0000
0000
1000
0000
,
0010
0000
0000
0001
0000
0001
0010
0000
0000
1000
0000
1000
,
0100
0000
0000
0001
0000
0001
0100
0000
1000
0000
0001
0000
,
2000
3001
0100
0001
,
1000
0000
0100
0010
0001
0000
1000
0000
1000
0000
0001
0000
0010
0000
0001
0000
,
0010
0100
0010
0001
0010
0000
0001
0100
,
0010
1000
0100
1000
0010
0000
1000
0100
,
0000
0001
0100
1000
0100
0001
0100
1000
,
0000
1000
0010
0100
0002
0000
1003
0010
,
0000
0001
0010
1000
0002
0000
0103
0010
,
0000
0000
0100
0000
1000
0000
0100
0000
0010
0000
1000
0001
1000
0000
0000
0000
,
0001
0000
0010
0000
0100
0000
1000
0000
0001
0000
0010
0100
1000
0000
0000
0000
,
0200
0000
0001
0000
1300
0001
0001
0000
,
1000
0100
0010
0100
1000
0000
1000
0010
,
0100
0001
0010
0001
0100
0000
0001
0010
,
0000
1000
0010
0001
0010
1000
0010
0001
,
0000
0001
0100
0010
2000
0000
3001
0100
,
0000
1000
0100
0001
2000
0000
3010
0100
,
0000
0000
0010
0000
0001
0000
0010
0000
0100
0000
0001
1000
0001
0000
0000
0000
,
1000
0000
0100
0000
0010
0000
0001
0000
1000
0000
0100
0010
0001
0000
0000
0000
,
0020
1000
0001
1030
,
0001
0001
0001
0000
1000
1000
1000
0000
,
0010
0010
0010
0000
0100
0100
0100
0000
,
0001
0001
1001
0000
0100
0100
0110
0000
,
1001
0110
2002
3003
,
1000
0010
1010
0000
0001
0010
0011
0000
,
1000
0100
1100
0000
0001
0100
0101
0000
,
0001
1000
0110
0000
1000
0001
0110
0000
,
1001
0000
0000
1000
0100
0010
0002
0000
0000
0003
0000
0000
,
0001
0100
0000
0010
1000
0000
0001
0100
,
0000
0010
1000
0000
1010
0000
1001
0000
,
1000
0100
0000
0010
0001
0000
1000
0100
,
0000
0010
0001
0000
0011
0000
1001
0000
,
0100
0110
0000
0000
0000
0000
0000
0000
,
1010
0101
2002
3003
,
0001
0100
0001
0100
0010
1000
0010
1000
,
0000
1000
0100
1000
0001
0010
0001
0010
,
0000
0001
0001
0001
2000
0000
3000
0000
,
0001
0101
0000
0000
1000
1100
0000
0000
,
0011
0000
1010
0000
1001
0000
1000
0010
,
0000
1000
0100
1000
0010
1000
0100
0010
,
0000
0001
0100
1000
0200
0000
0301
1000
,
0000
0010
0100
0001
0010
0000
0001
0100
,
0000
0001
0010
1000
0010
0001
1000
0000
,
0001
0000
0010
0000
0100
0000
1000
0000
0010
0000
0100
0010
0100
0000
0001
0000
,
2000
0010
0001
3100
,
1000
0100
0110
0000
0001
0100
1001
0000
,
0001
0100
0110
0000
1000
0100
1001
0000
,
0001
0100
1010
0000
1000
0100
0011
0000
,
1000
0100
0001
0100
2000
0000
3001
0000
,
1000
1000
0110
0000
0001
0001
0110
0000
,
0010
0010
1001
0000
0100
0100
1001
0000
,
0010
0010
1100
0000
0010
0010
0101
0000
,
1001
0000
0000
0001
0100
0010
1000
0000
0000
0000
0000
0000
,
0000
0000
0000
0000
;
#NOTES:
     dance-double:
     :
     Easy:
     4:
     :
00000000
00000000
00000000
00000000
,
00000000
00000000
00000000
00000000
,
00000000
00000000
00000000
00000000
,
00000000
00000000
00000000
00000000
,
00000000
00000000
00000000
00000000
,
10000000
00000000
10000000
00000000
,
01000000
00000000
00000000
00000000
,
00100000
00000000
00100000
00000000
,
00001000
00000000
00000000
00000000
,
00020000
00000000
00000000
00000000
,
00030000
00000000
00010000
00000000
,
00002000
00000000
00000000
00000000
,
00003000
00000000
00001000
00000000
,
00010000
00000000
00010000
00000000
,
00000100
00000000
00000000
00000000
,
00001000
00000000
00001000
00000000
,
00000001
00000000
00000000
00000000
,
00000001
00000000
00000100
00000000
,
00000001
00000000
00000000
00000000
,
00001000
00000000
00000001
00000000
,
00001000
00000000
00000000
00000000
,
00000100
00000000
00000100
00000000
,
00010000
00000000
00000000
00000000
,
00001000
00000000
00000000
00000000
,
00011000
00000000
00000000
00000000
,
00020000
00000000
00000000
00000000
,
00030000
00000000
00000000
00000000
,
00002000
00000000
00000000
00000000
,
00003000
00000000
00000000
00000000
,
02000000
00000000
00000000
00000000
,
03000000
00000000
00000000
00000000
,
00200000
00000000
00000000
00000000
,
00300000
00000000
00000000
00000000
,
10000000
00000000
00010000
00000000
,
10000000
00000000
00000000
00000000
,
10000000
00000000
00100000
00000000
,
01000000
00000000
00000000
00000000
,
00002000
00000000
00000000
00000000
,
00003000
00000000
00000000
00000000
,
00010000
00000000
00010000
00000000
,
00000100
00000000
00000000
00000000
,
00000110
00000000
00000000
00000000
,
00000000
00000000
00000000
00000000
,
00000001
00000000
00000010
00000000
,
00000001
00001000
00000001
00000000
,
00000100
00000000
00000100
00000000
,
00000100
00000000
00000000
00000000
,
00000100
00000000
00000010
00000000
,
00010000
00001000
00010000
00000000
,
00002000
00000000
00000000
00000000
,
00013000
00000000
00000000
00000000
,
00010000
00000000
00001000
00000000
,
01000000
00010000
01000000
00000000
,
00010000
00000000
00010000
00000000
,
00100000
00000000
00000000
00000000
,
00010000
00000000
10000000
00000000
,
00100000
00000000
01000000
00000000
,
00010000
00000000
00010000
00000000
,
00010000
00000000
00000000
00000000
,
01100000
00000000
00000000
00000000
,
00001000
00000000
00000000
00000000
,
00011000
00000000
00000000
00000000
,
00000100
00000000
00000010
00000000
,
00000110
00000000
00000000
00000000
,
00010000
00000000
00000000
00000000
,
00011000
00000000
00000000
00000000
,
01000000
00000000
01100000
00000000
,
20000000
00000000
00000000
00000000
,
30000000
00000000
00000000
00000000
,
00020000
00000000
00000000
00000000
,
00030000
00000000
00000000
00000000
,
00100000
00000000
00100000
00000000
,
00001000
00000000
00000000
00000000
,
00010000
00000000
00000010
00000000
,
00000020
00000000
00000000
00000000
,
00000030
00000000
00000000
00000000
,
00000001
00000000
00000000
00000000
,
00000100
00000000
00000000
00000000
,
00000010
00000000
00000100
00000000
,
00000010
00000000
00000000
00000000
,
00000100
00000000
00000000
00000000
,
00001000
00000000
00000000
00000000
,
00010000
00000000
00001000
00000000
,
00010000
00000000
00000000
00000000
,
00011000
00000000
00000000
00000000
,
00100000
00000000
00000000
00000000
,
01100000
00000000
00000000
00000000
,
10000000
00010000
10000000
00000000
,
10010000
00000000
00000000
00000000
,
01000000
00000000
00000000
00000000
,
01100000
00000000
00000000
00000000
,
00001000
00010000
00001000
00000000
,
00000000
00000000
00000000
00000000
;
#NOTES:
     dance-double:
     :
     Medium:
     10:
     :
00000000
00000000
00000000
00000000
,
00000000
00000000
00000000
00000000
,
00000000
00000000
00000000
00000000
,
00000000
00000000
00000000
00000000
,
00000000
00000000
00000000
00000000
,
10000000
00000000
01000000
00100000
01000000
00000000
00010000
00001000
,
00010000
00001000
00011000
00000000
,
00010000
00000000
00000100
00000000
00001000
00000010
00001000
00000000
,
00000001
00001000
00001001
00000000
,
00000001
00000100
00000001
00000100
,
00000010
00000000
00001000
00000010
00000000
00010000
00000000
00001000
,
00000000
00001000
00010000
00001000
,
00100000
00000000
00010000
01000000
00000000
00010000
00000000
00100000
,
00000000
00100000
00000000
01000000
00000000
01000000
00000000
10000000
,
00000000
10000000
00000000
00010000
00000000
00000000
10010000
00000000
,
10000000
00000000
00010000
00000000
00100000
00000000
00010000
01000000
,
00000000
00010000
00000000
00100000
00001000
00000000
00000000
00000000
,
00001000
00010000
00000010
00001000
,
00000010
00000000
00000100
00000001
00000000
00001000
00000000
00000001
,
00000000
00000001
00000010
00001000
,
00010000
00000000
00001000
00010000
00000000
00001000
00000000
00100000
,
00000000
00010000
01000000
01100000
,
10000000
00010000
10000000
00010000
00000000
00000000
00000000
00000000
,
10000000
01000000
00100000
00001000
,
00010000
00001000
00011000
00000000
,
00010000
00000100
00010000
00000100
,
00001000
00000000
00000100
00000000
00001000
00000010
00001000
00000000
,
00000010
00000100
00000010
00000100
,
00000001
00001000
00000001
00001000
00000001
00000000
00000000
00000000
,
00000001
00001000
00000001
00001000
,
00000010
00001000
00000010
00010000
,
00001000
00010000
00001000
00000000
00010000
00001000
00010000
00000000
,
00022000
00000000
00000000
00033000
,
00001000
00010000
00100000
00100000
,
10000000
00010000
10000000
00010000
10000000
00000000
00000000
00000000
,
10000000
01000000
00100000
00001000
,
00010000
00001000
00010000
00000000
00011000
00000000
00000000
00000000
,
00020000
00000000
00030020
00000000
,
00002030
00000000
00003200
00000300
,
00000110
00000000
00000011
00000000
,
00000101
00000000
00000110
00000000
,
00001001
00000000
00000000
00000000
,
00000001
00001000
00000001
00001000
00000001
00000000
00000000
00000000
,
00000001
00000100
00000010
00001000
,
00000100
00000000
00010000
00001000
00010000
00000000
00000000
00000000
,
00001000
01000000
00010000
00000000
00100000
00010000
10000000
00000000
,
00100000
01000000
10010000
00000000
,
10000000
01000000
00010000
00001000
,
00010000
00100000
00010000
00001000
,
00000100
00000000
00000010
00000000
00001000
00000001
00001000
00000000
,
00002002
00000000
00000000
00003003
,
00000001
00000010
00000100
00001000
,
00000010
00000000
00010000
00001000
00010000
00000000
00000000
00000000
,
00001000
00100000
00010000
00000000
01000000
00010000
10000000
00000000
,
01000000
00100000
10010000
00000000
,
10000000
00100000
00010000
00001000
,
00010000
01000000
00010000
00001000
,
00000010
00000000
00000100
00000000
00001000
00000001
00001000
00000000
,
00002002
00000000
00000000
00003003
,
00000001
00000100
00000001
00000000
00002000
00000000
00000000
00000000
,
00003100
00010000
00000100
00000000
00020000
00000000
00000000
00000000
,
00031000
00100000
00001000
00000000
02000000
00000000
00000000
00000000
,
03010000
00000000
01000000
00100000
20000000
00000000
30000000
00000000
,
10000000
01000000
10000000
00000000
00020000
00000000
00000000
00000000
,
01030000
00001000
01000000
00000000
00002000
00000000
00000000
00000000
,
00013000
00000010
00010000
00000000
00000200
00000000
00000000
00000000
,
00001300
00000000
00000100
00000010
00000002
00000000
00000003
00000000
,
00000001
00000000
00000000
00000100
00000000
00000000
00001000
00000000
,
00000000
00010000
00000000
00000000
00001000
00000000
00011000
00000000
,
00010000
00000000
00000000
00100000
00000000
00000000
10000000
00000000
,
00000000
00010000
00000000
00000000
01000000
00000000
01100000
00000000
,
10000000
00010000
00000000
00000000
00000000
00000000
00000000
00000000
,
10000000
01000000
00020000
00030000
,
00001000
00000000
00010000
00001000
00000000
00000010
00000000
00000002
,
00000000
00000000
00001000
00000000
00001000
00000000
00001003
00000100
,
00000000
00010000
00000100
00010000
00001000
00000000
00000000
00000000
,
00011000
00000000
01100000
00000000
,
10000000
00010000
10010000
00000000
,
10000000
00100000
01000000
00000000
00010000
00100000
01000000
00000000
,
10000000
00000000
01000000
00000000
00010000
00000000
00001000
00010000
,
00000000
00001000
00010000
00000000
00001000
00000000
00000010
00000000
,
00000001
00000000
00000100
00000000
00000010
00000100
00000010
00000000
,
00001000
00000000
00000001
00000000
00001000
00000001
00001000
00000000
,
00002002
00000000
00000000
00003003
,
00000001
00000100
00000001
00000000
00001000
00000000
00001010
00000000
,
00000010
00010000
00000100
00000000
00010000
00000000
00011000
00000000
,
00001000
00100000
00001000
00000000
01000000
00000000
01010000
00000000
,
00020000
00000000
00130000
01000000
20000000
00000000
30000000
00000000
,
10000000
00100000
10000000
00000000
00010000
00000000
01010000
00000000
,
01000000
00001000
00100000
00000000
00001000
00000000
00011000
00000000
,
00010000
00000100
00010000
00000000
00000010
00000000
00001010
00000000
,
00001000
00000000
00000100
00000010
00000001
00000000
00000000
00000000
,
00000000
00000000
00000000
00000000
;
#NOTES:
     dance-double:
     :
     Hard:
     14:
     :
00000000
00000000
00000000
00000000
,
00000000
00000000
00000000
00000000
,
00000000
00000000
00000000
00000000
,
00000000
00000000
00000000
00000000
,
00000000
00000000
00000000
00000000
,
10000000
01000000
10000000
00000000
00010000
01000000
00010000
00000000
,
00100000
00001000
00010000
00001000
00020000
00000000
00031000
00000000
,
00010000
00000000
00000010
00001000
00000000
00000010
00001000
00000000
00000010
00000000
00000100
00000000
00000001
00000000
00000010
00000000
,
00000001
00000011
00002002
00003003
,
00000001
00000100
00000001
00000100
00000010
00001000
00000010
00001000
,
00000020
00000000
00000130
00002000
00000000
00013000
00000000
00011000
,
00000000
00001000
00010000
00001000
00010000
00100000
00010000
00100000
,
10000000
00000000
00010000
01000000
00000000
10000000
01000000
00010000
,
00000000
00100000
00001000
00100000
00000000
00001000
00010000
00001000
,
00000000
00010000
00000100
00010000
00000000
00000100
00001000
00000100
,
00000020
00000000
00000031
00000010
00001000
00000010
00000001
00000200
,
00000000
00000310
00010000
00001000
00020000
00000000
00030000
00000000
,
00001000
01000000
00010000
00100000
00001000
01000000
00010000
00100000
,
00010000
00000000
01000000
00200000
00000000
20300000
00000000
30020000
,
00000000
01030000
10000000
01000000
00010000
01000000
10000000
01000000
,
00020000
00000000
00130000
00002000
00000000
00013000
00000000
00011000
,
00000000
00010000
00001000
00000010
00000001
00001000
00000001
00000000
,
00000010
00000001
00001000
00000100
00000000
00000000
00001000
00000001
,
00000100
00000010
00000100
00001000
00000000
00010000
00001000
00010000
,
00000000
00001000
00001000
00010000
00010000
00000000
00011000
00000000
,
00001000
00100000
00001000
00100000
00010000
00100000
00010000
00100000
,
01000000
00100000
10000000
00100000
01000000
00000000
01100000
00000000
,
10000000
01000000
10000000
01000000
00100000
01000000
00100000
01000000
,
00010000
01000000
00100000
00001000
00010000
00000000
00011000
00000000
,
00010000
00000010
00010000
00000010
00001000
00000010
00001000
00000010
,
00000100
00000010
00000001
00000010
00000100
00000000
00000110
00000000
,
00000001
00000100
00000001
00000100
00000010
00000100
00001000
00010000
,
00002000
00000000
00000000
00003000
,
00001000
01000000
00010000
00100000
01000000
00000000
11000000
00000000
,
10000000
00100000
01000000
00100000
20000000
00000000
30000000
10000000
,
01000000
00100000
01000000
00010000
00001000
00010000
00001000
00000010
,
00000100
00000110
00001001
00000000
,
00000002
00000000
00000103
00001000
00020000
00000000
00031000
00010000
,
00200000
00000000
00000000
00000000
00000000
00000000
00310000
00000000
00000000
00100000
00000000
00000000
20000000
00000000
00000000
00000000
00000000
00000000
30010000
00000000
00000000
00000000
00010000
00000000
,
10000000
00000000
00000000
01000000
00000000
01000000
00010000
00000000
00000000
00001000
00000000
00001000
,
00000010
00000000
00000000
00000001
00000000
00000001
00000100
00000000
00000010
00000000
00000100
00000000
,
00000110
00000001
00001000
00000001
,
00000100
00000000
00000010
00001000
00000010
00000000
00010000
00000000
00001000
00000000
00010000
00000000
00010000
00000000
00000000
00000000
,
00001000
00010000
00100000
01000000
00001000
00010000
00100000
01000000
,
00001000
00010000
01000000
00100000
00020000
00000000
10030000
01000000
,
00000000
00100000
00010000
01000000
00010000
10000000
01000000
00010000
,
00000000
00001000
00010000
00001000
00020000
00000000
00030000
00011000
,
00000000
00010000
00000100
00010000
00000200
00000000
00001300
00000010
,
00000000
00000000
00001000
00000000
00000100
00000000
00000010
00000000
00000001
00000000
00001000
00000001
00001000
00000000
00000000
00000000
,
00000001
00000010
00000100
00001000
00000010
00000100
00001000
00010000
,
00002000
00000100
00020000
00033000
,
00010000
00001000
00000010
00000100
00010000
00001000
00000010
00000100
,
00010000
00001000
00000100
00000010
00002000
00000000
00003001
00000100
,
00000000
00000010
00001000
00000100
00001000
00000001
00000100
00001000
,
00000000
00010000
00001000
00010000
00002000
00000000
00003000
00011000
,
00000000
00001000
01000000
00001000
02000000
00000000
03010000
00100000
,
00000000
00000000
00010000
00000000
01000000
00000000
00100000
00000000
10000000
00000000
00010000
10000000
00010000
00000000
00000000
00000000
,
10000000
00100000
00010000
00100000
10000000
01000000
00010000
01000000
,
20000000
30200000
00320000
00031000
,
00010000
00010000
00010000
00000000
00000100
00000100
00000100
00000000
,
00001000
00001000
00001000
00000000
00000010
00000010
00000010
00000000
,
00000100
00000001
00000010
00000000
00000100
00001000
00000010
00000000
,
00001000
00000100
00010000
00001000
00200000
00000000
00000000
00000000
,
00310000
00010000
00010000
00000000
10000000
10000000
10000000
00000000
,
01000000
01000000
01000000
00000000
00100000
00100000
00100000
00000000
,
00001000
00010000
00100000
00000000
10000000
01000000
00100000
00000000
,
00101000
00000000
00000000
00001000
00010000
00001000
00020000
00000000
00000000
00030000
00000000
00000000
,
00010000
00001000
00000000
00010000
00000100
00000000
00001000
00000010
,
00000000
00000100
00000001
00000000
00000011
00000000
00001001
00000000
,
00001000
00000010
00000000
00000100
00001000
00000000
00010000
00100000
,
00000000
01000000
00010000
00000000
00110000
00000000
10010000
00000000
,
01000000
01100000
00000000
00000000
00000000
00000000
00000000
00000000
,
10000000
01000000
00010000
00001000
00020000
00000000
00030000
00000000
,
00001000
00010000
00001000
00010000
00000100
00001000
00000100
00001000
,
00000000
00000010
00000100
00000010
00001000
00000010
00010000
00001000
,
00000000
00001000
00010000
00001000
00020000
00000000
00030000
00000000
,
00001000
00010000
00000000
00000000
00100000
01000000
00000000
00000000
,
01100000
00000000
10000000
00000000
10010000
00000000
10000000
00100000
,
00000000
01000000
00010000
00100000
00010000
01000000
00100000
00010000
,
00000000
00001000
00010000
00001000
00020000
00000000
00031000
00010000
,
00000000
00010000
00000100
00001000
00000010
00001000
00000100
00000010
,
00000000
00001000
00010000
00001000
00000010
00001000
00010000
00000000
,
00001000
01000000
00010000
00100000
00001000
01000000
00010000
00100000
,
00002000
00010000
01000000
00013000
,
00001000
00010000
00010100
00000000
00000100
00001000
00001010
00000000
,
00000010
00000100
00000110
00000000
00000010
00001000
00001001
00000000
,
00000001
00000010
00001000
00000000
00000010
00001000
00010000
00000000
,
00001000
00010000
01000000
10000000
00020000
00000000
10030000
00000000
,
10000000
00100000
10100000
00000000
01000000
00010000
01010000
00000000
,
00100000
00001000
00011000
00000000
00010000
00000100
00001100
00000000
,
00001000
00000001
00000100
00000000
00001000
00010000
00100000
00000000
,
01100000
00000000
00000000
10000000
00010000
10000000
00010000
00000000
00000000
00000000
00000000
00000000
,
00000000
00000000
00000000
00000000
;
