
//----- song ID: pola -----//
#TITLE:ポラリスノウタ;
#ARTIST:ここなつ2.0;
#TITLETRANSLIT:Polaris no uta;
#ARTISTTRANSLIT:CocoNatsu 2.0;
#BANNER:Polaris no uta.png;
#BACKGROUND:Polaris no uta-bg.png;
#CDTITLE:./CDTitles/DDR A3.png;
#MUSIC:Polaris no uta.ogg;
#SAMPLESTART:22.25;
#SAMPLELENGTH:15;
#BPMS:0=170;
#BGSTAGE:3;
#NOTES:
     dance-single:
     :
     Beginner:
     2:
     :
0000
0000
0000
0000
,
0000
0000
0000
0000
,
0000
0000
0000
0000
,
0000
0000
0000
0000
,
0000
0000
0000
0000
,
0000
0000
0000
0000
,
0001
0000
0000
0000
,
0000
0000
0000
0000
,
0010
0000
0000
0000
,
0000
0000
0000
0000
,
0100
0000
0000
0000
,
0000
0000
0000
0000
,
0100
0000
0000
0000
,
0000
0000
0000
0000
,
1000
0000
0000
0000
,
0000
0000
0000
0000
,
1000
0000
0000
0000
,
0000
0000
0000
0000
,
1000
0000
0000
0000
,
0000
0000
0000
0000
,
0100
0000
0000
0000
,
0000
0000
0000
0000
,
1000
0000
0000
0000
,
0000
0000
0000
0000
,
0010
0000
0000
0000
,
0000
0000
0000
0000
,
0001
0000
0000
0000
,
0000
0000
0000
0000
,
0100
0000
0000
0000
,
0000
0000
0000
0000
,
0001
0000
0000
0000
,
0000
0000
0000
0000
,
0010
0000
0000
0000
,
0000
0000
0000
0000
,
0010
0000
0000
0000
,
0010
0000
0000
0000
,
0010
0000
0000
0000
,
0000
0000
0000
0000
,
0100
0000
0000
0000
,
0000
0000
0000
0000
,
0100
0000
0000
0000
,
0000
0000
0000
0000
,
1000
0000
0000
0000
,
1000
0000
0000
0000
,
0100
0000
0000
0000
,
0000
0000
0000
0000
,
0100
0000
0000
0000
,
0000
0000
0000
0000
,
0001
0000
0000
0000
,
0000
0000
0000
0000
,
0001
0000
0000
0000
,
0000
0000
0000
0000
,
0010
0000
0000
0000
,
0000
0000
0000
0000
,
0100
0000
0000
0000
,
0000
0000
0000
0000
,
1000
0000
0000
0000
,
0000
0000
0000
0000
,
1000
0000
0000
0000
,
0000
0000
0000
0000
,
0010
0000
0000
0000
,
0000
0000
0000
0000
,
0100
0000
0000
0000
,
0000
0000
0000
0000
,
0001
0000
0000
0000
,
0000
0000
0000
0000
,
0001
0000
0000
0000
,
0001
0000
0000
0000
,
0010
0000
0000
0000
,
0000
0000
0000
0000
,
0010
0000
0000
0000
,
0010
0000
0000
0000
,
0100
0000
0000
0000
,
0000
0000
0000
0000
,
0100
0000
0000
0000
,
1000
0000
0000
0000
,
0100
0000
0000
0000
,
0000
0000
0000
0000
,
1000
0000
0000
0000
,
1000
0000
0000
0000
,
0010
0000
0000
0000
,
0010
0000
0000
0000
,
0000
0000
0000
0000
;
#NOTES:
     dance-single:
     :
     Easy:
     5:
     :
0000
0000
0000
0000
,
0000
0000
0000
0000
,
0000
0000
0000
0000
,
0000
0000
0000
0000
,
0000
0000
0000
0000
,
0000
0000
0000
0000
,
0000
0001
0100
0100
,
0010
1000
0001
0100
,
0000
0100
0001
1001
,
0000
0000
0000
0000
,
1000
0100
1000
0100
,
0010
0110
0000
0000
,
0001
0100
0001
0100
,
0010
1000
0001
1000
,
0000
1001
0000
0000
,
1000
0100
0010
0001
,
1000
0010
0100
0001
,
2000
0000
3000
0000
,
1001
0000
0110
0000
,
0001
0001
0001
0000
,
1001
0000
0110
0000
,
1000
1000
1000
0000
,
0110
0000
1001
0000
,
0010
0010
0010
0000
,
0100
0010
0100
0000
,
0020
0000
0030
0000
,
1000
1000
0100
0000
,
0100
0100
0010
0000
,
0001
0001
0100
0000
,
0100
0100
0010
0000
,
0010
1000
0010
0000
,
0100
0001
0100
0000
,
0002
0000
0003
0000
,
2000
0000
3000
0000
,
0001
0000
0100
0000
,
0010
0100
0010
0000
,
1000
0000
0010
0000
,
1000
0100
1000
0000
,
1001
0000
0110
0000
,
1001
0000
0000
0000
,
0001
0000
0001
0010
,
0100
0100
0000
0000
,
1000
0000
0100
0000
,
0010
0001
0100
0000
,
0110
0000
0000
0000
,
1001
0000
0000
0000
,
0002
0000
0000
0003
,
2000
0000
0000
3000
,
1001
0000
0000
0000
,
0000
0000
0000
0000
,
1000
0000
0100
0000
,
0010
0001
0000
0000
,
0001
0000
0100
0000
,
0010
1000
0010
0000
,
2000
0000
0000
3000
,
0200
0000
0000
0300
,
0000
0010
0000
0010
,
0002
0000
0000
0003
,
0001
0000
0010
0000
,
0100
1000
0000
0000
,
1000
0000
0010
0000
,
0100
0001
0100
0000
,
0002
0000
0000
0003
,
0020
0000
0000
0030
,
0100
0000
1000
0000
,
1001
0000
0000
0000
,
0001
0000
0100
0000
,
0001
0010
0001
0000
,
1000
0000
0100
0000
,
0110
0000
0000
0000
,
1000
0000
0100
0000
,
1000
0010
1000
0000
,
0001
0100
0010
0000
,
2000
0000
3000
0000
,
2000
0000
0000
3000
,
1000
0100
0010
0000
,
0002
0000
0000
0003
,
0001
0100
0010
0000
,
1000
0000
0001
0000
,
0100
0010
0100
0000
,
0110
0000
0000
0000
,
1001
0000
0000
0000
,
0000
0000
0000
0000
;
#NOTES:
     dance-single:
     :
     Medium:
     9:
     :
0000
0000
0000
0000
,
0000
0000
0000
0000
,
0000
0000
0000
0000
,
0000
0000
0000
0000
,
0000
0000
0000
0000
,
0000
0000
0000
0000
,
0000
0000
0001
1000
0001
0000
0200
0000
,
0320
2030
3200
0320
,
0030
0010
0001
1001
,
1000
0000
0000
0010
0000
0000
0100
0000
0001
0000
0000
0000
0000
0000
0000
0000
,
0001
0000
0000
0100
0000
0000
0001
0000
1000
0000
0000
0100
0000
0000
1000
0000
,
0010
0110
0000
0001
,
1000
0000
0000
0010
0000
0000
1000
0000
0001
0000
0000
0010
0000
0000
0001
0000
,
0200
0320
2030
3002
,
0003
0000
2002
0000
3003
0000
0000
1000
,
0100
0000
0010
0001
0010
0000
0001
1000
,
0001
0100
0010
1000
,
0002
0000
2000
3003
,
1000
0000
0000
0100
0000
0000
1000
0000
0010
0000
0000
0000
0000
0000
0000
0000
,
1000
0000
0000
0100
0000
0000
0010
0000
0001
0000
0000
0000
0000
0000
0000
0000
,
0001
0000
0000
0100
0000
0000
0001
0000
0010
0000
0000
0000
0000
0000
0000
0000
,
0001
0000
0000
0100
0000
0000
0010
0000
1000
0000
0000
0000
0000
0000
0000
0000
,
1000
0000
0000
0001
0000
0000
0100
0000
0010
0000
0000
0000
0000
0000
0000
0000
,
1001
0110
1001
0000
,
0002
0023
0230
2300
,
3002
0003
2000
3000
,
0001
0000
0000
0010
0000
0000
0001
0000
0011
0000
0000
0000
0000
0000
0000
0000
,
1000
0000
0000
0010
0000
0000
1000
0000
1010
0000
0000
0000
0000
0000
0000
0000
,
0001
0000
0000
0100
0000
0000
0001
0000
0101
0000
0000
0000
0000
0000
0000
0000
,
1000
0000
0000
0100
0000
0000
1000
0000
1100
0000
0000
0000
0000
0000
0000
0000
,
1000
0000
0000
0100
0000
0000
0010
0000
0011
0000
0000
0000
0000
0000
0000
0000
,
0001
0000
0000
0000
0110
0000
0000
0000
1000
0000
0000
0010
0000
0000
0100
0000
,
0002
0000
0000
0000
,
0003
0000
0000
0000
0000
0000
0001
1000
,
0001
0000
0000
0001
0100
0000
0000
0010
,
1000
0000
0100
1000
0001
0000
1000
0000
,
0100
0000
0000
1000
0010
0000
0100
0010
,
0100
0001
1000
0000
,
0001
0100
1010
0000
,
1100
0000
0011
0001
,
0100
0000
0000
0000
0100
0000
0000
0000
0010
0000
0000
1000
0000
0000
0010
0000
,
0100
0002
0000
0003
,
0001
0000
0000
0100
0000
0000
0010
0000
1000
0000
0000
0000
0001
0000
0000
0000
,
1000
0000
0000
0010
0000
0000
1000
0000
0100
0000
0000
0000
0000
0000
1000
0000
,
0001
0000
0000
0010
0000
0000
0001
0000
0100
0000
0000
0000
0010
0000
0100
0000
,
0010
0000
0000
1000
0000
0000
0001
0000
0100
0000
0000
0000
0000
0000
0001
0000
,
0020
0032
2003
3200
,
1300
0000
0110
0000
,
2002
0000
0000
0000
,
3003
0000
0000
0000
,
1000
0000
0000
0100
0000
0000
0010
0000
0001
0000
0000
0100
0000
0000
0010
0000
,
1010
1001
0000
1000
,
0001
0000
0000
0010
0000
0000
0100
0000
1000
0000
0000
0010
0000
0000
0100
0000
,
0001
0000
1001
0000
1000
0001
1000
0000
,
0000
1000
0100
0001
,
0100
1000
0010
0001
,
0000
0001
0010
1000
,
0100
0000
0000
0010
0000
0000
0100
0000
0110
0000
0000
0000
0000
0000
0000
0000
,
0001
0000
0000
0100
0000
0000
0010
0000
1000
0000
0000
0100
0000
0000
0010
0000
,
0011
1001
0000
0001
,
1000
0000
0000
0010
0000
0000
0100
0000
0001
0000
0000
0010
0000
0000
0100
0000
,
1000
0000
1001
0000
0001
1000
0001
0000
,
0000
0001
0100
1000
,
0100
0000
0001
0000
0010
0100
0010
0000
,
0001
1000
0010
0100
,
0220
0330
2002
3003
,
1000
0000
0000
0100
0000
0000
0010
0000
0001
0000
0000
0000
0100
0000
0010
0000
,
0100
0000
0000
0001
0000
0000
0010
0000
0100
0000
0000
0000
1001
0000
0000
0000
,
0001
0000
0000
0010
0000
0000
0100
0000
1000
0000
0000
0000
0010
0000
0100
0000
,
0010
0000
0000
1000
0000
0000
0100
0000
0010
0000
0000
0000
1001
0000
0000
0000
,
0001
0000
0000
0100
0000
0000
1000
0000
0100
0000
0000
0000
0000
0000
0000
0000
,
0001
0000
0000
0000
0010
0000
0000
0000
1000
0000
0000
0010
0000
0000
0001
0000
,
2000
3200
0320
0032
,
2003
3000
0002
0003
,
0001
0000
0000
0100
0000
0000
0100
0000
0001
0000
0000
0000
0000
0000
0000
0000
,
1000
0000
0000
0100
0000
0000
0100
0000
1000
0000
0000
0000
0001
0000
1000
0000
,
0001
0000
0000
0010
0000
0000
0010
0000
0001
0000
0000
0000
0000
0000
0000
0000
,
1000
0000
0000
0010
0000
0000
0010
0000
1000
0000
0000
0000
1000
0000
0001
0000
,
1000
0000
0000
0100
0000
0000
0010
0000
0001
0000
0000
0000
1000
0000
0000
0000
,
0001
0000
0000
0000
0010
0000
0000
0000
1000
0000
0000
0010
0000
0000
0001
0000
,
2000
3000
0020
0030
,
1001
0000
0000
0000
,
0000
0000
0000
0000
;
#NOTES:
     dance-single:
     :
     Hard:
     13:
     :
0000
0000
0000
0000
,
0000
0000
0000
0000
,
0000
0000
0000
0000
,
0000
0000
0000
0000
,
0000
0000
0000
0000
,
0000
0000
0000
0000
,
0000
0000
1000
0100
0010
0000
0100
0010
,
0001
0100
0001
0000
1000
0100
1000
0000
,
0000
1010
0011
0101
,
1000
0100
0000
0010
0000
0001
0100
0000
0010
1000
0010
0000
0100
0000
0000
0000
,
0001
0000
0000
0001
0010
0000
0100
0000
1000
0000
0000
1000
0010
0000
0100
0000
,
0001
0100
1000
0000
1000
0100
0001
0000
,
1000
0000
0000
1000
0100
0000
0010
0000
0001
0000
0000
0001
0100
0000
0010
0000
,
2000
3200
0320
0032
,
1003
0010
1000
0010
0100
0001
0100
0000
,
0001
1000
0001
0010
0100
0010
0001
0000
,
1000
0100
0010
0001
1000
0100
0010
0001
,
1000
0100
1000
0000
0001
0010
0001
0000
1000
0000
0000
1000
0000
0000
1000
0000
,
0001
0000
0000
0001
0100
0000
0010
0000
1010
0000
0000
0000
1000
0000
0010
0000
,
0100
0000
0000
0100
0001
0000
0010
0000
0011
0000
0000
0000
0001
0000
1000
0000
,
0100
0000
0000
0100
0010
0000
0100
0000
1100
0000
0000
0000
1000
0000
0001
0000
,
0100
0000
0000
0100
0001
0000
0100
0000
0101
0000
0000
0000
0001
0000
0010
0000
,
0100
1000
0000
0100
1000
0000
0001
0000
1001
0000
0000
0000
1000
0000
0100
0000
,
0110
0000
0000
0000
0011
0000
0000
0000
1010
0000
0000
1001
0000
0000
0001
0000
,
2000
3020
0032
0023
,
2030
3000
0002
0003
,
1000
0100
0000
0010
0001
0000
0010
0000
0110
0000
0000
0000
0100
0000
1000
0000
,
0001
0100
0000
0010
1000
0000
0010
0000
0110
0000
0000
0000
0100
0000
1000
0000
,
0100
0010
0000
1000
0100
0000
0010
0000
0011
0000
0000
0000
0001
0000
0100
0000
,
0010
1000
0000
0010
0100
0000
0001
0000
1001
0000
0000
1000
0100
0000
0010
0000
,
0001
0100
0000
1000
0100
0000
0001
0000
1000
0000
0000
0000
1001
0000
0000
0000
,
1010
0000
0000
0000
1100
0000
0000
0000
0011
0000
0000
0001
0000
0000
0101
0000
,
0200
0000
0000
0000
1000
0000
0000
0000
0301
0000
0000
0010
0000
0000
0010
0000
,
0100
0000
0000
0000
0110
0000
1000
0100
0010
0000
0001
0000
0010
0000
0000
0000
,
0001
0000
0000
0100
0001
0000
0000
0100
,
0001
1000
0001
0010
0100
0000
1000
0001
,
1000
0000
0000
0010
1000
0000
0100
1000
,
1010
0000
0010
0000
2002
0000
3003
1000
,
0001
0000
0000
0010
0000
0000
0100
0000
1000
0000
1000
0000
,
0001
0000
0000
0000
0100
0000
0000
0000
0110
0000
0000
0000
1001
0000
0000
0000
0000
0000
1000
0000
0000
0010
0000
0000
,
0001
0000
0000
0000
0001
0000
0010
0000
1000
0000
0000
0100
0000
0000
0010
0000
,
0011
0000
0001
0000
1001
0000
1000
0000
0100
0000
1000
0001
0010
0000
0000
0000
,
0001
0000
0000
0001
0000
0000
0100
0000
1010
0000
0000
0000
1001
0000
0000
0000
,
1000
0000
0000
1000
0000
0000
0100
0000
0011
0000
0000
0000
0000
0000
0001
0000
,
1000
0000
0000
0010
0000
0000
0001
0000
0010
0000
0000
0000
0010
0000
1000
0000
,
0100
0000
0000
0010
0000
0000
0011
0000
1001
0000
0000
0000
0000
0000
0001
0000
,
2000
3020
0230
0302
,
1003
0000
0000
1000
0200
0000
0300
0100
,
0020
0000
0000
0030
,
0001
0000
0000
1000
0000
0000
1000
0000
0010
0100
0010
0100
0010
0000
0000
0000
,
1000
0000
0000
0001
0000
0000
0001
0000
0010
0000
0000
0100
0000
0000
0100
0000
,
1000
0000
0001
0000
0100
0000
0000
0000
0001
0000
1000
0100
1000
0000
0001
0000
,
0010
0000
0000
0100
0000
0000
0100
0000
1000
0000
0000
0010
0000
0000
0010
0000
,
0110
0000
1001
0000
0001
0010
0100
0000
,
0000
0000
1000
0100
1000
0000
1100
0000
,
0110
0011
1001
0110
,
0000
0011
0101
1100
,
1000
0000
0000
0010
0000
0000
0001
0000
1000
0000
0100
0000
0001
0000
0000
0000
,
1000
0000
0000
0100
0010
0000
0001
0000
0100
0000
0000
0010
1000
0000
0100
0000
,
0001
0100
1000
0000
0001
0010
0100
1000
,
0001
0000
0000
0100
0010
0000
1000
0000
0100
0000
0000
0010
0001
0000
0100
0000
,
2000
3200
0302
0023
,
0130
1000
0001
0000
0100
0010
1000
1000
,
0001
0010
0100
0010
0001
0100
0010
1000
,
0020
0001
0230
1000
,
0302
0003
2000
3000
,
0001
0010
0000
0001
1000
0000
0001
0000
0100
0000
0000
0000
1001
0000
0000
0000
,
1000
0010
0000
1000
0001
0000
1000
0000
0100
0000
0000
0000
1001
0000
0000
0000
,
0001
0100
0000
0001
0010
0000
0001
0000
1000
0000
0000
0000
0110
0000
0000
0000
,
1000
0100
0000
1000
0010
0000
1000
0000
0001
0000
0000
0010
0100
0000
0100
0000
,
1000
0010
0000
0100
0001
0000
1000
0000
0100
0000
0000
0010
0001
0000
0001
0000
,
0100
0000
0010
0000
1010
0000
0000
0000
1001
0000
0000
0101
0000
0000
1001
0000
,
1000
0100
0010
0000
0001
0100
0010
0000
,
2000
3000
0002
0003
,
2000
0000
0000
0100
0000
0000
0010
0000
3010
0000
0000
0000
1000
0000
0100
0000
,
0012
0000
0000
0100
0000
0000
1000
0000
1003
0000
0000
0000
0001
0000
0100
0000
,
0012
0000
0000
1000
0000
0000
0100
0000
0103
0000
0000
0000
0100
0000
0001
0000
,
2100
0000
0000
0001
0000
0000
0010
0000
3001
0000
0000
0001
0100
0000
0010
0000
,
1000
0100
0000
0010
0100
0000
1000
0000
0001
0000
0000
0000
0101
0000
0100
0000
,
0110
0000
0000
0000
1010
0000
0000
0000
1001
0000
0000
0001
0100
0000
0001
0000
,
0010
0000
0100
1000
0001
0000
1000
0000
,
1001
0000
0000
0000
,
0000
0000
0000
0000
;
#NOTES:
     dance-single:
     :
     Challenge:
     16:
     :
0000
0000
0000
0000
,
0000
0000
0000
0000
,
0000
0000
0000
0000
,
0000
0000
0000
0000
,
0000
0000
0000
0000
,
0000
0000
0000
0000
,
2000
0000
0000
0000
,
3200
0000
0000
0000
,
0302
0000
0000
0000
,
0023
0000
0000
0000
,
1030
0000
0000
1000
0000
0000
1000
0000
0100
0000
0000
0100
0000
0000
0100
0000
,
0010
0220
0000
0330
,
0001
0000
0000
0001
0000
0000
0001
0000
0100
0000
0000
0100
0000
0000
0100
0000
,
0020
2030
3002
0203
,
0300
0000
0220
0000
0000
0000
0330
0010
,
1000
0100
0001
0100
1000
0001
0010
0100
,
2000
3020
0032
0203
,
2300
3000
0002
0003
,
1000
0100
1000
0010
0100
0010
0100
0001
1000
0000
0000
0000
1001
0000
0001
0000
,
0010
0001
0010
0100
1000
0100
1000
0001
1000
0000
0000
0000
0110
0000
1000
0000
,
0001
0010
0100
1000
0001
0010
0001
1000
0010
0000
0000
0000
1001
0000
1000
0000
,
0001
0100
0010
0100
0001
1000
0001
0000
0010
0100
1000
0001
0010
0000
0100
0000
,
1000
0001
0100
0010
1000
0100
1000
0010
0100
0000
0000
0000
0101
0000
0001
0000
,
1000
0000
0100
1000
0010
0000
0100
0001
0010
0000
0001
1000
0000
0001
1000
0000
,
0001
0000
0010
0001
0010
0000
0100
0010
0100
0000
1000
0100
1000
0000
0001
1000
,
0002
0003
2000
3000
,
0001
0010
0100
1000
0001
0100
0010
0001
0010
0000
0000
0000
1010
0000
1000
0000
,
0010
0100
0001
0010
0001
0100
0010
1000
0100
0000
0000
0000
0110
0000
0010
0000
,
1000
0010
0100
1000
0001
0010
0100
1000
0001
0000
0000
0000
0101
0000
0100
0000
,
0010
0100
0010
0100
0010
0001
0010
0001
0010
0000
0000
0010
1000
0000
1000
0000
,
0001
0010
0100
0001
0100
0010
0100
1000
0001
0000
0000
0000
0101
0000
0100
0000
,
1000
0000
0000
0000
1100
0000
0000
0000
1000
0100
0000
0001
0010
0000
0001
0000
,
1000
0100
1000
0000
0100
0010
0100
0000
0010
0001
0010
0100
0010
0000
0001
0000
,
1001
0000
0000
0000
1000
0000
0100
0001
0100
0000
1000
0000
0001
0000
0000
0000
,
2000
0000
0010
0000
,
0001
0100
3100
0000
,
0002
0000
0010
0000
,
1000
0000
0100
0000
0103
0000
0000
0001
,
1000
0000
0000
1001
0000
0000
0011
0000
0101
0000
1010
0000
,
1100
0000
0000
0000
0110
0000
0000
0000
1100
0000
0000
0000
1001
0000
0000
0000
0000
0000
1000
0000
0000
0100
0000
0000
,
0010
0000
0000
0000
0010
0000
0001
0000
0100
0000
0000
0010
0000
0000
0100
0000
,
0101
2002
0000
3003
,
1000
0100
0000
1000
0100
0000
0010
0000
0110
0000
0000
0001
0010
0000
0001
0000
,
0100
0010
0000
0100
0001
0000
1000
0000
1001
0000
0000
0001
0010
0000
0100
0000
,
1000
0010
0000
1000
0100
0000
0010
0000
0110
0000
0000
0100
0001
0000
0100
0000
,
1000
0010
0000
0100
0001
0000
0010
0000
1001
0000
0000
0001
1000
0000
1000
0000
,
0001
0100
0020
0000
0031
0010
2000
0000
,
3100
0010
0001
0100
1000
0000
1000
0100
,
0002
1003
0002
1003
,
0001
0000
0000
0010
0000
0000
0100
0000
1000
0001
0010
0100
1000
0000
0000
0000
,
0001
0010
0000
0100
1000
0000
1001
0000
1000
0010
0000
0100
0001
0000
1001
0000
,
0001
0100
0010
1000
0010
0000
0000
0000
1000
0000
0001
0010
0100
0000
0010
0000
,
0001
0100
0000
0010
1000
0000
0100
0000
0001
0100
0000
0010
0001
0000
0100
0000
,
0010
0000
1000
0100
1000
0000
0001
0100
0010
0100
0010
0000
0110
0000
0000
0000
,
1001
0000
1000
0100
0010
0000
0010
0000
0011
0000
0001
0000
0101
0000
0100
0000
,
0110
0000
0010
0000
1010
0000
1000
0000
1001
0000
0001
0100
0010
0000
0010
0000
,
1010
0000
1000
0100
0001
0010
1000
0000
,
0001
0100
0001
0100
0010
1000
0010
1000
0010
0000
0000
1000
0001
0000
0001
0000
,
1000
0010
0100
0001
1000
0000
0100
0000
0010
0001
1000
0001
0100
0000
0010
0000
,
1010
0000
0000
0000
1001
0000
0000
0000
0001
0010
0100
1000
0100
0010
0001
1000
,
0010
0100
0001
0100
0010
0000
1000
0000
0001
0100
0001
0010
0100
0000
1000
0000
,
0100
1000
0010
0000
0100
0001
0010
0000
0100
0010
0001
0000
1000
0010
1000
0010
,
0100
0000
0000
0000
1001
0000
0000
0000
1000
0010
0100
0010
1000
0001
0100
0001
,
1000
0000
0100
1000
0001
0000
0100
0001
1000
0000
0010
1000
0001
0000
0010
0100
,
0010
0001
0101
0000
0010
1000
1100
0000
,
2000
3000
0002
0003
,
1000
0010
0100
0001
0010
0100
1000
0001
0100
0000
0000
0000
0001
1000
0001
0000
,
1000
0100
0010
0001
0100
0010
1000
0100
0010
0000
0000
0000
0001
0100
0001
0000
,
1000
0010
0100
0001
1000
0010
0100
0010
1000
0000
0000
0000
0100
0010
0001
0000
,
1000
0100
0010
0100
1000
0001
0100
0010
1000
0000
0000
0100
0010
0000
0010
0000
,
0001
0100
0010
1000
0010
0100
1000
0100
0010
0000
0000
0000
1000
0001
0010
0000
,
0100
1000
0010
0000
0100
0001
0010
0000
0001
0100
0000
0010
1000
0000
0001
0000
,
2000
3020
0032
0023
,
1030
0000
0001
0000
,
1000
0100
0010
0001
0010
0100
0001
0100
0010
0000
0000
0000
0001
1000
0001
0000
,
1000
0010
0100
0010
0100
1000
0100
0010
1000
0000
0000
1000
0001
0000
0100
0000
,
0001
0100
0010
1000
0010
0100
1000
0100
0010
0000
0000
0000
1000
0001
1000
0000
,
0001
0010
0100
0010
0100
0001
0100
0010
0001
0000
0000
0001
1000
0000
0001
0000
,
0100
0010
1000
0100
0010
0001
0010
0100
0010
0000
0000
0000
1000
0010
1000
0000
,
0010
0001
0100
0000
0010
1000
0100
0000
0001
0100
0000
0100
1000
0000
1000
0001
,
2000
0000
0000
0010
0001
0000
3001
0000
,
1001
0000
0000
0000
,
0000
0000
0000
0000
;
#NOTES:
     dance-double:
     :
     Easy:
     4:
     :
00000000
00000000
00000000
00000000
,
00000000
00000000
00000000
00000000
,
00000000
00000000
00000000
00000000
,
00000000
00000000
00000000
00000000
,
00000000
00000000
00000000
00000000
,
00000000
00000000
00000000
00000000
,
00000000
00001000
00010000
00000000
,
00010000
00001000
00010000
00000000
,
00000100
00000000
00000010
00000000
,
00000110
00000000
00000000
00000000
,
00000001
00001000
00000001
00000000
,
00000001
00000100
00000010
00000000
,
00000010
00010000
00001000
00000000
,
00011000
00000000
00000000
00000000
,
00010000
00001000
01000000
00000000
,
01000000
00010000
00100000
00000000
,
00100000
00010000
10000000
00000000
,
10010000
00000000
00000000
00000000
,
10000000
00000000
01000000
00000000
,
00100000
00010000
00100000
00000000
,
00001000
00000000
00010000
00000000
,
00011000
00000000
00000000
00000000
,
00001000
00000000
00010000
00000000
,
00000100
00001000
00000100
00000000
,
00000010
00000000
00000001
00000000
,
00001001
00000000
00000000
00000000
,
00000001
00000000
00000100
00000000
,
00000010
00001000
00000010
00000000
,
00000100
00000000
00001000
00000000
,
00010000
00000000
00000000
00000000
,
00001000
00000000
00010000
00000000
,
00100000
10000000
00100000
00000000
,
01000000
00000000
00000000
00000000
,
01100000
00000000
00000000
00000000
,
10000000
00000000
01000000
00000000
,
00100000
00000000
00000000
00000000
,
00100000
00000000
00001000
00000000
,
00010000
00000000
00000000
00000000
,
00001000
00010000
00001000
00000000
,
00010000
00000000
00000010
00000000
,
00000100
00000000
00000001
00001000
,
00000001
00000000
00000000
00000000
,
00000001
00000000
00001000
00000000
,
00000100
00000000
00000100
00000000
,
00010000
00001000
00010000
00000000
,
00011000
00000000
00000000
00000000
,
00002000
00000000
00000000
00003000
,
00200000
00000000
00000000
00300000
,
00020000
00000000
00000000
00000000
,
00030000
00000000
00000000
00000000
,
10000000
00000000
00100000
00000000
,
01000000
00010000
00000000
00000000
,
00010000
00000000
00100000
00000000
,
00001000
00010000
00001000
00000000
,
00020000
00000000
00000000
00030000
,
00002000
00000000
00000000
00003000
,
00000010
00000000
00000010
00000000
,
00000002
00000000
00000000
00000003
,
00000001
00000000
00000010
00000000
,
00000100
00001000
00000000
00000000
,
00001000
00000000
00000010
00000000
,
00010000
00001000
00010000
00000000
,
00002000
00000000
00000000
00003000
,
00020000
00000000
00000000
00030000
,
00100000
00000000
00100000
00000000
,
10000000
00000000
00000000
00000000
,
10000000
00000000
00010000
00000000
,
00100000
01000000
00100000
00000000
,
00010000
00000000
00100000
00000000
,
00001000
00000000
00000000
00000000
,
00010000
00000000
00001000
00000000
,
00010000
00000100
00010000
00000000
,
00000100
00000000
00000010
00000000
,
00000002
00000000
00000003
00000000
,
00000001
00000000
00000100
00000000
,
00001000
00000000
00000000
00000000
,
00010000
00000000
00001000
00000000
,
00011000
00000000
00000000
00000000
,
00010000
00000000
00100000
00000000
,
10000000
00000000
00000000
00000000
,
02000000
00000000
00000000
03000000
,
01100000
00000000
00000000
00000000
,
00000000
00000000
00000000
00000000
;
#NOTES:
     dance-double:
     :
     Medium:
     9:
     :
00000000
00000000
00000000
00000000
,
00000000
00000000
00000000
00000000
,
00000000
00000000
00000000
00000000
,
00000000
00000000
00000000
00000000
,
00000000
00000000
00000000
00000000
,
00000000
00000000
00000000
00000000
,
00000000
00000000
10000000
00000000
01000000
00100000
01000000
00000000
,
20000000
30020000
00230000
00302000
,
00003000
00001000
00010000
00011000
,
00010000
00000000
00000000
00000100
00000000
00000000
00001000
00000000
00000020
00000000
00000000
00000000
00000030
00000000
00000000
00000000
,
00000010
00000000
00000000
00000100
00000000
00000000
00000001
00000000
00000010
00000000
00000000
00000100
00000000
00000000
00001000
00000000
,
00000100
00010100
00000000
00010000
,
00001000
00000000
00000000
01000000
00000000
00000000
00010000
00000000
00100000
00000000
00000000
01000000
00000000
00000000
10000000
00000000
,
00200000
02300000
03002000
00023000
,
00030000
00000000
00022000
00000000
00033000
00000000
00000000
00010000
,
00001000
00000000
00010000
00000010
00010000
00000000
00000010
00001000
,
00000010
00000100
00000001
00000010
,
00000002
00000000
00002000
00003003
,
00001000
00000000
00000000
00000100
00000000
00000000
00000010
00000000
00000100
00000000
00000000
00000000
00000000
00000000
00000000
00000000
,
00000100
00000000
00000000
00010000
00000000
00000000
00001000
00000000
00010000
00000000
00000000
00000000
00000000
00000000
00000000
00000000
,
00001000
00000000
00000000
00100000
00000000
00000000
00010000
00000000
01000000
00000000
00000000
00000000
00000000
00000000
00000000
00000000
,
01000000
00000000
00000000
00100000
00000000
00000000
01000000
00000000
00010000
00000000
00000000
00000000
00000000
00000000
00000000
00000000
,
00010000
00000000
00000000
00100000
00000000
00000000
00001000
00000000
00010000
00000000
00000000
00000000
00000000
00000000
00000000
00000000
,
00001000
00000000
00000000
00000000
00010000
00000000
00000000
00000000
00000100
00000000
00000000
00001000
00000000
00000000
00000010
00000000
,
00000200
00000302
00002003
00003020
,
00000230
00000300
00000020
00000030
,
00000010
00000000
00000000
00001000
00000000
00000000
00000010
00000000
00010000
00000000
00000000
00000000
00000000
00000000
00000000
00000000
,
00001000
00000000
00000000
00010000
00000000
00000000
00001000
00000000
00100000
00000000
00000000
00000000
00000000
00000000
00000000
00000000
,
00001000
00000000
00000000
00010000
00000000
00000000
00001000
00000000
01000000
00000000
00000000
00000000
00000000
00000000
00000000
00000000
,
01000000
00000000
00000000
00010000
00000000
00000000
00100000
00000000
00010000
00000000
00000000
00000000
00000000
00000000
00000000
00000000
,
10000000
00000000
00000000
01000000
00000000
00000000
00100000
00000000
00010000
00000000
00000000
00000000
10000000
00000000
01000000
00000000
,
10000000
00000000
00000000
00000000
00010000
00000000
00000000
00000000
00100000
00000000
00000000
00001000
00000000
00000000
00010000
00000000
,
00002000
00000000
00000000
00000000
,
00003000
00000000
00000000
00000000
00000000
00000000
00010000
00001000
,
00010000
00000000
00000000
00010000
00000100
00000000
00000000
00000100
,
00001000
00000000
00000010
00001000
00000100
00000000
00000010
00000000
,
00000001
00000000
00000000
00000001
00000100
00000000
00000010
00001000
,
00000010
00010000
00001000
00000000
,
00001000
00010000
00100000
00000000
,
10000000
10000000
01000000
00000000
,
00010000
00000000
00000000
00000000
00001000
00000000
00000000
00000000
00010000
00000000
00000000
00001000
00000000
00000000
00000010
00000000
,
00000001
00002000
00000000
00003000
,
00001000
00000000
00000000
00000100
00000000
00000000
00001000
00000000
00000010
00000000
00000000
00000000
00000100
00000000
00000000
00000000
,
00001000
00000000
00000000
00010000
00000000
00000000
00001000
00000000
00010000
00000000
00000000
00000000
00000000
00000000
00010000
00000000
,
00001000
00000000
00000000
00100000
00000000
00000000
00001000
00000000
01000000
00000000
00000000
00000000
00010000
00000000
00000000
00000000
,
00100000
00000000
00000000
01000000
00000000
00000000
10000000
00000000
01000000
00000000
00000000
00000000
00000000
00000000
01000000
00000000
,
00200000
00302000
00023000
00030200
,
00001300
00000000
00000110
00000000
,
00002002
00000000
00000000
00000000
,
00003003
00000000
00000000
00000000
,
00000001
00000000
00000000
00000100
00000000
00000000
00000001
00000000
00001000
00000000
00000000
00000100
00000000
00000000
00010000
00000000
,
00001000
00011000
00000000
00010000
,
00001000
00000000
00000000
01000000
00000000
00000000
00010000
00000000
00100000
00000000
00000000
00010000
00000000
00000000
01000000
00000000
,
00100000
00000000
10000000
00000000
00010000
10000000
00010000
00000000
,
00000000
00000000
00010000
00100000
00010000
00000000
01000000
00000000
,
00001000
00010000
00000010
00001000
,
00000000
00001000
00000100
00000001
,
00000100
00000000
00000000
00001000
00000000
00000000
00000100
00000000
00010000
00000000
00000000
00000000
00000000
00000000
00000000
00000000
,
00001000
00000000
00000000
00100000
00000000
00000000
00001000
00000000
00010000
00000000
00000000
00100000
00000000
00000000
01000000
00000000
,
00100000
10000000
00000000
10000000
,
01000000
00000000
00000000
00100000
00000000
00000000
00001000
00000000
00010000
00000000
00000000
00001000
00000000
00000000
00100000
00000000
,
01000000
00000000
00010000
00000000
00001000
00010000
00001000
00000000
,
00000000
00022000
00000000
00033000
,
00010000
00000000
00001000
00000000
00000010
00000001
00000010
00000000
,
00000001
00000100
00001000
00010000
,
00002000
00003000
00020000
00030000
,
00001000
00000000
00000000
01000000
00000000
00000000
00010000
00000000
01000000
00000000
00000000
00000000
00100000
00000000
10000000
00000000
,
00100000
00000000
00000000
01000000
00000000
00000000
00010000
00000000
00100000
00000000
00000000
00000000
00000000
00000000
00000000
00000000
,
00010000
00000000
00000000
10000000
00000000
00000000
00100000
00000000
01000000
00000000
00000000
00000000
00001000
00000000
00010000
00000000
,
00001000
00000000
00000000
01000000
00000000
00000000
00001000
00000000
00010000
00000000
00000000
00000000
00000000
00000000
00000000
00000000
,
00010000
00000000
00000000
00000100
00000000
00000000
00001000
00000000
00000010
00000000
00000000
00000000
00000100
00000000
00000000
00000000
,
00001000
00000000
00000000
00000000
00000100
00000000
00000000
00000000
00000010
00000000
00000000
00001000
00000000
00000000
00000010
00000000
,
00020000
00032000
00203000
00320000
,
00230000
00300000
00002000
00003000
,
00010000
00000000
00000000
00000100
00000000
00000000
00001000
00000000
00000100
00000000
00000000
00000000
00000010
00000000
00000001
00000000
,
00000010
00000000
00000000
00000100
00000000
00000000
00001000
00000000
00000010
00000000
00000000
00000000
00000000
00000000
00000000
00000000
,
00001000
00000000
00000000
00000001
00000000
00000000
00000010
00000000
00000100
00000000
00000000
00000000
00010000
00000000
00001000
00000000
,
00010000
00000000
00000000
00000100
00000000
00000000
00010000
00000000
00001000
00000000
00000000
00000000
00000000
00000000
00000000
00000000
,
00001000
00000000
00000000
01000000
00000000
00000000
00010000
00000000
00100000
00000000
00000000
00000000
01000000
00000000
00000000
00000000
,
00010000
00000000
00000000
00000000
01000000
00000000
00000000
00000000
00100000
00000000
00000000
00010000
00000000
00000000
00100000
00000000
,
00002000
00023000
00030020
00002030
,
00003001
00000000
00000000
00000000
,
00000000
00000000
00000000
00000000
;
#NOTES:
     dance-double:
     :
     Hard:
     13:
     :
00000000
00000000
00000000
00000000
,
00000000
00000000
00000000
00000000
,
00000000
00000000
00000000
00000000
,
00000000
00000000
00000000
00000000
,
00000000
00000000
00000000
00000000
,
00000000
00000000
00000000
00000000
,
00000000
00000000
10000000
00100000
10000000
00000000
00010000
00100000
,
00010000
00000000
01000000
00000000
00001000
00010000
00001000
00000000
,
00000000
00011000
00001010
00000011
,
00000001
00000010
00000000
00000001
00000000
00000100
00000010
00000000
00001000
00000001
00001000
00000000
00000100
00000000
00000000
00000000
,
00010000
00000000
00000000
00010000
00001000
00000000
01000000
00000000
00010000
00000000
00000000
00010000
00100000
00000000
01000000
00000000
,
10000000
00100000
10000000
00000000
00010000
00100000
00010000
00000000
,
10000000
00000000
00000000
10000000
00100000
00000000
01000000
00000000
00010000
00000000
00000000
00010000
00100000
00000000
00001000
00000000
,
00010000
00000100
00001000
00000000
00000010
00000100
00000001
00000000
,
00001000
00000001
00001000
00000001
00000010
00000100
00010000
00000100
,
00010000
00001000
00010000
00001000
00100000
00010000
01000000
00010000
,
00100000
01000000
10000000
00100000
01000000
00010000
00100000
01000000
,
10000000
00000000
01000000
00100000
01000000
00000000
00100000
00010000
00100000
00000000
00000000
00001000
00000000
00000000
00010000
00000000
,
00001000
00000000
00000000
00001000
00010000
00000000
00000100
00000000
00001000
00000000
00000000
00000000
00001000
00000000
00000010
00000000
,
00000100
00000000
00000000
00000100
00001000
00000000
00000100
00000000
00000001
00000000
00000000
00000000
00000010
00000000
00000100
00000000
,
00001000
00000000
00000000
00001000
00000100
00000000
00010000
00000000
00001000
00000000
00000000
00000000
00001000
00000000
00010000
00000000
,
00100000
00000000
00000000
00100000
01000000
00000000
00010000
00000000
10000000
00000000
00000000
10000000
00010000
00000000
00010000
00000000
,
10000000
01000000
00000000
10000000
01000000
00000000
00100000
00000000
00001000
00000000
00000000
00000000
00010000
00000000
00001000
00000000
,
00000010
00000000
00000000
00000000
00000011
00000000
00000000
00000000
00000001
00000000
00000000
00000100
00000000
00000000
00001000
00000000
,
00020000
00100000
00032000
00000010
,
00013000
00000000
00011000
00000000
,
00010000
00000000
00000000
00010000
00001000
00000000
00100000
00000000
00010000
00000000
00000000
00000000
00010000
00000000
01000000
00000000
,
00100000
00000000
00000000
00100000
00010000
00000000
00100000
00000000
10000000
00000000
00000000
00000000
01000000
00000000
00100000
00000000
,
00010000
00000000
00000000
00010000
00100000
00000000
00001000
00000000
00010000
00000000
00000000
00000000
00010000
00000000
00001000
00000000
,
00000100
00000000
00000000
00000100
00000010
00000000
00001000
00000000
00000001
00000000
00000000
00000001
00001000
00000000
00001000
00000000
,
00000001
00000010
00000000
00000001
00000010
00000000
00000100
00000000
00010000
00000000
00000000
00000000
00001000
00000000
00010000
00000000
,
01000000
00000000
00000000
00000000
11000000
00000000
00000000
00000000
10000000
00000000
00000000
00100000
00000000
00000000
00010000
00000000
,
00002000
00000000
00000000
00000000
00000100
00000000
00000000
00000000
00013000
00000000
00000000
01000000
00000000
00000000
10000000
00000000
,
00020000
00000000
00000000
00000000
00030000
00000000
00010000
00100000
01000000
00000000
10000000
00000000
10000000
00000000
00000000
00000000
,
00010000
00000000
00000000
10000000
00100000
00000000
00000000
00100000
,
00010000
00001000
00010000
00000000
00011000
00000000
00010000
00001000
,
00000010
00000000
00000000
00000010
00000001
00000000
00001000
00000010
,
00000100
00000000
00001000
00000100
00000002
00000000
00000003
00001000
,
00000001
00000000
00000000
00000100
00000000
00000000
00001000
00000000
00010000
00000000
00010000
00000000
,
00100000
00000000
00000000
00000000
10000000
00000000
00000000
00000000
10000000
00000000
00000000
00000000
00010000
00000000
00000000
00000000
00000000
00000000
10000000
00000000
00000000
00010000
00000000
00000000
,
01000000
00000000
00000000
00000000
01000000
00000000
00100000
00000000
00010000
00000000
00000000
00001000
00000000
00000000
00010000
00000000
,
00000100
00000000
00001000
00000000
00000010
00000000
00001000
00000000
00000100
00000000
00000010
00000001
00000010
00000000
00000000
00000000
,
00000100
00000000
00000000
00010000
00000000
00000000
00001000
00000000
00010000
00000000
00000000
00000000
00100000
00000000
00010000
00000000
,
00001000
00000000
00000000
00000100
00000000
00000000
00001000
00000000
00011000
00000000
00000000
00000000
00000000
00000000
00010000
00000000
,
01000000
00000000
00000000
00100000
00000000
00000000
00001000
00000000
00010000
00000000
00000000
00000000
00000010
00000000
00000100
00000000
,
00001000
00000000
00000000
00010000
00000000
00000000
00001000
00000000
00011000
00000000
00000000
00000000
00000000
00000000
00001000
00000000
,
00020000
02030000
23000000
30200000
,
00310000
00000000
00010000
00001000
00000020
00000000
00000031
00001000
,
00000002
00000000
00000000
00000003
,
00000001
00000000
00000000
00001000
00000000
00000000
00000100
00000000
00010000
00001000
00010000
00001000
00010000
00000000
00000000
00000000
,
00001000
00000000
00000000
00010000
00000000
00000000
00100000
00000000
10000000
00000000
00000000
00100000
00000000
00000000
00010000
00000000
,
00001000
00000000
00011000
00000000
00001000
00100000
01000000
00010000
,
00001000
00000000
00000000
00000010
00000000
00000000
00000001
00000000
00000010
00000000
00000000
00001000
00000000
00000000
00010000
00000000
,
00001000
00000000
00011000
00000000
00010000
01000000
10000000
00000000
,
00000000
00000000
10000000
01000000
00100000
00000000
00100000
00001000
,
00010000
00011000
00001100
00000101
,
00000000
00000000
00000001
00000010
00001000
00010000
01000000
10000000
,
00100000
00000000
00000000
00010000
00000000
00000000
00001000
00000000
00022000
00000000
00000000
00000000
00033000
00000000
00000000
00000000
,
00010000
00000000
00000000
00001000
00000000
00000000
00000100
00000000
00000001
00000000
00000000
00000100
00000000
00000000
00001000
00000000
,
00010000
00000000
00011000
00000000
00010000
00000100
00000010
00001000
,
00010000
00000000
00000000
01000000
00000000
00000000
10000000
00000000
01000000
00000000
00000000
00010000
00000000
00000000
00001000
00000000
,
00010000
00000000
00011000
00000000
00001000
00000010
00000001
00000000
,
00000000
00000000
00000001
00000010
00000100
00000000
00000100
00010000
,
00001000
00010000
00001000
00100000
00010000
00100000
00010000
10000000
,
00200000
00320000
00032000
00003200
,
00002300
00003000
00020000
00030000
,
00001000
00010000
00000000
00010000
00000010
00000000
00001000
00000000
00000001
00000000
00000000
00000000
00000110
00000000
00000000
00000000
,
00000001
00000100
00000000
00000100
00001000
00000000
00010000
00000000
00001000
00000000
00000000
00000000
00011000
00000000
00000000
00000000
,
00010000
00100000
00000000
00100000
01000000
00000000
10000000
00000000
01000000
00000000
00000000
00000000
01100000
00000000
00000000
00000000
,
10000000
00100000
00000000
01000000
00010000
00000000
00100000
00000000
00001000
00000000
00000000
00001000
00010000
00000000
00010000
00000000
,
00001000
00010000
00000000
00001000
00000010
00000000
00000100
00000000
00000010
00000000
00000000
00000010
00000001
00000000
00000001
00000000
,
00000100
00000000
00000000
00000000
00000110
00000000
00000000
00000000
00000010
00000000
00000000
00001000
00000000
00000000
00010000
00000000
,
01000000
00100000
00010000
00000000
00100000
01000000
00010000
00000000
,
00200000
00300000
02000000
03000000
,
10000000
00000000
00000000
01000000
00000000
00000000
00100000
00000000
00100000
00000000
00000000
00000000
00001000
00000000
00010000
00000000
,
00002000
00000010
00013000
00011000
,
00010000
00000000
00000000
00000010
00000000
00000000
00001000
00000000
00001000
00000000
00000000
00000000
00000001
00000000
00000100
00000000
,
00000020
00000000
00000000
00000000
00001000
00000000
00000000
00000000
00000130
00000000
00000000
00000100
00000001
00000000
00000001
00000000
,
00000010
00000100
00000000
00000100
00001000
00000000
00000010
00000000
00001000
00000000
00000000
00000000
00000010
00000000
00010000
00000000
,
00001000
00000000
00000000
00000000
00011000
00000000
00000000
00000000
00001000
00000000
00000000
00010000
00000000
00000000
00100000
00000000
,
10000000
01000000
10000000
00000000
01000000
00010000
00001000
00000000
,
00011000
00000000
00000000
00000000
,
00000000
00000000
00000000
00000000
;
#NOTES:
     dance-double:
     :
     Challenge:
     16:
     :
00000000
00000000
00000000
00000000
,
00000000
00000000
00000000
00000000
,
00000000
00000000
00000000
00000000
,
00000000
00000000
00000000
00000000
,
00000000
00000000
00000000
00000000
,
00000000
00000000
00000000
00000000
,
00000000
00000000
10000000
01000000
00100000
00000000
00100000
00010000
,
00001000
00000000
00000100
00000010
00000001
00000000
00001001
00000000
,
00000001
00000100
00001000
00010000
00100000
10000000
01000000
00010000
,
00001000
00000000
00000000
00000010
00000000
00000000
00000001
00000000
00002002
00000000
00000000
00000000
00003003
00000000
00000000
00000000
,
00001000
00000000
00000000
00001000
00000001
00000000
00000100
00000000
00000010
00000000
00000000
00000010
00010000
00000000
00001000
00000000
,
00100000
00010000
01000000
00000000
00100000
10000000
01000000
00000000
,
10000000
00000000
00000000
10000000
01000000
00000000
00100000
00000000
00001000
00000000
00000000
00001000
00010000
00000000
00100000
00000000
,
00010000
00001000
00000100
00000001
00000010
00000100
00001000
00000000
,
00000001
00000000
00000100
00000010
00000100
00000000
00001000
00000000
00010000
00001000
00010000
00000000
00011000
00000000
00000000
00000000
,
00010000
00000000
00100000
01000000
00100000
00000000
10000000
00000000
00100000
01000000
00100000
00000000
10010000
00000000
00000000
00000000
,
10000000
01000000
00100000
00010000
00001000
00000100
00000010
00000001
,
00002000
00003000
00000002
00000003
,
00000001
00000100
00000000
00001000
00010000
00000000
00001000
00000000
00000010
00000000
00000000
00000000
00000010
00000000
00001000
00000000
,
00010000
01000000
00000000
00010000
00001000
00000000
00010000
00000000
00100000
00000000
00000000
00000000
10000000
00010000
10000000
00000000
,
01000000
00010000
00000000
00001000
00010000
00000000
00100000
00000000
00010000
00000000
00000000
00000000
00001000
00000100
00000001
00000000
,
00000010
00000100
00000000
00010000
00001000
00000000
00000100
00000000
00000001
00000000
00000000
00000000
00000010
00000100
00000010
00000000
,
00000001
00001000
00000000
00000100
00010000
00000000
01000000
00000000
00100000
00000000
00000000
00000000
00010000
10000000
00010000
00000000
,
10000000
00000000
00100000
00000000
01000000
00000000
00100000
00000000
00010000
00001000
00000000
00100000
00001000
00000000
00010000
00000000
,
01000000
00100000
00001000
00010000
00100000
01000000
00001000
00010000
,
02000000
03000000
20000000
30000000
,
10000000
00100000
00000000
00010000
00001000
00000000
00010000
00000000
01000000
00000000
00000000
00000000
01000000
00000000
00010000
00000000
,
00001000
00000010
00000000
00001000
00010000
00000000
00001000
00000000
00000100
00000000
00000000
00000000
00000001
00001000
00000001
00000000
,
00000010
00001000
00000000
00010000
00001000
00000000
00000100
00000000
00001000
00000000
00000000
00000000
00010000
00100000
10000000
00000000
,
01000000
00100000
00000000
00001000
00010000
00000000
00100000
00000000
10000000
00000000
00000000
00000000
01000000
00100000
01000000
00000000
,
10000000
00010000
00000000
00100000
00001000
00000000
00000010
00000000
00000100
00000000
00000000
00000000
00001000
00000001
00001000
00000000
,
00000001
00000000
00000100
00000000
00000010
00000000
00000100
00000000
00001000
00010000
00000000
00000100
00010000
00000000
00001000
00000000
,
00000010
00000000
00000100
00000000
00010000
00000000
00001000
00000000
00000100
00000010
00000000
00010000
00001000
00000000
00000010
00000000
,
00000002
00000000
00000000
00000000
00001003
00000000
00000001
00000100
00001000
00000000
00010000
00000000
00010000
00000000
00000000
00000000
,
00002000
00000000
00003010
00001000
00020000
00000000
00030010
00001000
,
00010000
01000000
00010000
00100000
00001000
00000000
00010000
00100000
,
00020000
00000000
00031000
00100000
00020000
00000000
00031000
00000100
,
00001000
00000010
00001000
00000100
00010000
00000000
00011000
00001000
,
00100000
00000000
00000000
01100000
00000000
00000000
10000000
00000000
01000000
00000000
00010000
00000000
,
00001000
00000000
00000000
00000000
00000010
00000000
00000000
00000000
00000001
00000000
00000000
00000000
00000010
00000000
00000000
00000000
00000000
00000000
00000001
00000000
00000000
00000100
00000000
00000000
,
00001000
00000000
00000000
00000000
00001000
00000000
00010000
00000000
00100000
00000000
00000000
10000000
00000000
00000000
00100000
00000000
,
01000000
02200000
00000000
03300000
,
10000000
00000000
00000000
01000000
00000000
00000000
00001000
00000000
00000100
00000000
00000000
00000010
00000001
00000000
00001000
00000000
,
00000001
00000000
00000000
00000100
00000000
00000000
00010000
00000000
01000000
00000000
00000000
00000000
00000000
00000000
00100000
10000000
,
00010000
00000000
00000000
00100000
00000000
00000000
10000000
00000000
00100000
00000000
00000000
00000000
00001000
00000000
00010000
00000000
,
00001000
00000000
00000000
00000010
00000000
00000000
00000001
00000000
00001001
00000000
00000000
00000000
00000000
00000000
00000001
00000000
,
00000002
00000100
00000203
00001000
00002300
00010000
00023000
00100000
,
00130000
00000000
10000000
00000000
01000000
00000000
00100000
00010000
00100000
00000000
00001000
00000000
00001000
00000000
00010000
00001000
,
00010000
00010000
00001000
00001000
00010000
00010000
00001000
00001000
,
00011000
00000000
00000000
00000000
00000000
00000000
00000000
00000000
00010000
00000100
00001000
00000010
00000100
00000000
00000000
00000000
,
00000001
00000010
00000000
00000100
00010000
00000000
00001000
00000100
00001000
00010000
00000000
00010000
00100000
00000000
01000000
00100000
,
10000000
00000000
01000000
00100000
00010000
00000000
00000000
00000000
01000000
00000000
00100000
00000000
10010000
00000000
00000000
00000000
,
10000000
01000000
00000000
00100000
00001000
00000000
00010000
01000000
00100000
00001000
00000000
00010000
00100000
00000000
00010000
00001000
,
00010000
00000100
00000010
00000001
00000101
00000100
00000110
00000000
,
00001001
00000000
00000000
00000000
00000001
00000010
00000100
00001000
00000001
00000000
00000100
00000010
00000100
00000000
00001000
00000000
,
00010000
00000000
00000010
00000000
00010000
00000000
00001000
00000000
00010000
00000000
00100000
01000000
00100000
00000000
10000000
00000000
,
00010000
00000000
01000000
00100000
00010000
00001000
01000000
00010000
,
00100000
00001000
00010000
00001000
00100000
00000000
00010000
00100000
01000000
00000000
00000000
10000000
00010000
00000000
00000000
00000000
,
10000000
00100000
00000000
01000000
00001000
00000000
00010000
01000000
00010000
00001000
00000000
00001000
00000010
00000000
00000100
00000010
,
00000001
00000000
00000100
00000010
00001000
00000000
00000000
00000000
00000100
00000000
00000010
00000000
00001001
00000000
00000000
00000000
,
00000001
00000100
00000000
00000010
00010000
00000000
00001000
00000100
00000010
00010000
00000000
00001000
00000010
00000000
00001000
00010000
,
00001000
01000000
00100000
10000000
11000000
01000000
01100000
00000000
,
10010000
00000000
00000000
00000000
10000000
00100000
01000000
00010000
10000000
00000000
01000000
00100000
01000000
00000000
00010000
00000000
,
00001000
00000000
00100000
00000000
00001000
00000000
00010000
00000000
00001000
00000000
00000010
00000100
00000010
00000000
00000001
00000000
,
00001000
00000010
00010000
00001000
00100000
00010000
10000000
00000000
,
10010000
00000000
01100000
00000000
,
10000000
00100000
00000000
00010000
00001000
00000000
00100000
00010000
01000000
00000000
00000000
00000000
00100000
00010000
00100000
00000000
,
00010000
00001000
00000000
00001000
00000100
00000000
00000001
00001000
00000001
00000000
00000000
00000000
00000010
00000000
00000100
00000000
,
00010000
00000100
00000000
00001000
00000010
00000000
00000100
00001000
00000100
00000000
00000000
00000000
00000010
00000000
00010000
00000000
,
00001000
00000010
00000000
00000010
00000001
00000000
00001000
00000100
00000010
00000000
00000000
00000010
00000001
00000000
00000001
00000000
,
00001000
00000010
00000000
00000100
00001000
00000000
00010000
00100000
00010000
00000000
00000000
00000000
00001000
00000100
00001000
00000000
,
00000100
00000010
00000100
00000000
00001000
00010000
00001000
00000000
01000000
00100000
00000000
00100000
10000000
00000000
00010000
10000000
,
00020000
00230000
00302000
00023000
00030200
00002300
00003020
00000230
,
00000301
00000000
00001000
00000000
,
00000001
00000010
00000000
00001000
00010000
00000000
00000010
00001000
00000100
00000000
00000000
00000000
00000010
00001000
00000010
00000000
,
00001000
00010000
00000000
00010000
01000000
00000000
10000000
00010000
10000000
00000000
00000000
00000000
00100000
00000000
01000000
00000000
,
00001000
01000000
00000000
00010000
00100000
00000000
01000000
00010000
01000000
00000000
00000000
00000000
00100000
00000000
00001000
00000000
,
00010000
00100000
00000000
00100000
10000000
00000000
00010000
01000000
00100000
00000000
00000000
00100000
10000000
00000000
10000000
00000000
,
00010000
00100000
00000000
01000000
00010000
00000000
00001000
00000010
00001000
00000000
00000000
00000000
00010000
01000000
00010000
00000000
,
01000000
00100000
01000000
00000000
00010000
00001000
00010000
00000000
00000100
00000010
00000000
00000010
00000001
00000000
00001000
00000001
,
00002000
00003020
00020030
00032000
02003000
03020000
00230000
00300000
,
01100000
00000000
00000000
00000000
,
00000000
00000000
00000000
00000000
;
