
//----- song ID: plwf -----//
#TITLE:Playing With Fire;
#ARTIST:kors k;
#BANNER:Playing With Fire.png;
#BACKGROUND:Playing With Fire-bg.png;
#CDTITLE:./CDTitles/RB colette -Spring-.png;
#MUSIC:Playing With Fire.ogg;
#SAMPLESTART:75;
#SAMPLELENGTH:15;
#BPMS:0=160;
#STAGE:17;
#NOTES:
     dance-single:
     :
     Beginner:
     2:
     :
0000
0000
0000
0000
,
0000
0000
0000
0000
,
0000
0000
0000
0000
,
0000
0000
0000
0000
,
0000
0000
0000
0000
,
0000
0000
0000
0000
,
1000
0000
0000
0000
,
0100
0000
0000
0000
,
0010
0000
0000
0000
,
0001
0000
0000
0000
,
0001
0000
0010
0000
,
0001
0000
0000
0000
,
0100
0000
0000
0000
,
0010
0000
0000
0000
,
1000
0000
0010
0000
,
1000
0000
0000
0000
,
0100
0000
0000
0000
,
0010
0000
0000
0000
,
0002
0000
0000
0000
,
0003
0000
0000
0000
,
0200
0000
0000
0000
,
0300
0000
0000
0000
,
0020
0000
0000
0000
,
0030
0000
0000
0000
,
2000
0000
0000
0000
,
3000
0000
0000
0000
,
1001
0000
0000
0000
,
0000
0000
0000
0000
,
1001
0000
0000
0000
,
0000
0000
0000
0000
,
2000
0000
0000
0000
,
3000
0000
0000
0000
,
0002
0000
0000
0000
,
0003
0000
0000
0000
,
0001
0000
0000
0000
,
0010
0000
0000
0000
,
0002
0000
0000
0000
,
0003
0000
0000
0000
,
0001
0000
0000
0000
,
0100
0000
0000
0000
,
2000
0000
0000
0000
,
3000
0000
0000
0000
,
1000
0000
0100
0000
,
1000
0000
0000
0000
,
0010
0000
0000
0000
,
0000
0000
0000
0000
,
0001
0000
0100
0000
,
0001
0000
0000
0000
,
0010
0000
0000
0000
,
0000
0000
0000
0000
,
0001
0000
0000
0000
,
0100
0000
0000
0000
,
0010
0000
0010
0000
,
0100
0000
0000
0000
,
1000
0000
0000
0000
,
0100
0000
0000
0000
,
0010
0000
0010
0000
,
0100
0000
0000
0000
,
0020
0000
0000
0000
,
0030
0000
0000
0000
,
0200
0000
0000
0000
,
0300
0000
0000
0000
,
0001
0000
0000
0000
,
1000
0000
0000
0000
,
0001
0000
0010
0000
,
1000
0000
0000
0000
,
1001
0000
0000
0000
,
0000
0000
0000
0000
;
#NOTES:
     dance-single:
     :
     Easy:
     7:
     :
0000
0000
0000
0000
,
0000
0000
0000
0000
,
0000
0000
0000
0000
,
0000
0000
0000
0000
,
0000
0000
0000
0000
,
0000
0000
0000
0000
,
1000
1000
0010
1000
,
0001
0000
0001
0010
0001
0000
0000
0000
,
1000
0100
1000
0000
0001
0100
0001
0000
,
1001
0000
0000
0000
,
1000
0000
0010
0000
0100
0010
0100
0000
,
0001
1000
0001
0000
,
0001
0000
0010
0000
0100
0010
0100
0000
,
1000
0001
1000
0000
,
0001
0100
1000
0100
,
0001
0000
1000
0001
1000
0000
0000
0000
,
1000
0100
0001
0100
,
1000
1000
1001
0000
,
0001
0000
0010
0000
0100
1000
0010
0000
,
0100
0100
0100
0000
,
0101
0000
1100
0000
,
0001
1000
0110
0000
,
1000
0000
0100
0000
0010
0001
0100
0000
,
0010
0010
0010
0000
,
1010
0000
0011
0000
,
1000
0001
0110
0000
,
1000
0100
1000
0100
,
0010
0001
0010
0000
,
0001
1000
0001
1000
,
0010
0100
0001
0000
,
0002
0000
0000
0003
,
2000
0000
0000
3000
,
0200
0300
0020
0030
,
0100
0010
0100
0110
,
1001
0000
0000
0011
0000
0000
0000
0000
,
1001
0000
0000
1100
0000
0100
0000
1000
,
0000
0010
0200
0000
0000
0000
0300
0000
,
0002
0000
2000
3003
,
1001
0000
0000
1010
0000
0000
0000
0000
,
1001
0000
0000
0101
0000
0100
0000
0001
,
0000
0020
0000
0000
0000
0000
0030
0000
,
0200
0000
0020
0330
,
0001
0001
0001
0000
,
1000
1000
1000
0000
,
0010
0010
0010
0000
,
0100
0100
0100
0000
,
0001
0100
0010
1000
,
0010
0100
0001
0000
,
1000
0100
0010
0001
,
2002
0000
0000
3003
,
1000
0000
0010
0000
0100
0001
0010
0000
,
0100
1000
1001
0000
,
0101
0000
1100
0000
,
1001
0000
0000
0000
,
0001
0000
0010
0000
0100
1000
0010
0000
,
0100
0001
1001
0000
,
1100
0000
0101
0000
,
1001
0000
0000
0000
,
0001
0010
1000
0010
,
0001
0000
0100
0000
0010
0100
0010
0000
,
1010
0000
0101
0000
,
1001
0000
0000
0000
,
1000
0010
0001
0010
,
1000
0000
0100
0000
0010
0100
0010
0000
,
0011
0000
1100
0000
,
1000
0001
1000
0000
,
1001
0000
0000
0000
,
0000
0000
0000
0000
;
#NOTES:
     dance-single:
     :
     Medium:
     10:
     :
0000
0000
0000
0000
,
0000
0000
0000
0000
,
0000
0000
0000
0000
,
0000
0000
0000
0000
,
0000
0000
0000
0000
,
0000
0000
0000
0000
,
1000
0000
0010
0100
0001
0000
1001
0000
,
1000
0100
1000
0000
0001
0000
0001
0000
,
0010
0100
0010
0000
0100
0010
0100
0000
,
1001
0000
0000
0000
,
1000
0000
0000
0000
0010
0000
0000
0000
0100
0000
0000
0001
0000
0000
0100
0000
,
0001
0000
0010
0100
0010
0000
1001
0000
,
0001
0000
0000
0000
0100
0000
0000
0000
0010
0000
0000
1000
0000
0000
0010
0000
,
0100
0100
0100
1001
,
1000
0000
0000
0000
0010
0000
0000
0000
0001
0000
0000
0010
0000
0000
1000
0000
,
0001
0000
0100
0010
1000
0000
1001
0000
,
0101
0000
1100
0000
,
0110
0010
1001
0000
,
1000
0010
0100
0000
0001
0010
0100
0000
,
1000
1000
1000
0000
,
0000
0000
0001
0000
0000
0100
0000
0000
0001
0000
0000
0010
0000
0000
0100
0000
,
0000
0000
1000
0000
0000
0010
0000
0000
1000
0000
0000
0100
0000
0000
0010
0000
,
0001
0100
0010
0000
1000
0100
0010
0000
,
0001
0001
0001
0000
,
1001
0000
0000
0000
1000
0000
0100
0000
0010
0000
0000
0001
0000
0000
0010
0000
,
0001
0100
0001
0100
0000
0001
1000
0000
,
0100
0010
0000
0100
0010
0000
0001
1000
,
0000
0001
1000
0000
0100
1000
0000
0001
,
0100
0000
0001
0100
0000
0010
1000
0000
,
0010
1000
0000
0001
1000
0000
0001
1000
,
0002
0000
0000
0000
,
0000
0000
0000
0003
,
2000
0000
0000
0000
,
0000
0000
0000
3000
,
1001
0000
0000
0110
0000
0000
0000
0000
,
1010
0000
0000
0101
0000
0001
0000
1000
,
0100
0010
0100
1000
0000
0000
0000
0001
,
0100
0001
0000
1000
0010
0000
1000
0100
,
0010
0000
0000
1001
0000
0000
0000
0000
,
1100
0000
0000
0011
0000
0010
0000
0001
,
1000
0100
0000
1001
0000
0000
0000
0000
,
2000
0000
0000
3020
0000
0000
0230
0000
0000
0302
0000
0000
1003
0000
0000
0000
,
0001
0000
0000
0100
0000
0000
0001
0000
0000
0100
0000
0000
0010
0000
0000
0000
,
1000
0000
0000
0100
0000
0000
1000
0000
0000
0100
0000
0000
0010
0000
0000
0000
,
0001
0000
0000
1000
0000
0000
0100
0000
0000
1000
0000
0000
0010
0000
0000
0000
,
0100
0000
0000
0001
0000
0000
0010
0000
0000
0001
0000
0000
1000
0000
0000
0000
,
0001
0000
0000
0100
0000
0000
0100
0000
1000
0000
0000
0100
0000
0000
0100
0000
,
0001
0000
0000
0010
0000
0000
0010
0000
1000
0000
0000
0010
0000
0000
0010
0000
,
0001
0000
0000
0010
0000
0000
0100
0000
0000
1000
0000
0000
0001
0000
1000
0000
,
0020
0000
0000
0030
,
1000
0100
0010
0001
1000
0100
0010
0000
,
0001
0100
0001
1000
0100
0000
0000
0000
,
1000
0000
0000
0010
0000
0000
1000
0000
0000
0100
0000
0000
0010
0000
0001
0000
,
0000
0001
1000
0000
0110
0000
1001
0000
,
0001
0010
0100
1000
0001
0010
0100
0000
,
1000
0010
1000
0001
0010
0000
0000
0000
,
0001
0000
0000
0100
0000
0000
0001
0000
0000
0010
0000
0000
0100
0000
1000
0000
,
0000
1000
0001
0000
0110
0000
1001
0000
,
0001
0010
0100
1000
0010
0100
0001
0000
,
0100
0010
1000
0100
0010
0000
0000
0000
,
0001
0000
0000
0100
0000
0000
1000
0000
0000
0100
0000
0000
0001
0000
0000
0000
,
0101
1100
1001
0000
,
1000
0100
0010
0001
0100
0010
1000
0000
,
0010
0100
0001
0010
0100
0000
0000
0000
,
1000
0000
0000
0010
0000
0000
0001
0000
0000
0010
0000
0000
1000
0000
0000
0000
,
1000
0001
1000
0001
1000
0000
0000
0000
,
2002
0000
0000
0000
,
0000
0000
0000
0000
,
0000
0000
0000
0000
,
3003
0000
0000
0000
,
0000
0000
0000
0000
;
#NOTES:
     dance-single:
     :
     Hard:
     14:
     :
0000
0000
0000
0000
,
0000
0000
0000
0000
,
0000
0000
0000
0000
,
0000
0000
0000
0000
,
0000
0000
0000
0000
,
0000
0000
0000
0000
,
0010
0000
0010
0100
0010
0000
1001
0000
,
1000
0000
0000
1000
0100
0000
0000
0000
0010
0000
0000
0010
0001
0000
0001
0000
,
1000
0000
0100
0000
0001
0000
0100
0000
1000
0000
0001
0010
0100
1000
0001
0000
,
2002
0000
0000
3003
,
1000
0000
0010
0000
0100
0000
0010
0000
1000
0000
0010
0100
0000
0010
1000
0010
,
1000
0010
0001
0010
1000
0000
1001
0000
,
0001
0000
0010
0000
0100
0000
0010
0000
0001
0000
0010
0100
0000
0010
0001
0010
,
0001
0010
1000
0010
0001
0000
1001
0000
,
1000
0000
0100
0000
0010
0000
0100
0000
1000
0000
0100
0010
0000
0100
1000
0100
,
1000
0000
0100
0000
0001
0000
0100
0000
1000
0000
0010
0000
0000
0100
0000
0000
,
1001
0000
0000
0000
0110
0000
0001
0100
0010
0000
1000
0010
0000
1000
0010
0000
,
0100
0000
0000
0101
0000
0000
1010
0000
1000
0000
1100
0000
0000
0011
0000
0000
,
0001
0000
0100
0000
0001
0010
0001
0010
0000
0000
0001
0000
1000
0000
0100
0010
,
0100
0000
1000
0000
0010
0000
0100
0000
0001
1000
0001
1000
0001
0000
0000
0000
,
0001
0010
1000
0010
0001
1000
0100
0001
,
0100
0010
0001
0100
0010
1000
1001
0000
,
1000
0000
0010
0000
1000
0100
1000
0100
0000
0000
1000
0000
0001
0000
0010
0100
,
0010
0000
0001
0000
0100
0000
0010
0000
1000
0001
1000
0001
1000
0000
0000
0000
,
1001
0000
0000
0000
0001
0000
0100
0010
1000
0000
0000
1001
0000
0000
1000
0100
,
0010
0000
0001
0000
0010
0000
1000
0000
0000
0000
0010
0000
0010
0001
1000
0000
,
0002
0100
0000
0100
0000
0100
0000
0100
,
0203
0010
0000
0010
0000
0010
0000
0010
,
0320
1000
0000
1000
0000
1000
0000
1000
,
2030
0001
0000
0001
0000
0001
0000
0001
,
3002
0023
0230
2300
,
3200
0320
0032
2003
,
3001
0100
0001
1000
0100
1000
0001
0010
,
0001
0000
1000
0010
1000
0000
0100
0000
0000
0000
0100
0000
0110
0000
0000
0000
,
2002
0000
3003
0022
0000
0000
0033
0000
,
0202
0000
0303
0220
0300
2000
3000
0130
,
0200
0001
0302
2000
0000
0000
0003
3001
,
0010
1000
0010
0001
1000
0100
0010
0001
,
0022
0000
0033
2200
0000
0000
3300
0000
,
1010
0000
0000
0202
0003
0020
0030
1300
,
0100
0002
0000
2000
0000
0000
3003
0000
,
1010
0000
0000
1100
0000
0000
0011
0000
0000
0101
0000
0000
1001
0000
0000
0000
,
1000
0000
0000
1000
0000
0000
0100
0000
0000
0100
0000
0000
0010
0000
0001
0000
,
0100
0000
0000
0100
0000
0000
0001
0000
0000
1000
0001
0000
0100
0000
0100
0000
,
0001
0000
0000
0001
0000
0000
0010
0000
0000
0010
0000
0000
0100
0000
1000
0000
,
0010
0000
0000
0010
0000
0000
1000
0000
0000
1001
0000
0000
0001
0000
0100
0000
,
0010
0000
1000
0010
0000
0000
1010
0000
0001
0000
0100
0001
0000
0000
0101
0000
,
1000
0000
0100
1000
0000
0000
1100
0000
0010
0000
0001
0010
0000
0000
0011
0000
,
0001
0000
1000
0100
0000
1000
0010
0000
1000
0001
0000
1000
0001
1000
0001
0000
,
0100
0000
0010
0000
0100
0010
0100
0000
0000
0000
0001
0000
1000
0001
1000
0000
,
0001
1000
0100
0000
0001
0000
0100
0000
1000
0001
0100
0000
1000
0000
0100
0000
,
0001
1000
0010
0000
1000
0001
0010
0000
0100
0000
0000
0100
0000
0000
0100
0000
,
1000
0000
1000
0010
0000
0010
0100
0000
0100
0001
0000
0001
1000
0000
1001
0000
,
0000
0001
1000
0001
0000
0100
0010
0100
0010
0000
0010
1000
0000
1000
0001
0000
,
1000
0001
0010
0000
1000
0000
0010
0000
0001
1000
0010
0000
0001
0000
0010
0000
,
1000
0001
0100
0000
0001
1000
0100
0000
0010
0000
0000
0010
0000
0000
0010
0000
,
0001
0000
0001
0100
0000
0100
0010
0000
0010
1000
0000
1000
0001
0000
1001
0000
,
0000
1000
0001
1000
0000
0010
0100
0010
0100
0000
0100
0001
0000
0001
1000
0000
,
0001
0100
0010
0000
0100
0000
0101
0000
0001
1000
0100
0000
0110
0000
0000
0000
,
0001
0000
0010
0000
1000
0010
0001
0000
1000
0000
0000
1000
0000
0000
1000
0000
,
0001
0000
0001
0100
0000
0100
0010
0000
0010
1000
0000
1000
0001
0000
0001
0000
,
1000
0000
0100
0010
0100
0000
1000
0001
1000
0000
0000
0000
1001
0000
0000
0000
,
1000
0010
0100
0000
0010
0000
1010
0000
1000
0001
0010
0000
0110
0000
0000
0000
,
1000
0000
0100
0000
0001
0100
1000
0000
0001
0000
0000
0001
0000
0000
0001
0000
,
1000
0000
1000
0010
0000
0010
0100
0000
0100
0001
0000
0001
1000
0000
1000
0000
,
0000
0001
0100
0001
0000
1000
0010
0100
0001
0000
0000
0010
0000
0000
0100
0000
,
0110
2002
0000
0000
,
0000
0000
0000
0000
,
0000
0000
0000
0000
,
3003
0000
0000
0000
,
0000
0000
0000
0000
;
#NOTES:
     dance-double:
     :
     Easy:
     7:
     :
00000000
00000000
00000000
00000000
,
00000000
00000000
00000000
00000000
,
00000000
00000000
00000000
00000000
,
00000000
00000000
00000000
00000000
,
00000000
00000000
00000000
00000000
,
00000000
00000000
00000000
00000000
,
00000001
00000001
00000100
00000100
,
00000010
00000000
00000010
00000100
00000010
00000000
00000000
00000000
,
00000010
00000000
00010000
00000000
00001000
00010000
00001000
00000000
,
00011000
00000000
00000000
00000000
,
00001000
00000000
01000000
00000000
00010000
00100000
00010000
00000000
,
01000000
00100000
10000000
00000000
,
10000000
00000000
01000000
00000000
00100000
01000000
00100000
00000000
,
00010000
00010000
10000000
00000000
,
10000000
00000000
01000000
00000000
00100000
00010000
00100000
00000000
,
00001000
00010000
00001000
00000000
,
00010000
00010000
00000100
00000100
,
00001000
00001000
00001000
00000000
,
00000001
00000100
00001000
00000100
,
00000001
00000000
00001001
00000000
,
00001000
00000010
00001000
00000000
,
00000010
00010000
00001000
00000000
,
00010000
00100000
10000000
00100000
,
00010000
00000000
00011000
00000000
,
00001000
01000000
00010000
00000000
,
01000000
00100000
10000000
00000000
,
10000000
01000000
00100000
00010000
,
00100000
00000000
00001000
00000000
,
00010000
00000100
00001000
00000100
,
00000010
00000000
00000001
00000000
,
00002000
00000000
00000000
00003000
,
00000002
00000000
00000000
00000003
,
00002000
00003000
00000200
00000300
,
00010000
00001000
00011000
00000000
,
00010000
00000000
00000000
00001000
00000000
00000000
00000000
00000000
,
00001000
00000000
00000000
01000000
00000000
00010000
00000000
01000000
,
00000000
00100000
20000000
00000000
00000000
00000000
30000000
00000000
,
00020000
00000000
20000000
30030000
,
10000000
00000000
00000000
01000000
00000000
00000000
00000000
00000000
,
01000000
00000000
00000000
00100000
00000000
00001000
00000000
00010000
,
00000000
00002000
00000000
00000000
00000000
00000000
00003000
00000000
,
00010000
00010000
00010000
00000000
,
00010000
00000000
00001000
00000000
,
00000010
00000010
00000010
00000000
,
00000001
00000000
00001000
00000000
,
00000100
00000100
00000100
00000000
,
00000100
00010000
00000100
00000000
,
00010000
00001000
00010000
00000000
,
00001000
00100000
00001000
00010000
,
00001000
00000000
00000000
00000000
,
00010000
00001000
00010000
00100000
,
01000000
00100000
01000000
00000000
01100000
00000000
00000000
00000000
,
10100000
00000000
11000000
00000000
,
10010000
00000000
00000000
00000000
,
10000000
01000000
00100000
00010000
,
00100000
00001000
00100000
00000000
00001000
00000000
00000000
00000000
,
00011000
00000000
00010100
00000000
,
00011000
00000000
00000000
00000000
,
00010000
00001000
00000010
00000001
,
00001000
00000001
00001000
00000000
00000001
00000000
00000000
00000000
,
00001001
00000000
00000110
00000000
,
00001001
00000000
00000000
00000000
,
00000001
00000100
00001000
00010000
,
00001000
00010000
00001000
00000000
00010000
00000000
00000000
00000000
,
00010000
00001000
00100000
00010000
,
01000000
00100000
10000000
00000000
,
10010000
00000000
00000000
00000000
,
00000000
00000000
00000000
00000000
;
#NOTES:
     dance-double:
     :
     Medium:
     10:
     :
00000000
00000000
00000000
00000000
,
00000000
00000000
00000000
00000000
,
00000000
00000000
00000000
00000000
,
00000000
00000000
00000000
00000000
,
00000000
00000000
00000000
00000000
,
00000000
00000000
00000000
00000000
,
00000001
00000000
00001000
00000010
00001000
00000000
00001010
00000000
,
00000010
00010000
00001000
00000000
00010000
00000000
00011000
00000000
,
00001000
01000000
00001000
00000000
01000000
00010000
01000000
00000000
,
01100000
00000000
00000000
00000000
,
10000000
00000000
00000000
00000000
01000000
00000000
00000000
00000000
00010000
00000000
00000000
00001000
00000000
00000000
00010000
00000000
,
00001000
00000000
00000010
00001000
00010000
00000000
00011000
00000000
,
00001000
00000000
00000000
00000000
00010000
00000000
00000000
00000000
00001000
00000000
00000000
00000010
00000000
00000000
00001000
00000000
,
00000010
00000010
00000001
00001001
,
00000001
00000000
00000000
00000000
00000100
00000000
00000000
00000000
00001000
00000000
00000000
00010000
00000000
00000000
00001000
00000000
,
00010000
00000000
00100000
00010000
00001000
00000000
00011000
00000000
,
00010000
00000000
00000000
00000000
00001000
00000000
00000000
00000000
00010000
00000000
00000000
00100000
00000000
00000000
00010000
00000000
,
00100000
00100000
10000000
10010000
,
00010000
00000000
01000000
00000000
00100000
01000000
00100000
00000000
,
10000000
10000000
10000000
00000000
,
00000000
00000000
10000000
00000000
00000000
00100000
00000000
00000000
01000000
00000000
00000000
00010000
00000000
00000000
01000000
00000000
,
00000000
00000000
00010000
00000000
00000000
00100000
00000000
00000000
00001000
00000000
00000000
00010000
00000000
00000000
00001000
00000000
,
00010000
00000000
00000010
00000000
00010000
00001000
00010000
00000000
,
00000100
00000100
00000100
00000000
,
00000100
00000000
00000000
00000000
00001000
00000000
00000000
00000000
00000010
00000000
00000000
00000100
00000000
00000000
00000010
00000000
,
00000100
00000001
00001000
00000001
00000000
00000001
00001000
00000000
,
00000001
00000100
00000000
00000001
00000100
00000000
00000010
00001000
,
00000000
00000010
00001000
00000000
00010000
01000000
00000000
00010000
,
01000000
00000000
00100000
10000000
00000000
00100000
10000000
00000000
,
10000000
01000000
00000000
00100000
00010000
00000000
00100000
00001000
,
00020000
00000000
00000000
00000000
,
00000000
00000000
00000000
00030000
,
00002000
00000000
00000000
00000000
,
00000000
00000000
00000000
00003000
,
00010000
00000000
00001000
00000010
00000000
00000000
00000000
00000000
,
00000001
00000000
00000001
00000100
00000000
00000110
00000000
00000010
,
00010000
00001000
00000000
00011000
00000000
00000000
00000000
00001000
,
00100000
00001000
00000000
01000000
00010000
00000000
01000000
00000000
,
00100000
00000000
00000000
01100000
00000000
00000000
00000000
00000000
,
10000000
00000000
00010000
01000000
00000000
00100000
00000000
00010000
,
00001000
00010000
00000000
00011000
00000000
00000000
00000000
00000000
,
00020000
00000000
00000000
00032000
00000000
00000000
00003020
00000000
00000000
00000032
00000000
00000000
00001003
00000000
00000000
00000000
,
00000001
00000000
00000000
00000100
00000000
00000000
00000001
00000000
00000000
00000100
00000000
00000000
00000010
00000000
00000000
00000000
,
00010000
00000000
00000000
00001000
00000000
00000000
00010000
00000000
00000000
00001000
00000000
00000000
00010000
00000000
00000000
00000000
,
00001000
00000000
00000000
01000000
00000000
00000000
00010000
00000000
00000000
01000000
00000000
00000000
00010000
00000000
00000000
00000000
,
10000000
00000000
00000000
01000000
00000000
00000000
00100000
00000000
00000000
01000000
00000000
00000000
00100000
00000000
00000000
00000000
,
11000000
00000000
00110000
00000000
,
00001100
00000000
00000011
00000000
,
00000001
00000000
00000000
00000100
00000000
00000000
00001000
00000000
00000000
00010000
00000000
00000000
00001000
00000000
00001000
00000000
,
00000000
00000000
00000000
00000000
,
00001000
00010000
00100000
01000000
00010000
00100000
01000000
00000000
,
10000000
01000000
00100000
00010000
10000000
00000000
00000000
00000000
,
10000000
00000000
00000000
01000000
00000000
00000000
00100000
00000000
00000000
00001000
00000000
00000000
00010000
00000000
00001000
00000000
,
00000000
00001000
00010000
00000000
00022000
00000000
00033000
00000000
,
00010000
00001000
00000010
00000100
00001000
00000010
00000100
00000000
,
00000001
00000100
00000010
00001000
00000001
00000000
00000000
00000000
,
00000001
00000000
00000000
00000100
00000000
00000000
00000010
00000000
00000000
00010000
00000000
00000000
00001000
00000000
00010000
00000000
,
00000000
00010000
00001000
00000000
00022000
00000000
00033000
00000000
,
00001000
00010000
00100000
10000000
00010000
01000000
00100000
00000000
,
10000000
00100000
00010000
00100000
10000000
00000000
00000000
00000000
,
10000000
00000000
00000000
01000000
00000000
00000000
00100000
00000000
00000000
00001000
00000000
00000000
00010000
00000000
00000000
00000000
,
00011000
01001000
00101000
00011000
,
00010000
00001000
00000010
00000001
00001000
00000100
00000010
00000000
,
00000001
00000010
00001000
00000010
00000001
00000000
00000000
00000000
,
00000001
00000000
00000000
00000100
00000000
00000000
00000010
00000000
00000000
00010000
00000000
00000000
00001000
00000000
00000000
00000000
,
00011000
00010100
00010010
00000000
,
00022000
00000000
00000000
00000000
,
00000000
00000000
00000000
00000000
,
00000000
00000000
00000000
00000000
,
00033000
00000000
00000000
00000000
,
00000000
00000000
00000000
00000000
;
#NOTES:
     dance-double:
     :
     Hard:
     14:
     :
00000000
00000000
00000000
00000000
,
00000000
00000000
00000000
00000000
,
00000000
00000000
00000000
00000000
,
00000000
00000000
00000000
00000000
,
00000000
00000000
00000000
00000000
,
00000000
00000000
00000000
00000000
,
00000001
00000000
00000001
00000100
00000010
00000000
00000110
00000000
,
00000010
00000000
00000000
00000010
00001000
00000000
00000000
00000000
00000100
00000000
00000000
00000100
00010000
00000000
00010000
00000000
,
00001000
00000000
01000000
00000000
00010000
00000000
00100000
00000000
01000000
00000000
10000000
00100000
10000000
00010000
10000000
00000000
,
00020000
00000000
00000000
00030000
,
10000000
00000000
01000000
00000000
00100000
00000000
01000000
00000000
10000000
00000000
01000000
00010000
00000000
00010000
00001000
00000000
,
00010000
00100000
00010000
00001000
00010000
00000000
00011000
00000000
,
00001000
00000000
00010000
00000000
00001000
00000000
00000010
00000000
00001000
00000000
00010000
00001000
00000000
00001000
00000100
00000000
,
00000001
00000010
00000100
00001000
00000001
00000000
00001001
00000000
,
00000001
00000000
00000100
00000000
00000010
00000000
00000100
00000000
00000001
00000000
00000100
00001000
00000000
00001000
00010000
00000000
,
00001000
00000010
00001000
00010000
00001000
00000000
00011000
00000000
,
00010000
00000000
00001000
00000000
00010000
00000000
00100000
00000000
00010000
00000000
00001000
00010000
00000000
00010000
01000000
00000000
,
10000000
00000000
00000000
10000000
00000000
00000000
10000000
00000000
00100000
00000000
00100000
00000000
00000000
10010000
00000000
00000000
,
10000000
00000000
00100000
00000000
01000000
00010000
01000000
00010000
00000000
00000000
00100000
00000000
01000000
00000000
00010000
00000000
,
00001000
00000000
00000010
00000000
00000100
00000000
00010000
00000000
00001000
00010000
00001000
00010000
00001000
00000000
00000000
00000000
,
00001000
00010000
00100000
01000000
00001000
00010000
01000000
00100000
,
00001000
00010000
00000010
00001000
00000100
00000010
00000110
00000000
,
00000001
00000000
00000100
00000000
00000010
00001000
00000010
00001000
00000000
00000000
00000100
00000000
00000010
00000000
00001000
00000000
,
00010000
00000000
01000000
00000000
00100000
00000000
00001000
00000000
00010000
00001000
00010000
00001000
00010000
00000000
00000000
00000000
,
00010000
00001000
00000100
00000010
00010000
00001000
00000010
00000100
,
00010000
00000000
00001000
00000000
01000000
00000000
00010000
00000000
00000000
00000000
10000000
00000000
10000000
00010000
10000000
00000000
,
02000000
00100000
00000000
00100000
00000000
00100000
00000000
00100000
,
03200000
00001000
00000000
00001000
00000000
00001000
00000000
00001000
,
00301000
00010000
00000000
00010000
00000000
00010000
00000000
00010000
,
00020000
00000100
00000000
00000100
00000000
00000100
00000000
00000100
,
00030200
00000320
00000032
00000203
,
00002300
00023000
00230000
20300000
,
30010000
10000000
01000000
00100000
00010000
00001000
00000100
00000010
,
00000001
00000000
00001000
00000010
00001000
00000000
00000001
00000000
00000000
00000000
00000100
00000000
00000110
00000000
00000000
00000000
,
00000202
00000000
00000303
00000022
00000000
00000000
00000033
00000000
,
00002200
00000000
00003300
00001010
00000000
00011000
00000000
01010000
,
00000000
00010000
10000000
00020000
00000000
00000000
00000000
10030000
,
01000000
00010000
00001000
00010000
00001000
00000010
00000001
00000000
,
00000022
00000000
00000033
00000202
00000000
00000000
00000303
00000000
,
00002020
00000000
00003030
00001100
00000000
00011000
00000000
00110000
,
00000000
00010000
10000000
00020000
00000000
00000000
00000000
00030000
,
10000000
00000000
00000000
01000000
00000000
00000000
00010000
00000000
00000000
00001000
00000000
00000000
00000010
00000000
00000000
00000000
,
00000001
00000000
00000010
00000001
00000000
00000000
00001000
00000000
00000010
00001000
00000000
00000000
00000010
00000000
00000100
00000000
,
00001000
00000000
00010000
00001000
00000000
00000000
01000000
00000000
00001000
00010000
00001000
00000000
00010000
00000000
00010000
00000000
,
00100000
00000000
10000000
00100000
00000000
00000000
01000000
00000000
00010000
01000000
00000000
00000000
00010000
00000000
10000000
00000000
,
01000000
00000000
00100000
00001000
00000000
00000000
00100000
00000000
00000000
00001000
00010000
00000000
00011000
00000000
00000000
00000000
,
00001000
00000000
00000010
00000001
00000000
00000010
00000001
00000000
00000100
00000000
00001000
00010000
00000000
00001000
00010000
00000000
,
00100000
00000000
10000000
01000000
00000000
10000000
01000000
00000000
00010000
00000000
00001000
00010000
00000000
00001000
00010000
00000000
,
00001000
00000000
00000010
00000001
00000000
00000001
00000100
00000000
00000100
00001000
00000000
00001000
00010000
00001000
00010000
00000000
,
00001000
00000000
01000000
00000000
01000000
00100000
01000000
00000000
00000000
00000000
00100000
00000000
10010000
00000000
00000000
00000000
,
10000000
00010000
01000000
00000000
10000000
00000000
01000000
00000000
00010000
10000000
01000000
00000000
00010000
00000000
01000000
00000000
,
10000000
00000000
00100000
00000000
00010000
00000000
00001000
00000000
00000100
00000000
00000000
00000001
00000000
00000000
00001000
00000000
,
00000001
00000000
00000001
00001000
00000000
00001000
00000010
00000000
00000010
00000100
00000000
00000100
00000001
00000000
00001001
00000000
,
00000000
00001000
00000100
00010000
00000000
00000010
00010000
00000010
00010000
00000000
00000010
00001000
00000000
00000001
00001000
00000000
,
00000001
00001000
00000100
00000000
00000001
00000000
00000100
00000000
00001000
00000001
00000100
00000000
00001000
00000000
00000100
00000000
,
00000001
00000000
00000010
00000000
00001000
00000000
00010000
00000000
01000000
00000000
00000000
10000000
00000000
00000000
00010000
00000000
,
10000000
00000000
10000000
00010000
00000000
00010000
00100000
00000000
00100000
01000000
00000000
01000000
10000000
00000000
10010000
00000000
,
00000000
00010000
01000000
00001000
00000000
00100000
00001000
00100000
00001000
00000000
00100000
00010000
00000000
10000000
00010000
00000000
,
10000000
00100000
10000000
00000000
01000000
00000000
01100000
00000000
00100000
00001000
00010000
00000000
00011000
00000000
00000000
00000000
,
00001000
00000000
00000100
00000000
00000010
00000000
00010000
00000000
00001000
00000000
00000000
00000100
00000000
00000000
00000010
00000000
,
00001000
00000000
00001000
00000100
00000000
00000100
00000001
00000000
00000001
00000100
00000000
00000100
00001000
00000000
00001000
00000000
,
00000001
00000000
00000010
00000100
00001000
00000000
00000010
00000100
00000001
00000000
00000000
00000000
00001001
00000000
00000000
00000000
,
00000001
00000010
00000001
00000000
00000100
00000000
00000110
00000000
00000010
00010000
00001000
00000000
00011000
00000000
00000000
00000000
,
00010000
00000000
01000000
00000000
00100000
00000000
00001000
00000000
00010000
00000000
00000000
01000000
00000000
00000000
00100000
00000000
,
00010000
00000000
00010000
01000000
00000000
01000000
10000000
00000000
10000000
01000000
00000000
01000000
00010000
00000000
00010000
00000000
,
00000000
10000000
00100000
10000000
00000000
00010000
01000000
00010000
00100000
00000000
00000000
00100000
00000000
00000000
00100000
00000000
,
00001000
00022000
00000000
00000000
,
00000000
00000000
00000000
00000000
,
00000000
00000000
00000000
00000000
,
00033000
00000000
00000000
00000000
,
00000000
00000000
00000000
00000000
;
