
//----- song ID: phlo -----//
#TITLE:Phlox;
#ARTIST:Sota Fujimori 2nd Season;
#BANNER:Phlox.png;
#BACKGROUND:Phlox-bg.png;
#CDTITLE:./CDTitles/BeatStream.png;
#MUSIC:Phlox.ogg;
#SAMPLESTART:66.163;
#SAMPLELENGTH:15;
#BPMS:0=185;
#NOTES:
     dance-single:
     :
     Beginner:
     4:
     :
0000
0000
0000
0000
,
0000
0000
0000
0000
,
0000
0000
0000
0000
,
0000
0000
0000
0000
,
0000
0000
0000
0000
,
0000
0000
0000
0000
,
0000
0000
0000
0000
,
0000
0000
0000
0000
,
0000
0000
0000
0000
,
1000
0000
0000
0000
,
1000
0000
0000
0000
,
0001
0000
1000
0000
,
0001
0000
0000
0000
,
0100
0000
0000
0000
,
0100
0000
0000
0000
,
0001
0000
0000
0000
,
0010
0000
0010
0000
,
0000
0000
0000
0000
,
0001
0000
1000
0000
,
0001
0000
0000
0000
,
1000
0000
0001
0000
,
1000
0000
0000
0000
,
0100
0000
0010
0000
,
0100
0000
0000
0000
,
0010
0000
0100
0000
,
0010
0000
0000
0000
,
0001
0000
0000
0000
,
1001
0000
0000
0000
,
1000
0000
0000
0000
,
1001
0000
0000
0000
,
0001
0000
0000
0000
,
1001
0000
0000
0000
,
1000
0000
0000
0000
,
1001
0000
0000
0000
,
0001
0000
0000
0000
,
0010
0000
0000
0000
,
0100
0000
0000
0000
,
1000
0000
0000
0000
,
1000
0000
0000
0000
,
0010
0000
0000
0000
,
0100
0000
0000
0000
,
0001
0000
0000
0000
,
2000
0000
3000
0000
,
0002
0000
0003
0000
,
0200
0000
0300
0000
,
0020
0000
0030
0000
,
2000
0000
3000
0000
,
0002
0000
0003
0000
,
0020
0000
0030
0000
,
0200
0000
0300
0000
,
0000
0000
0000
0000
,
1000
0000
0000
0000
,
0001
0000
0000
0000
,
0010
0000
0000
0000
,
0100
0000
0000
0000
,
1000
0000
0000
0000
,
0001
0000
0000
0000
,
1000
0000
0000
0000
,
0010
0000
0000
0000
,
0100
0000
0000
0000
,
0001
0000
0000
0000
,
1000
0000
0000
0000
,
0001
0000
0000
0000
,
0010
0000
0000
0000
,
0100
0000
0000
0000
,
1000
0000
0000
0000
,
0001
0000
0000
0000
,
1000
0000
0001
0000
,
1000
0000
0000
0000
,
0001
0000
0100
0000
,
0001
0000
0000
0000
,
0000
0000
1000
0000
,
0001
0000
1000
0000
,
0001
0000
1001
0000
,
1000
0000
0100
0000
,
0000
0000
0000
0000
,
1000
0000
0000
0000
,
0010
0000
0000
0000
,
0100
0000
0000
0000
,
0001
0000
0000
0000
,
0001
0000
0000
0000
,
0010
0000
0000
0000
,
0100
0000
0000
0000
,
1000
0000
0000
0000
,
0001
0000
0000
0000
,
0100
0000
0100
0000
,
0100
0000
0100
0000
,
0000
0000
0000
0000
;
#NOTES:
     dance-single:
     :
     Easy:
     7:
     :
0000
0000
0000
0000
,
0000
0000
0000
0000
,
0000
0000
0000
0000
,
0000
0000
0000
0000
,
0000
0000
0000
0000
,
0000
0000
0000
0000
,
0000
0000
0000
0000
,
0000
0000
0000
0000
,
0000
0000
0000
0000
,
0001
0000
0100
0000
,
0010
0000
0000
0000
,
1000
0000
0100
0000
,
0010
0000
0000
0000
,
1001
0000
0000
0000
0000
0000
0000
0110
,
0000
0000
0000
0000
,
1000
0000
0000
0000
,
0010
0000
0010
0000
,
0100
0000
0000
0000
,
0001
0010
0100
1000
,
0001
0000
0001
0000
,
1000
0010
0100
0001
,
1000
0000
1000
0000
,
0010
0100
0001
1000
,
0010
0000
0010
0000
,
0100
0010
1000
0001
,
0100
0000
0100
0000
,
0001
0000
1000
0000
,
0100
0000
0100
0000
,
1000
0000
0001
0000
,
0010
0000
0010
0000
,
0100
0000
1000
0000
,
0001
0000
0001
0000
,
0100
0000
0001
0000
,
1000
0000
1000
0000
,
0001
0010
0001
0000
,
1000
0010
1000
0000
,
0001
0100
1000
0100
,
0001
0000
1001
0000
,
1000
0100
1000
0000
,
0001
0100
0001
0000
,
1000
0100
0001
0100
,
1000
0000
1001
0000
,
0002
0000
0000
0000
0000
0000
0000
0103
,
0000
0000
0010
0000
,
2000
0000
0000
0000
0000
0000
0000
3100
,
0000
0000
0000
0010
0000
0000
0000
0000
,
0002
0000
0000
0000
0000
0000
0000
0013
,
0000
0000
0000
0100
0000
0000
0000
0000
,
2000
0000
0000
0000
0000
0000
0000
3002
,
0000
0000
0000
0000
,
0003
0000
0000
0000
,
1000
0100
0010
0100
,
1000
0001
1000
0000
,
0001
0100
0010
0100
,
0001
1000
0001
0000
,
1000
0010
0100
0001
,
0010
0100
1000
0001
,
0100
0010
0100
0100
,
0001
0010
0100
1000
,
0000
0001
1000
0100
,
0010
0100
1000
0000
,
1000
0001
0100
0010
,
0100
0001
1000
0000
,
1000
0100
1000
0001
,
0100
0010
0100
0000
,
0001
0010
0100
0100
,
1000
0001
1000
0000
,
0000
0001
0010
0100
,
1000
0100
0001
0100
,
1000
0000
1001
0000
,
0001
0100
0001
1001
,
0000
1000
0010
0100
,
0001
0010
1000
0010
,
0001
0000
1001
0000
,
1000
0010
0100
0100
,
0000
0000
0000
0000
,
0001
0010
0100
0010
,
0001
0000
0001
0000
,
1000
0010
0100
0010
,
1000
0000
1000
0000
,
0001
0000
0001
0010
,
0100
1000
1001
0000
,
0001
0010
0100
1000
,
1000
0010
0100
0001
,
0001
0100
0010
1000
,
1000
0100
0001
0100
,
1000
0010
0001
1001
,
0000
0000
0000
0000
;
#NOTES:
     dance-single:
     :
     Medium:
     11:
     :
0000
0000
0000
0000
,
0000
0000
0000
0000
,
0000
0000
0000
0000
,
0000
0000
0000
0000
,
0000
0000
0000
0000
,
0000
0000
0000
0000
,
0000
0000
0000
0000
,
0000
0000
0000
0000
,
0000
0000
0000
0000
,
1000
0100
0010
0100
1000
0001
0000
0100
,
0000
0010
0100
0000
0001
0010
0100
0000
,
1000
0010
0100
0001
1000
0000
0100
0010
,
0000
0001
1000
0000
0010
0100
0110
0000
,
0002
0000
0000
0000
1003
0100
0010
0001
,
0000
1000
0001
0000
0100
0010
0100
0000
,
0001
0010
0100
1000
,
0001
1000
1010
0000
1000
0001
0011
0000
,
0000
0000
0000
0000
,
0001
1000
0010
0100
0001
0010
0100
1000
,
0000
0001
0000
1000
0100
0010
0001
0000
,
0100
0010
0100
0010
0000
1000
0001
1000
,
0000
1010
0110
0101
,
0001
0000
1000
0100
0010
0100
1000
0001
,
0000
0100
0000
0010
1000
0001
0010
0000
,
0100
1000
0100
1000
0000
0001
0100
0001
,
0000
0000
1000
0001
0010
0100
1000
0000
,
0001
0100
0001
0000
1000
0000
0000
0001
,
0000
0010
0000
0000
0001
0000
1000
0000
,
0010
1000
0010
0000
0000
0000
0100
0100
,
0000
0001
0001
0000
1000
0000
0001
0000
,
1000
0010
1000
0000
0001
0000
0000
1000
,
0000
0100
0000
0000
1000
0000
0001
0000
,
0100
0001
0100
0000
0000
0000
0010
0010
,
0000
1000
1000
0000
0001
0000
1000
0000
,
0001
0100
0001
0000
1000
0100
1000
0000
,
0001
0010
0001
0000
1000
0010
1000
0000
,
0010
0100
0010
0000
1000
0001
1000
0100
,
0000
0010
0001
0000
1000
0100
0001
0000
,
0100
1000
0001
0000
0100
0001
0010
0000
,
0100
0010
0001
0000
1000
0010
0100
0000
,
0010
0100
0001
0000
0010
0001
1000
0010
,
0000
0100
0001
0000
1000
0010
0001
0000
,
0020
0000
0000
0000
0000
0000
1000
2030
,
0000
0000
0000
0000
0000
3000
0000
0000
,
0002
0000
0000
0000
0000
0000
0010
0023
,
0000
0000
0000
0230
0000
0000
0000
0000
,
2300
0000
0000
0000
0000
0010
0000
3020
,
0000
0000
0000
0230
0000
0000
0300
0000
,
0002
0000
0000
0000
0000
1000
0000
2003
,
0000
0000
0000
0000
0002
0000
0000
3003
,
0000
0000
0000
0000
,
1000
0000
0010
0000
0100
0000
0000
0000
0010
0000
0000
1000
0000
0000
0001
0000
,
1000
0000
0100
0000
0010
0000
0000
0000
0100
0000
0000
0010
0000
0000
0001
0000
,
0100
0000
0001
0000
1000
0000
0000
0000
0010
0000
0000
1000
0000
0000
0100
0000
,
0010
0000
0001
0000
1000
0000
0000
0000
0100
0000
0000
1000
0000
0000
0010
0000
,
0100
0000
0001
0000
0010
0000
0000
0000
0100
0000
0000
0010
0000
0000
0100
0000
,
0010
0000
0001
0000
1000
0000
0000
0000
0010
0000
0000
0100
0000
0000
0010
0000
,
1000
0000
0001
0000
1000
0000
0000
0000
0100
0000
0000
0110
0000
0000
0000
0000
,
1000
0000
0001
0000
1000
0000
0000
0000
0010
0000
0000
1000
0000
0000
0002
0000
,
0000
0000
0000
0000
1003
0000
0000
0000
0010
0000
0000
0100
0000
0000
0010
0000
,
1000
0000
0100
0000
0010
0000
0000
0000
0001
0000
0000
0010
0000
0000
1000
0000
,
0010
0000
0100
0000
0010
0000
0000
0000
0001
0000
0000
1000
0000
0000
0001
0000
,
1000
0000
0010
0000
0100
0000
0000
0000
0001
0000
0000
1001
0000
0000
0000
0000
,
1000
0000
0100
0000
0010
0000
0000
0000
0001
0000
0000
0001
0000
0000
0001
0000
,
1000
0000
0010
0000
0100
0000
0000
0000
0001
0000
0000
0100
0000
0000
1000
0000
,
0100
0000
0001
0000
0010
0000
0000
0000
0001
0000
0000
1001
0000
0000
0000
0000
,
0001
0000
0100
0000
1000
0000
0000
0000
0100
0000
0000
0001
0000
0000
2000
0000
,
0000
0000
0000
0000
3001
0000
0000
0000
1000
0000
0000
0100
0000
0000
0001
0000
,
0100
0000
0010
0000
1000
0000
0000
0000
0010
0000
0000
0001
0000
0000
1000
0000
,
0001
0000
0100
0000
1000
0000
0000
0000
0100
0000
0000
0101
0000
0000
0000
0000
,
0001
0000
0010
0000
0100
0000
0000
0000
1000
0000
0000
1100
0000
0000
0110
0000
,
0000
0000
0000
0000
0001
0000
0000
0000
1000
0000
0000
0010
0000
0000
0100
0000
,
0010
0000
0100
0000
1000
0000
0000
0000
0100
0000
0000
0001
0000
0000
0001
0000
,
0010
0000
0100
0000
0001
0000
0000
0000
0100
0000
0000
1100
0000
0000
1001
0000
,
0001
0000
1000
0000
0010
0000
0000
0000
0100
0000
0000
0100
0000
0000
0100
0000
,
0000
0000
0000
0000
,
0001
0010
0100
0010
0001
1000
0000
0010
,
0000
0100
0010
0000
1000
0010
0001
0000
,
0010
0100
1000
0100
0001
0000
0010
0001
,
0000
0001
1000
0000
0001
1000
0110
0000
,
2000
0000
0000
0000
3001
0010
0100
1000
,
0000
0010
1000
0000
0001
0100
1000
0000
,
0100
0001
0010
0100
1000
0000
0100
0010
,
0001
0010
1000
0010
0001
0000
1001
0000
,
0001
0100
1000
0100
0001
0000
1001
0000
,
1000
0100
0001
0000
1000
0010
0001
0000
,
1000
0010
0001
1000
0100
0010
0110
0000
,
0000
0000
0000
0000
;
#NOTES:
     dance-single:
     :
     Hard:
     15:
     :
0000
0000
0000
0000
,
0000
0000
0000
0000
,
0000
0000
0000
0000
,
0000
0000
0000
0000
,
0000
0000
0000
0000
,
0000
0000
0000
0000
,
0000
0000
0000
0000
,
0000
0000
0000
0000
,
0000
0000
0000
0000
,
0001
0100
0001
0010
0100
1000
0010
0100
,
1000
0100
0102
0003
2100
3000
0102
0003
,
1000
0010
1000
0100
0010
0000
0001
0001
,
0000
0000
1000
0000
1000
0000
0000
0000
0010
0100
0010
1000
0001
0000
0000
0000
,
0020
0000
0000
0000
0000
0000
0000
0000
0031
0000
0001
1000
0100
0000
0100
0000
,
0001
0100
2100
3000
0102
0003
2100
3000
,
0001
0100
0010
0100
1000
0100
0001
0010
,
0100
0100
1001
0000
0010
0010
1001
0000
,
1000
0100
0010
0100
1000
0000
0001
0000
0100
0000
0100
0000
0001
0000
0000
0000
,
1000
0000
0010
0100
0010
0000
1000
0000
0001
0000
0010
0100
0010
0000
0001
0000
,
1000
0000
0010
0100
0001
0000
0010
0000
1000
0000
0010
0100
1000
0000
0001
0000
,
1000
0010
0001
0010
1000
0100
0001
0200
,
0000
0000
1300
1000
0010
0100
0101
0000
,
0001
0000
0010
0100
0010
0000
0001
0000
1000
0000
0010
0100
0010
0000
1000
0000
,
0001
0000
0010
0100
1000
0000
0010
0000
0001
0000
0010
0100
0001
0000
1000
0000
,
0001
0010
1000
0010
0001
0100
1000
0200
,
0000
0000
0301
0001
0010
0100
1100
0000
,
1000
1000
1000
0000
0101
0000
0001
0001
,
1000
0010
0010
0000
0100
0001
0100
0000
,
0010
0010
0010
0000
1100
0000
1000
1000
,
0001
0000
0010
0000
0010
0000
0000
0000
0001
0100
0010
1000
0100
0000
0000
0000
,
0100
0100
0100
0000
0011
0000
0001
0001
,
0100
1000
1000
0000
0100
0001
0010
0000
,
0001
0001
0001
0000
1010
0000
1000
1000
,
0100
0000
0001
0000
0001
0000
0100
0000
1000
0000
1000
0100
1000
0000
0000
0000
,
0001
1000
0100
0010
0100
1000
0001
0100
,
0010
0100
0001
0010
0100
1000
0010
0100
,
0001
0100
1000
0100
0001
1000
0100
0100
,
0010
0000
0001
0000
0001
0000
1000
0000
0010
0100
0010
0100
1000
0000
0100
0000
,
0001
1000
0010
0100
0010
1000
0001
0010
,
0100
0010
0001
0100
0010
1000
0100
0010
,
0001
0010
1000
0010
0001
1000
0010
0010
,
0100
0000
0001
0000
0001
0000
1000
0000
0100
0010
0100
0010
1000
0000
0000
0000
,
0020
0000
0000
0000
0000
0000
0130
1200
,
0000
0000
0000
0300
,
1002
0000
0000
0000
0000
0000
0103
0210
,
0000
0000
0000
0302
0000
0000
0013
0000
,
2200
0000
0000
0000
3300
0110
0000
0022
,
0000
0000
0033
2002
0000
0000
3003
0000
,
0220
0000
0000
0000
0330
1010
0000
0202
,
0000
0000
0000
0300
2000
0000
3003
0000
,
0001
0010
0001
0010
0001
0000
1000
0100
1000
0100
1000
0000
1001
0000
0000
0000
,
0001
0000
0100
0000
0010
0100
0010
0000
1000
0001
0000
0001
0010
0000
0100
0000
,
1000
0000
0010
0000
0100
0010
0100
0000
0001
1000
0000
1000
0100
0000
0010
0000
,
0001
0000
1000
0000
0010
0100
0001
0000
0100
0000
0000
1001
0000
0000
0001
0000
,
0010
0000
0100
0000
1000
0100
1000
0000
0001
0100
0000
0100
0010
0000
1000
0000
,
0001
0000
1000
0000
0100
0010
0100
0000
0010
0001
0000
0001
1000
0000
0100
0000
,
0010
0000
0100
0000
1000
0001
1000
0000
0010
0100
0000
0101
0000
0000
0001
0000
,
0010
0000
0100
0000
0010
0000
0000
0000
0011
0000
0000
1010
0000
0000
0000
0000
,
1000
0000
0001
0100
0010
0000
1000
0000
0100
0010
0000
0001
0000
0000
1000
0000
,
0200
0000
0300
0000
1001
0000
0001
0000
0100
0001
0000
0001
1000
0000
0010
0000
,
0100
0000
0001
0000
0010
0100
0010
0000
0100
1000
0000
1001
0000
0000
0001
0000
,
0100
0000
0010
0000
1000
0000
0000
0000
1100
0000
0000
0011
0000
0000
0001
0000
,
1000
0000
0010
0000
0100
0001
0100
0000
0001
0010
0000
1001
0000
0000
0000
0000
,
0001
0000
1000
0000
0010
1000
0010
0000
0100
0001
0000
0001
1000
0000
0100
0000
,
0001
0000
0100
0000
1000
0001
1000
0000
0010
0100
0000
0101
0000
0000
0001
0000
,
1000
0000
0010
0000
0100
0000
0000
0000
0101
0000
0000
1100
0000
0000
0000
0000
,
1000
0000
0100
0000
0010
0100
0010
0000
0100
1000
0000
1001
0000
0000
0001
0000
,
0200
0000
0300
0000
1001
0000
1000
0000
0010
1000
0000
1000
0100
0000
0010
0000
,
0001
0000
0010
0000
1000
0010
0100
0000
0010
0001
0000
0001
0100
0000
0010
0000
,
1000
0000
0100
0000
0001
0000
0000
0000
0110
0000
0000
1001
0000
0000
0000
0000
,
0001
0000
0100
0000
1000
0000
0000
0000
0101
0000
0000
1100
0000
0000
1001
0000
,
0002
0000
0003
0000
1000
0000
0100
0000
0010
0001
0000
0001
1000
0000
0010
0000
,
0001
0000
0010
0000
0100
0010
1000
0000
0001
1000
0000
1000
0100
0000
0010
0000
,
1000
0000
0010
0000
0001
0000
0000
0000
1010
0000
0000
0011
0000
0000
1001
0000
,
0001
1000
0010
0100
0001
0000
0010
0000
0100
1000
0000
1001
0000
0000
0101
0000
,
0000
0000
0000
0000
,
0001
1000
0100
0010
0001
0100
0000
0010
,
0000
1000
0010
0100
0001
0100
1000
0000
,
0100
0001
0010
0100
1000
0000
0100
0100
,
0000
0010
0010
0000
0011
0110
1100
0000
,
1000
0001
0100
0000
0010
1000
0010
0100
,
0000
0001
0001
1000
0100
0010
0001
0000
,
1000
0000
0001
0100
0001
0000
1000
0000
0010
0000
0001
0000
0010
0000
1000
0000
,
0001
0000
1000
0100
0010
0000
0100
0000
0001
0000
0100
0000
1100
0000
1000
0000
,
0001
0000
1000
0010
0100
0000
0010
0000
0001
0000
0010
0000
1010
0000
1000
0000
,
0001
1000
0010
0000
0100
0000
0100
0000
0001
1000
0100
0000
0010
0000
0010
0000
,
0001
1000
0010
0000
0100
0000
0100
0000
0001
0100
0010
0100
1000
0000
0000
0000
,
0000
0000
0000
0000
;
#NOTES:
     dance-double:
     :
     Easy:
     7:
     :
00000000
00000000
00000000
00000000
,
00000000
00000000
00000000
00000000
,
00000000
00000000
00000000
00000000
,
00000000
00000000
00000000
00000000
,
00000000
00000000
00000000
00000000
,
00000000
00000000
00000000
00000000
,
00000000
00000000
00000000
00000000
,
00000000
00000000
00000000
00000000
,
00000000
00000000
00000000
00000000
,
10000000
00000000
01000000
00000000
,
00100000
00000000
00000000
00000000
,
00010000
00000000
00100000
00000000
,
00001000
00000000
00000000
00000000
,
00011000
00000000
00000000
00000000
00000000
00000000
00000000
00011000
,
00000000
00000000
00000000
00000000
,
00010000
00000000
00000000
00000000
,
00000100
00000000
00000100
00000000
,
00001000
00000000
00000000
00000000
,
00000001
00000100
00000010
00001000
,
00000010
00000000
00010000
00000000
,
00001000
00100000
00010000
00100000
,
01000000
00000000
01000000
00000000
,
10000000
01000000
00100000
00010000
,
00100000
00000000
00100000
00000000
,
00001000
00010000
00001000
00010000
,
00000100
00000000
00000100
00000000
,
00001000
00000000
00000001
00000000
,
00000100
00000000
00000100
00000000
,
00000010
00000000
00001000
00000000
,
00000010
00000000
00010000
00000000
,
00001000
00000000
00010000
00000000
,
00001000
00000000
00001000
00000000
,
00100000
00000000
00010000
00000000
,
10000000
00000000
10000000
00000000
,
00010000
01000000
00010000
00000000
,
00100000
00001000
00100000
00000000
,
00001000
00010000
00001000
00010000
,
00000100
00000000
00001100
00000000
,
00001000
00000100
00001000
00000000
,
00000001
00000100
00000001
00000000
,
00000010
00000001
00001000
00000010
,
00010000
00000000
00011000
00000000
,
00002000
00000000
00000000
00000000
00000000
00000000
00000000
00103000
,
00000000
00000000
00100000
00000000
,
00020000
00000000
00000000
00000000
00000000
00000000
00000000
01030000
,
00000000
00000000
00000000
00100000
00000000
00000000
00000000
00000000
,
20000000
00000000
00000000
00000000
00000000
00000000
00000000
31000000
,
00000000
00000000
00000000
00100000
00000000
00000000
00000000
00000000
,
00020000
00000000
00000000
00000000
00000000
00000000
00000000
00230000
,
00000000
00000000
00000000
00000000
,
00300000
00000000
00000000
00000000
,
00001000
00010000
00001000
00010000
,
00000100
00001000
00000100
00000000
,
00001000
00000100
00000010
00000001
,
00001000
00000001
00000100
00000000
,
00000010
00001000
00000010
00010000
,
00001000
00010000
00001000
00100000
,
00010000
00100000
00010000
00010000
,
10000000
00100000
01000000
00010000
,
00000000
10000000
01000000
00100000
,
00010000
00100000
00001000
00000000
,
00010000
00001000
00010000
00000100
,
00001000
00000001
00001000
00000000
,
00000001
00000010
00000001
00001000
,
00000100
00001000
00000100
00000000
,
00010000
00001000
00100000
00100000
,
00010000
10000000
00010000
00000000
,
00000000
10000000
00100000
01000000
,
00010000
01000000
00001000
00010000
,
00001000
00000000
00011000
00000000
,
00010000
00000100
00001000
00001100
,
00000000
00001000
00000001
00000100
,
00000010
00001000
00000010
00010000
,
00001000
00000000
00011000
00000000
,
00001000
00100000
00010000
00010000
,
00000000
00000000
00000000
00000000
,
10000000
00010000
00100000
01000000
,
00100000
00000000
00010000
00000000
,
00100000
00001000
00010000
00000100
,
00001000
00000000
00000100
00000000
,
00001000
00000000
00000001
00000100
,
00000010
00001000
00001001
00000000
,
00000001
00000010
00000100
00001000
,
00000100
00010000
00001000
00100000
,
00010000
00100000
01000000
10000000
,
00100000
01000000
00010000
01000000
,
00001000
00010000
00001000
00011000
,
00000000
00000000
00000000
00000000
;
#NOTES:
     dance-double:
     :
     Medium:
     11:
     :
00000000
00000000
00000000
00000000
,
00000000
00000000
00000000
00000000
,
00000000
00000000
00000000
00000000
,
00000000
00000000
00000000
00000000
,
00000000
00000000
00000000
00000000
,
00000000
00000000
00000000
00000000
,
00000000
00000000
00000000
00000000
,
00000000
00000000
00000000
00000000
,
00000000
00000000
00000000
00000000
,
00000001
00000100
00000010
00001000
00000010
00010000
00000000
00001000
,
00000000
00100000
00010000
00000000
10000000
01000000
00100000
00000000
,
00010000
00100000
01000000
10000000
01000000
00000000
00100000
00001000
,
00000000
00001000
00010000
00000000
00000010
00001000
00001010
00000000
,
00000002
00000000
00000000
00000000
00001003
00000100
00000010
00000001
,
00000000
00001000
00000100
00000000
00010000
00001000
00010000
00000000
,
00001000
00100000
00010000
10000000
,
00010000
01000000
01100000
00000000
10000000
01000000
01100000
00000000
,
00000000
00000000
00000000
00000000
,
10000000
01000000
00100000
00010000
00100000
00001000
00010000
00000100
,
00000000
00010000
00000000
00000010
00001000
00000010
00000100
00000000
,
00000001
00001000
00000001
00001000
00000000
00000100
00000010
00000100
,
00000000
00001100
00011000
00110000
,
00010000
00000000
00100000
01000000
00100000
01000000
10000000
00010000
,
00000000
01000000
00000000
00001000
00010000
00001000
00010000
00000000
,
00000010
00001000
00000010
00001000
00000000
00000001
00000100
00000001
,
00000000
00000000
00001000
00000010
00000100
00000001
00000100
00000000
,
00000010
00010000
00001000
00000000
00010000
00000000
00000000
00001000
,
00000000
01000000
00000000
00000000
00010000
00000000
10000000
00000000
,
01000000
00100000
01000000
00000000
00000000
00000000
00100000
00100000
,
00000000
00001000
00001000
00000000
00010000
00000000
00001000
00000000
,
00010000
00001000
00010000
00000000
00000100
00000000
00000000
00010000
,
00000000
00000100
00000000
00000000
00001000
00000000
00000001
00000000
,
00000100
00000010
00000100
00000000
00000000
00000000
00000001
00000001
,
00000000
00001000
00001000
00000000
00000100
00000000
00010000
00000000
,
00001000
00010000
00001000
00000000
00100000
00010000
00100000
00000000
,
00010000
01000000
00010000
00000000
10000000
01000000
10000000
00000000
,
00100000
01000000
00100000
00000000
01000000
00010000
01000000
00001000
,
00000000
00010000
00000100
00000000
00010000
00000100
00000010
00000000
,
00000100
00001000
00000001
00000000
00000100
00000001
00001000
00000000
,
00000010
00010000
00001000
00000000
00100000
00001000
00010000
00000000
,
00001000
01000000
00010000
00000000
10000000
01000000
00100000
00010000
,
00000000
10000000
01000000
00000000
10000000
01000000
00010000
00000000
,
00002000
00000000
00000000
00000000
00000000
00000000
00013000
00020000
,
00000000
00000000
00000000
00000000
00000000
00030000
00000000
00000000
,
00000200
00000000
00000000
00000000
00000000
00000000
00001000
00002300
,
00000000
00000000
00000000
00003002
00000000
00000000
00000000
00000000
,
00000023
00000000
00000000
00000000
00000000
00000100
00000000
00000200
,
00000030
00000000
00000000
00020300
00000000
00000000
00030000
00000000
,
00002000
00000000
00000000
00000000
00000000
00100000
00000000
00203000
,
00000000
00000000
00000000
00000000
00020000
00000000
00000000
00330000
,
00000000
00000000
00000000
00000000
,
10000000
00000000
01000000
00000000
00100000
00000000
00000000
00000000
00010000
00000000
00000000
00100000
00000000
00000000
00001000
00000000
,
00010000
00000000
00000100
00000000
00000010
00000000
00000000
00000000
00000100
00000000
00000000
00001000
00000000
00000000
00000001
00000000
,
00000100
00000000
00000010
00000000
00001000
00000000
00000000
00000000
00000001
00000000
00000000
00000100
00000000
00000000
00000010
00000000
,
00001000
00000000
00000010
00000000
00010000
00000000
00000000
00000000
00001000
00000000
00000000
00100000
00000000
00000000
00010000
00000000
,
10000000
00000000
00100000
00000000
01000000
00000000
00000000
00000000
00010000
00000000
00000000
01000000
00000000
00000000
00001000
00000000
,
00010000
00000000
00000100
00000000
00001000
00000000
00000000
00000000
00000100
00000000
00000000
00001000
00000000
00000000
00000001
00000000
,
00001000
00000000
00000010
00000000
00010000
00000000
00000000
00000000
00001000
00000000
00000000
00011000
00000000
00000000
00000000
00000000
,
00010000
00000000
00001000
00000000
00100000
00000000
00000000
00000000
00010000
00000000
00000000
10000000
00000000
00000000
02000000
00000000
,
00000000
00000000
00000000
00000000
03100000
00000000
00000000
00000000
00001000
00000000
00000000
00010000
00000000
00000000
00001000
00000000
,
00010000
00000000
00000100
00000000
00001000
00000000
00000000
00000000
00000001
00000000
00000000
00000010
00000000
00000000
00000100
00000000
,
00000010
00000000
00000100
00000000
00001000
00000000
00000000
00000000
00000100
00000000
00000000
00010000
00000000
00000000
00001000
00000000
,
00010000
00000000
00001000
00000000
00100000
00000000
00000000
00000000
00010000
00000000
00000000
10010000
00000000
00000000
00000000
00000000
,
10000000
00000000
00100000
00000000
01000000
00000000
00000000
00000000
00010000
00000000
00000000
00010000
00000000
00000000
00010000
00000000
,
00100000
00000000
00001000
00000000
00010000
00000000
00000000
00000000
00000100
00000000
00000000
00001000
00000000
00000000
00000001
00000000
,
00000100
00000000
00000010
00000000
00001000
00000000
00000000
00000000
00000010
00000000
00000000
00001001
00000000
00000000
00000000
00000000
,
00001000
00000000
00000100
00000000
00010000
00000000
00000000
00000000
00001000
00000000
00000000
00100000
00000000
00000000
00020000
00000000
,
00000000
00000000
00000000
00000000
10030000
00000000
00000000
00000000
01000000
00000000
00000000
00100000
00000000
00000000
00001000
00000000
,
00010000
00000000
00000100
00000000
00000010
00000000
00000000
00000000
00000001
00000000
00000000
00000010
00000000
00000000
00001000
00000000
,
00000010
00000000
00000100
00000000
00001000
00000000
00000000
00000000
00000100
00000000
00000000
00010100
00000000
00000000
00000000
00000000
,
00010000
00000000
00001000
00000000
00100000
00000000
00000000
00000000
00010000
00000000
00000000
10010000
00000000
00000000
10100000
00000000
,
00000000
00000000
00000000
00000000
10000000
00000000
00000000
00000000
00100000
00000000
00000000
01000000
00000000
00000000
00001000
00000000
,
00010000
00000000
00000100
00000000
00000010
00000000
00000000
00000000
00000100
00000000
00000000
00001000
00000000
00000000
00000001
00000000
,
00000100
00000000
00000010
00000000
00001000
00000000
00000000
00000000
00000010
00000000
00000000
00010010
00000000
00000000
00011000
00000000
,
00001000
00000000
01000000
00000000
00010000
00000000
00000000
00000000
00100000
00000000
00000000
00100000
00000000
00000000
00100000
00000000
,
00000000
00000000
00000000
00000000
,
10000000
00100000
01000000
00010000
01000000
00001000
00000000
00010000
,
00000000
00000100
00001000
00000000
00000001
00000010
00000100
00000000
,
00001000
00000100
00000010
00000001
00000010
00000000
00000100
00010000
,
00000000
00010000
00001000
00000000
01000000
00010000
01010000
00000000
,
20000000
00000000
00000000
00000000
30010000
00100000
01000000
00100000
,
00000000
00001000
00010000
00000000
00000100
00001000
00000010
00000000
,
00000100
00000001
00000010
00001000
00000010
00000000
00000100
00001000
,
00000100
00010000
00001000
00100000
00010000
00100000
01100000
00000000
,
10000000
01000000
00010000
01000000
00100000
00000000
00101000
00000000
,
00001000
00010000
00000100
00000000
00001000
00000100
00000001
00000000
,
00000100
00001000
00010000
00100000
01000000
10000000
00010000
00000000
,
00000000
00000000
00000000
00000000
;
#NOTES:
     dance-double:
     :
     Hard:
     15:
     :
00000000
00000000
00000000
00000000
,
00000000
00000000
00000000
00000000
,
00000000
00000000
00000000
00000000
,
00000000
00000000
00000000
00000000
,
00000000
00000000
00000000
00000000
,
00000000
00000000
00000000
00000000
,
00000000
00000000
00000000
00000000
,
00000000
00000000
00000000
00000000
,
00000000
00000000
00000000
00000000
,
10000000
00010000
10000000
01000000
00100000
00001000
00010000
00000100
,
00001000
00000001
00000102
00000003
00002100
00003000
00000102
00000003
,
00001000
00000100
00000010
00000100
00010000
00000000
00001000
00001000
,
00000000
00000000
00100000
00000000
00100000
00000000
00000000
00000000
00010000
10000000
00010000
10000000
00010000
00000000
00000000
00000000
,
02000000
00000000
00000000
00000000
00000000
00000000
00000000
00000000
03010000
00000000
00010000
10000000
01000000
00000000
00100000
00000000
,
00001000
00010000
00010100
00000000
00101000
00000000
00010100
00000000
,
00001000
00000010
00000100
00000001
00000100
00001000
00000100
00000010
,
00010000
00010000
00101000
00000000
00001000
00001000
00010100
00000000
,
00000100
00001000
00000100
00001000
00000100
00000000
00010000
00000000
00001000
00000000
00100000
00000000
01000000
00000000
00000000
00000000
,
10000000
00000000
01000000
00100000
01000000
00000000
00010000
00000000
01000000
00000000
00100000
00010000
00100000
00000000
00001000
00000000
,
00010000
00000000
00000100
00001000
00000100
00000000
00000010
00000000
00000001
00000000
00001000
00000001
00001000
00000000
00000010
00000000
,
00000100
00001000
00000100
00000001
00000010
00000100
00010000
00002000
,
00000000
00000000
00103000
00100000
00010000
10000000
10100000
00000000
,
10000000
00000000
00100000
01000000
00100000
00000000
00010000
00000000
00100000
00000000
01000000
00010000
01000000
00000000
00001000
00000000
,
00010000
00000000
00000010
00001000
00000010
00000000
00000100
00000000
00000001
00000000
00001000
00000001
00001000
00000000
00000100
00000000
,
00000010
00001000
00000010
00000001
00000100
00000010
00010000
00002000
,
00000000
00000000
01003000
01000000
00100000
10000000
10010000
00000000
,
00010000
00010000
00010000
00000000
00101000
00000000
00001000
00001000
,
00010000
00000100
00000100
00000000
00000010
00000001
00001000
00000000
,
00000010
00000010
00000010
00000000
00001100
00000000
00001000
00001000
,
00000100
00000000
00010000
00000000
00010000
00000000
00000000
00000000
00001000
00010000
00001000
00010000
00001000
00000000
00000000
00000000
,
00100000
00100000
00100000
00000000
01010000
00000000
00010000
00010000
,
10000000
01000000
01000000
00000000
00100000
00010000
00001000
00000000
,
00000100
00000100
00000100
00000000
00001001
00000000
00001000
00001000
,
00000010
00000000
00000100
00000000
00000100
00000000
00000010
00000000
00001000
00000000
00001000
00000001
00001000
00000000
00000000
00000000
,
00000001
00000010
00000100
00001000
00000100
00001000
00010000
00100000
,
00010000
00100000
01000000
10000000
00100000
01000000
00010000
10000000
,
00100000
00010000
00001000
00000100
00000010
00000100
00000010
00000010
,
00001000
00000000
00000001
00000000
00000001
00000000
00000010
00000000
00000001
00001000
00000001
00001000
00000100
00000000
00001000
00000000
,
00000001
00000100
00000010
00001000
00000010
00001000
00010000
01000000
,
00010000
01000000
00100000
10000000
01000000
00100000
00010000
10000000
,
01000000
00010000
00001000
00000010
00000100
00000010
00000100
00000100
,
00001000
00000000
00000001
00000000
00000001
00000000
00000100
00000000
00000001
00001000
00000001
00001000
00000010
00000000
00001000
00000000
,
00000200
00000000
00000000
00000000
00000000
00000000
00010300
00012000
,
00000000
00000000
00000000
00003000
,
00201000
00000000
00000000
00000000
00000000
00000000
01300000
21000000
,
00000000
00000000
00000000
30200000
00000000
00000000
01300000
00000000
,
02002000
00000000
00000000
00000000
03003000
00011000
00000000
00020200
,
00000000
00000000
00030300
00002200
00000000
00000000
00003300
00000000
,
00002002
00000000
00000000
00000000
00003003
00000101
00000000
00002020
,
00000000
00000000
00000000
00000030
00000002
00000000
00003003
00000000
,
00000010
00000001
00000010
00000001
00000010
00000000
00000100
00001000
00000100
00001000
00000100
00000000
00010100
00000000
00000000
00000000
,
00010000
00000000
00001000
00000000
00100000
00010000
00100000
00000000
00010000
10000000
00000000
10000000
00100000
00000000
01000000
00000000
,
00010000
00000000
00100000
00000000
01000000
10000000
01000000
00000000
10000000
00010000
00000000
00010000
01000000
00000000
00100000
00000000
,
10000000
00000000
01000000
00000000
00100000
00010000
00100000
00000000
00001000
00000000
00000000
00011000
00000000
00000000
00010000
00000000
,
00000100
00000000
00001000
00000000
00000100
00001000
00000001
00000000
00000010
00000001
00000000
00000001
00001000
00000000
00000010
00000000
,
00000100
00000000
00000010
00000000
00010000
00001000
00010000
00000000
00001000
00100000
00000000
00100000
00010000
00000000
00100000
00000000
,
01000000
00000000
00100000
00000000
00010000
10000000
00010000
00000000
10000000
00100000
00000000
10100000
00000000
00000000
10000000
00000000
,
00010000
00000000
00100000
00000000
00001000
00000000
00000000
00000000
00101000
00000000
00000000
00010010
00000000
00000000
00000000
00000000
,
00000010
00000000
00001000
00000001
00000100
00000000
00000010
00000000
00001000
00000100
00000000
00010000
00000000
00000000
00001000
00000000
,
00020000
00000000
00030000
00000000
00011000
00000000
00001000
00000000
00100000
00010000
00000000
00010000
10000000
00000000
01000000
00000000
,
00100000
00000000
00010000
00000000
00100000
00001000
00010000
00000000
00001000
00010000
00000000
00011000
00000000
00000000
00010000
00000000
,
00000100
00000000
00001000
00000000
00000001
00000000
00000000
00000000
00000011
00000000
00000000
00001100
00000000
00000000
00001000
00000000
,
00000001
00000000
00000010
00000000
00000200
00000000
00000000
00000000
00010300
00001000
00000000
00011000
00000000
00000000
00000000
00000000
,
00010000
00000000
00001000
00000000
01000000
00010000
01000000
00000000
00010000
10000000
00000000
10000000
00010000
00000000
00100000
00000000
,
01000000
00000000
10000000
00000000
01000000
00100000
01000000
00000000
00100000
00010000
00000000
00110000
00000000
00000000
00100000
00000000
,
00001000
00000000
00010000
00000000
00000010
00000000
00000000
00000000
00000110
00000000
00000000
00001001
00000000
00000000
00000000
00000000
,
00000001
00000000
00000100
00000000
00000010
00001000
00000010
00000000
00001000
00000100
00000000
00010100
00000000
00000000
00010000
00000000
,
00002000
00000000
00003000
00000000
00011000
00000000
00010000
00000000
00001000
00100000
00000000
00100000
00010000
00000000
10000000
00000000
,
00100000
00000000
01000000
00000000
00010000
01000000
00010000
00000000
01000000
00001000
00000000
00001000
00010000
00000000
00100000
00000000
,
00010000
00000000
00001000
00000000
00000100
00000000
00000000
00000000
00000101
00000000
00000000
00001010
00000000
00000000
00000000
00000000
,
00001000
00000000
00000010
00000000
00010000
00000000
00000000
00000000
00011000
00000000
00000000
00110000
00000000
00000000
10010000
00000000
,
20000000
00000000
30000000
00000000
00010000
00000000
00100000
00000000
01000000
10000000
00000000
10000000
00010000
00000000
00100000
00000000
,
00001000
00000000
00000100
00000000
00000020
00000000
00000000
00000000
00001030
00000001
00000000
00000001
00000010
00000000
00000100
00000000
,
00001000
00000000
00010000
00000000
00100000
00000000
00000000
00000000
00110000
00000000
00000000
11000000
00000000
00000000
10010000
00000000
,
10000000
00010000
01000000
00100000
01000000
00000000
00100000
00000000
01000000
00010000
00000000
10010000
00000000
00000000
11000000
00000000
,
00000000
00000000
00000000
00000000
,
10000000
00010000
10000000
01000000
00100000
00001000
00010000
00000100
,
00001000
00000001
00000100
00001000
00000100
00000001
00000100
00001000
,
00010000
00001000
01000000
00100000
00010000
00100000
01000000
01000000
,
00000000
00000000
00010000
00000000
00010000
00000000
00000000
00000000
10000000
00010000
10000000
00010000
10000000
00000000
00000000
00000000
,
02000000
00000000
00000000
00000000
00000000
00000000
00000000
00000000
03100000
00000000
00100000
00010000
00100000
00000000
00001000
00000000
,
00010000
00001000
00000100
00001000
00010000
00100000
00010000
00001000
,
00000100
00000000
00000010
00001000
00000010
00000000
00000100
00000000
00000001
00000000
00000010
00000000
00000100
00000000
00010000
00000000
,
00001000
00000000
00100000
00010000
00100000
00000000
01000000
00000000
10000000
00000000
00100000
00000000
01100000
00000000
01000000
00000000
,
00001000
00000000
00010000
00001000
00010000
00000000
00000100
00000000
00001000
00000000
00000100
00000000
00000110
00000000
00000010
00000000
,
00000100
00001000
00000100
00000000
00010000
00000000
01000000
00000000
00100000
00010000
00100000
00000000
00001000
00000000
00000010
00000000
,
00000100
00001000
00000100
00000000
00010000
00000000
01000000
00000000
00100000
00010000
00100000
01000000
10000000
00000000
00000000
00000000
,
00000000
00000000
00000000
00000000
;
