
//----- song ID: paea -----//
#TITLE:パーフェクトイーター;
#ARTIST:BEMANI Sound Team "PON" feat.かなたん;
#TITLETRANSLIT:Perfect eater;
#ARTISTTRANSLIT:BEMANI Sound Team "PON" feat. Kanata.N;
#BANNER:Perfect eater.png;
#BACKGROUND:Perfect eater-bg.png;
#CDTITLE:./CDTitles/DDR A3.png;
#MUSIC:Perfect eater.ogg;
#SAMPLESTART:53.486;
#SAMPLELENGTH:15;
#BPMS:0=175;
#STAGE:14;
#NOTES:
     dance-single:
     :
     Beginner:
     3:
     :
0000
0000
0000
0000
,
0000
0000
0000
0000
,
0000
0000
0000
0000
,
0000
0000
0000
0000
,
0000
0000
0000
0000
,
0000
0000
0000
0000
,
0000
0000
0000
0000
,
1000
0000
0000
0000
,
0100
0000
0000
0000
,
0010
0000
0000
0000
,
0000
0000
0000
0000
,
0001
0000
0000
0000
,
0001
0000
0000
0000
,
0010
0000
0000
0000
,
0000
0000
0000
0000
,
0001
0000
0000
0000
,
0001
0000
0000
0000
,
0100
0000
0000
0000
,
0000
0000
0000
0000
,
0010
0000
0000
0000
,
1000
0000
0000
0000
,
0010
0000
0000
0000
,
0000
0000
0000
0000
,
1000
0000
0000
0000
,
1000
0000
0000
0000
,
0010
0000
0000
0000
,
0000
0000
0000
0000
,
1000
0000
0000
0000
,
1000
0000
0000
0000
,
0100
0000
0000
0000
,
0000
0000
0000
0000
,
1001
0000
0000
0000
,
0000
0000
0000
0000
,
1001
0000
0000
0000
,
0000
0000
0000
0000
,
1001
0000
0000
0000
,
0000
0000
0000
0000
,
1000
0000
0000
0000
,
0100
0000
0000
0000
,
0010
0000
0010
0000
,
0001
0000
0000
0000
,
0001
0000
0001
0000
,
0100
0000
0000
0000
,
0010
0000
0010
0000
,
0100
0000
0000
0000
,
1001
0000
0000
0000
,
0000
0000
0000
0000
,
0010
0000
0010
0000
,
1000
0000
0000
0000
,
1000
0000
1000
0000
,
0100
0000
0000
0000
,
0010
0000
0010
0000
,
0100
0000
0000
0000
,
1001
0000
0000
0000
,
0000
0000
0000
0000
,
2000
0000
0000
0000
,
3000
0000
0000
0000
,
0100
0000
0100
0000
,
0010
0000
0000
0000
,
0002
0000
0000
0000
,
0003
0000
0000
0000
,
0100
0000
0100
0000
,
0010
0000
0000
0000
,
1000
0000
0000
0000
,
0010
0000
0000
0000
,
1000
0000
0000
0000
,
0100
0000
0000
0000
,
0010
0000
0000
0000
,
0010
0000
0000
0000
,
0001
0000
0000
0000
,
0000
0000
0000
0000
,
0001
0000
0001
0000
,
0010
0000
0010
0000
,
0001
0000
0000
0000
,
0000
0000
0000
0000
,
1000
0000
1000
0000
,
0100
0000
0100
0000
,
1000
0000
0000
0000
,
0010
0000
0000
0000
,
0100
0000
0000
0000
,
0001
0000
0000
0000
,
1001
0000
0000
0000
,
0000
0000
0000
0000
,
0000
0000
0000
0000
,
0000
0000
0000
0000
,
1001
0000
0000
0000
,
0000
0000
0000
0000
,
0001
0000
0000
0000
,
0010
0000
0000
0000
,
0000
1001
0000
0000
,
0000
0000
0000
0000
;
#NOTES:
     dance-single:
     :
     Easy:
     6:
     :
0000
0000
0000
0000
,
0000
0000
0000
0000
,
0000
0000
0000
0000
,
0000
0000
0000
0000
,
0000
0000
0000
0000
,
0000
0000
0000
0000
,
0000
0000
0000
0000
,
1000
0100
0010
0000
,
0001
0001
1000
0000
,
0001
0100
0010
0010
,
2002
0000
0000
3003
,
1000
0010
1000
0010
,
0100
0001
0010
0100
,
0010
0001
0010
0001
,
0100
0010
1001
0000
,
0001
0010
0001
0010
,
0100
1000
0010
0100
,
0010
1000
0010
1000
,
0100
0010
1001
0000
,
2000
0010
3010
0000
,
1000
0100
0010
0000
,
0002
0010
0013
0000
,
0001
0100
0010
0000
,
1010
0000
0011
0000
,
1000
1000
1000
0000
,
0101
0000
1100
0000
,
0001
0001
0001
0000
,
0001
0100
0001
0010
,
0001
1000
0010
0010
,
1000
0000
1000
0001
,
0100
0000
0010
0100
,
0220
0000
0000
0000
0330
0000
0000
0110
,
0000
0000
1000
0001
,
2002
0000
0000
0000
3003
0000
0000
1001
,
0000
0000
0001
0100
,
0202
0000
0000
0000
0303
0000
0000
1010
,
0000
0000
1000
0010
,
1000
0100
0010
0001
,
2002
0000
0000
3003
,
1000
0100
0001
0100
,
1000
0001
1001
0000
,
1000
0010
0010
0100
,
0100
0001
1000
0000
,
0001
0001
0001
0100
,
0001
0010
0100
1000
,
1010
0000
1100
0000
,
0011
0000
0101
0000
,
0001
0100
1000
0100
,
0001
1000
1001
0000
,
0001
0010
0010
0100
,
0100
1000
0001
0000
,
1000
1000
1000
0100
,
1000
0010
0100
0001
,
0011
0000
0101
0000
,
1010
0000
1100
0000
,
2002
0000
0000
0000
,
0000
0000
0000
3003
,
1000
0001
0100
0010
,
2000
0000
3002
0000
,
0013
0100
0010
0001
,
1000
0010
0100
0010
,
1000
0100
1000
0100
,
0010
0001
0010
0001
,
1001
0000
0000
0000
,
0000
0000
0000
0000
,
0001
1000
0010
1000
,
0001
0100
0001
0000
,
1000
1000
1000
1000
,
0020
0000
0230
0000
,
0301
0000
0011
0000
,
2002
0000
0000
3003
,
0001
0100
0010
1000
,
0001
0100
0010
0000
,
1000
0100
1000
0100
,
0010
0001
0010
0010
,
0001
0100
1000
0100
,
0001
0010
1000
0010
,
0001
0010
0001
0000
,
1000
0010
1000
0000
,
0001
0100
0001
0000
,
1000
0100
1000
0000
,
0002
0000
0013
0000
,
1000
0010
0100
0000
,
0002
0000
0103
0000
,
1000
0100
0010
0000
,
2000
0000
3010
0000
,
0001
0100
0010
0000
,
2000
0000
3100
0000
,
0010
0001
0100
0010
,
1000
2002
0000
0000
,
0000
0000
0000
0000
,
3003
0000
0000
0000
,
0000
0000
0000
0000
;
#NOTES:
     dance-single:
     :
     Medium:
     12:
     :
0000
0000
0000
0000
,
0000
0000
0000
0000
,
0000
0000
0000
0000
,
0000
0000
0000
0000
,
0000
0000
0000
0000
,
0000
0000
0000
0000
,
0000
0000
0000
0000
,
1000
0000
0001
0000
0100
0010
0100
0000
,
0001
0000
1000
0100
0010
0000
0001
0000
,
0100
0000
0010
0000
1000
0001
1000
0000
,
0001
0000
0000
0001
0000
0000
1000
0000
0000
1000
0000
0000
0001
0000
0000
0000
,
1000
0000
0010
0000
0001
0000
0010
1000
,
0000
0001
0100
0000
0010
0100
0010
0000
,
1000
0000
0100
0000
0001
0000
0100
1000
,
0000
0001
0010
0001
1000
0000
0000
0000
,
0001
0000
0000
0000
0100
0000
0000
0000
1000
0000
0000
0100
0000
0000
0001
0000
,
0000
1000
0010
0000
0100
0010
0100
0000
,
0001
0000
0010
1000
0010
0000
0001
0000
,
1000
0000
0100
1000
0001
0000
1001
0000
,
2000
0010
0001
3001
,
1000
0100
1000
0000
0010
0100
0001
0000
,
0002
0010
1000
1003
,
0010
0000
0000
0010
0000
0000
0100
0000
0000
0100
0000
0000
0010
0000
0000
0000
,
0100
0000
0110
0000
0001
0000
1000
0001
,
0000
0001
0100
0000
0010
1000
0010
0000
,
1000
0000
1001
0000
0001
0100
0001
0010
,
0000
0100
1000
0010
1000
0000
0001
0100
,
0000
0010
1000
0000
1010
0000
1100
0000
,
1000
0100
0001
0100
1000
0000
0001
0000
,
0100
0000
0100
0010
1000
0000
1010
0000
,
1001
0000
0000
0001
0010
0100
1000
0000
,
0001
0100
0001
0010
0001
0100
0001
0020
,
0000
0000
0130
0100
,
1000
0100
1000
0010
1000
0100
1000
0020
,
0000
0000
0130
0100
,
0001
0100
0010
1000
0001
0010
0100
2000
,
0000
0000
3001
0001
,
1000
0100
0010
0000
0001
0100
0010
0000
,
1000
0000
0000
0010
0000
0000
0100
0000
0000
0001
0000
0000
1000
0000
0000
0000
,
0001
1000
0100
0000
1000
0001
0100
0010
,
0000
0010
0100
0010
0000
1001
0000
0001
,
1000
0000
0100
0001
0000
0100
1000
0100
,
0000
1000
0010
1000
0000
0001
0001
0000
,
0011
0000
1100
0000
0011
0000
0001
0010
,
0100
1000
0001
0010
0000
0001
0100
0001
,
1000
1000
0100
0000
0001
0001
0100
0000
,
1000
1000
0010
0000
0001
0001
0010
0000
,
1000
0001
0010
0000
0001
1000
0010
0100
,
0000
0100
0010
0100
0000
0001
1000
0001
,
0000
0001
0010
1000
0010
0001
0010
0001
,
0000
0001
0100
0001
0000
1000
1000
0000
,
1100
0011
1100
0011
,
0101
0000
1010
0000
0001
0100
0010
1000
,
0001
0001
0010
0000
1000
1000
0010
0000
,
0001
0000
0001
0000
0100
0000
0000
0000
1000
0000
0000
0100
0000
0000
0010
0000
,
0002
0100
1000
0103
,
0001
0010
0001
1000
0000
0010
0100
0000
,
0001
0100
0010
1000
0001
0100
0010
1000
,
0001
0000
0100
0000
0000
0100
0000
0000
0010
0000
0000
0010
0000
0000
1001
0000
,
0000
1000
0010
1000
0100
0010
0100
0010
,
0001
1000
0010
0000
1000
0001
0010
0000
,
0001
0100
0001
0100
0010
1000
0100
1000
,
0100
0010
0100
0010
0001
0100
0001
1000
,
0001
0000
0000
0000
0000
0000
0000
0110
,
0000
0100
0100
0100
0000
0000
0000
0000
,
1000
1000
0100
1000
0000
0100
0010
0001
,
0000
1000
0000
0001
0000
1001
0000
0000
,
0001
0100
0010
0000
1000
0100
0010
0000
,
0001
0100
0010
1000
0010
0100
,
0002
0000
0023
0000
,
0230
0000
0000
0000
,
1300
0100
0001
0100
1000
0100
0001
0100
,
1000
0100
0001
0100
1000
0000
0000
0000
,
1000
0000
0001
0100
0000
0001
0010
0001
,
0000
1000
0100
0010
0000
0001
1000
0000
,
0001
0100
1000
0100
0001
0100
1000
0100
,
0001
0010
1000
0010
0001
0010
1000
0010
,
0001
0002
0103
0200
,
0310
0020
0130
0110
,
1000
2000
3100
0200
,
0310
0000
0000
0000
0020
0000
0000
0000
0031
0000
0000
0001
0000
0000
1000
0000
,
1000
0000
0010
0000
0100
0010
0100
0000
,
0001
0000
1000
0001
1000
0000
0000
0000
,
0001
0000
0010
0000
0100
0010
0100
0000
,
1000
0000
0001
1000
0001
0000
0000
0000
,
1000
0010
0100
0001
0010
0001
1000
0000
,
0001
0000
0100
0010
1000
0010
0100
0000
,
0001
0010
0001
0100
0010
1000
0100
0000
,
1000
0000
0000
0010
0000
0000
0100
0000
0000
0001
0000
0000
0010
0000
0100
0000
,
1000
2002
0000
0000
,
0000
0000
0000
0000
,
3003
0000
0000
0000
,
0000
0000
0000
0000
;
#NOTES:
     dance-single:
     :
     Hard:
     17:
     :
0000
0000
0000
0000
,
0000
0000
0000
0000
,
0000
0000
0000
0000
,
0000
0000
0000
0000
,
0000
0000
0000
0000
,
0000
0000
0000
0000
,
0000
0000
0000
0000
,
1000
0010
0000
1000
0000
0100
0010
0000
0001
0000
0100
0010
0100
0000
0000
0000
,
0002
0000
1003
0100
0001
0100
1000
0000
,
0001
0010
0000
0001
0000
0100
0010
0000
1000
0000
0100
0010
0100
0000
0000
0000
,
1000
0010
0000
0001
1000
0000
0100
0001
0000
0010
1000
0000
0001
0100
1000
0000
,
0001
0000
0100
0001
0100
0000
0010
1000
0010
0000
1000
0100
0010
0000
0110
0000
,
0000
1000
0100
0010
0001
0000
0011
0000
,
0001
0000
0010
0100
0010
0000
0001
1000
0001
0000
0100
0010
1000
0000
1001
0000
,
0000
0000
0100
0000
0001
0000
1000
0000
0100
1000
0100
0010
0001
0010
0100
0000
,
1000
0000
0010
1000
0010
0000
0100
0001
0100
0000
0001
0010
0000
0100
0010
0000
,
0000
0001
0010
0100
1000
0000
1100
0000
,
2000
0000
0000
0000
3100
0010
0100
1000
0002
0000
0000
0000
0103
0010
1000
0010
,
0100
0001
0010
0001
0100
0000
0110
0000
,
1000
0100
0000
1000
0010
0100
0001
0000
1001
0000
1000
0001
0010
0001
1000
0000
,
0002
0100
2003
0010
3002
0100
0013
0000
,
0001
0010
0000
0001
0100
0010
1000
0000
1001
0000
0001
1000
0100
1000
0001
0000
,
1000
0100
0000
0001
1000
0000
0010
0001
0000
0100
1000
0000
0001
0010
1000
0000
,
1010
0000
0011
0000
1010
0000
0011
1010
,
0000
0000
0010
1000
0100
0000
0010
0000
0220
0000
0000
0000
0330
0000
0000
0000
,
1100
0000
0101
0000
1100
0000
0101
1100
,
0000
0000
0100
1000
0010
0000
0100
0000
0101
0000
0000
0000
0001
0000
2000
0000
,
0000
0000
3001
0010
0001
0000
1000
0010
1000
0000
0001
0010
0000
0100
1000
0000
,
0001
1000
0100
0010
0001
0100
1000
0100
,
0201
0000
0310
1000
1020
0000
2030
0000
,
3010
0000
0110
0000
1000
0001
1001
0000
,
0001
0100
0001
1000
0001
0100
0001
1000
0001
0000
0000
0000
0110
0000
1001
0000
,
0000
0000
1000
0001
0100
0000
0010
0100
0001
0010
0000
0010
0001
0000
0000
0000
,
1000
0100
1000
0001
1000
0100
1000
0001
1000
0000
0000
0000
0110
0000
1001
0000
,
0000
0000
0001
1000
0100
0000
0010
0100
1000
0010
0100
0001
1000
0000
0000
0000
,
0001
1000
0010
1000
0001
0100
0001
1000
0010
0000
1000
0100
0010
0000
0011
0000
,
0000
0000
0000
0000
1001
0000
0000
0000
0010
1000
0010
0000
0100
0001
0100
0000
,
0001
0000
1000
0100
0010
0000
0001
0100
0010
0000
1000
0100
0010
0000
0001
0100
,
0010
1000
0000
0100
0001
0000
1000
0010
0000
0001
0100
0000
1000
0100
0001
0000
,
1000
0000
0001
0100
0001
0000
1000
0100
1000
0000
0001
0100
0010
0000
1001
0000
,
0000
0110
0010
1001
0000
1000
0001
1000
,
0010
0000
1000
0100
0010
0000
0100
0010
0001
0000
1000
0010
0100
0000
0110
0000
,
0000
0101
0000
1002
0000
1000
1003
0000
,
0001
0000
1000
0010
1000
0000
0001
0010
0001
0000
1000
0010
0100
0000
1001
0000
,
0010
0100
0010
1001
0000
0001
0001
0000
,
0100
0000
0001
0010
0100
0000
0010
0100
1000
0000
0010
1000
0100
0000
0010
0001
,
0100
0000
0010
1000
0001
0000
0100
0001
0020
0000
0000
0000
0030
0000
0000
0000
,
0001
0000
1000
0001
0100
0000
0010
0100
0001
0000
1000
0100
0010
0000
0011
0000
,
0000
0000
1010
0000
1000
0000
1100
0000
0000
0000
0001
0100
0001
0100
0020
0000
,
0000
0000
1030
0100
1000
0100
0010
0000
0001
0000
0100
0000
0001
0000
1000
0000
,
0000
1010
0000
0011
0000
0101
1001
0000
,
1000
0000
0010
0100
1000
0000
0100
0010
1000
0000
0001
0010
0100
0000
0001
0100
,
0010
0000
0001
0100
0010
0000
0001
0010
0100
0000
1000
0000
0100
0000
0001
0000
,
0010
0010
1100
0000
0010
0010
0101
0000
,
0100
0000
0100
0000
1010
0000
0000
0000
0001
0000
0000
0001
0000
0000
0001
0000
,
2000
0000
0000
0000
,
0000
0000
0000
3000
,
1000
0100
1000
0100
0010
0001
0010
0001
0100
0001
0100
0001
1000
0010
1000
0010
,
1000
0100
1000
0010
1000
0001
0010
0001
1000
0100
1000
0001
0100
0001
2000
0000
,
0000
0000
3001
0100
0010
0100
0010
0100
0010
1000
0010
0100
0010
0000
1000
0000
,
0001
0100
0010
1000
0100
0020
0000
0000
0130
0000
1000
0001
1000
0000
0001
0000
,
1000
0100
0010
0001
1000
0001
0010
0100
1000
0010
0100
0001
1000
0001
0100
0010
,
1000
0100
1000
0100
0010
0001
0010
0100
1000
0010
1000
0010
0100
0001
0010
0100
,
1000
0000
0000
0000
0000
0000
0000
0110
,
0000
0001
1000
1001
0000
1000
0001
0000
,
0200
0000
0010
0310
0000
0020
0000
0130
,
0000
0110
0000
1001
0000
0001
1000
0000
,
0001
0000
0100
0010
0100
0000
0001
1000
0001
0000
0010
0100
0010
0000
0001
1000
,
0001
0100
0101
1000
0100
1100
,
0002
0000
0000
0000
0003
0000
0010
0100
2000
0000
0000
0000
3000
0000
0010
0100
,
0001
0010
0000
1000
0001
0000
0100
1000
0000
0010
0001
0000
1000
0100
0001
0000
,
1000
0010
1000
0010
0100
0010
1000
0010
1000
0010
1000
0010
0100
0010
1000
0010
,
1000
0000
0001
0000
1001
0000
0000
0000
1000
0000
0000
0001
0000
0000
1000
0000
,
0001
0100
0010
1001
0000
0110
0000
1001
,
0000
1000
0100
0001
0001
0100
1000
1000
,
0001
0100
0001
0100
0010
0100
0001
0100
0001
0010
0001
0010
0100
0010
0001
0010
,
0001
0100
0001
0100
0010
0100
0001
0100
0001
0000
0010
0000
0100
0000
1000
0000
,
0010
0101
0010
1100
,
0100
0000
0011
0000
2000
0001
3001
0000
,
0001
0100
1010
0000
1000
0010
0101
0000
,
1000
0000
0010
0000
0001
0000
0010
0000
0100
0000
0000
0010
0000
0000
0100
0000
,
2002
0000
0000
0000
,
0000
0000
0000
0000
3003
0100
0010
0200
,
0000
0000
0000
0000
,
0300
0000
0000
0000
0000
0110
0000
2002
,
0000
0000
0000
0000
,
0000
0000
0000
3003
,
1000
0010
1000
0010
0100
0010
1000
0100
1000
0100
0010
0100
1000
0001
0010
0000
,
0001
0100
0010
0001
0010
0100
0001
1000
0100
0010
1000
0010
0100
0000
1000
0000
,
0010
0220
0000
0000
,
0000
0000
0000
0000
,
0330
0000
0000
0000
,
0000
0000
0000
0000
;
#NOTES:
     dance-double:
     :
     Easy:
     6:
     :
00000000
00000000
00000000
00000000
,
00000000
00000000
00000000
00000000
,
00000000
00000000
00000000
00000000
,
00000000
00000000
00000000
00000000
,
00000000
00000000
00000000
00000000
,
00000000
00000000
00000000
00000000
,
00000000
00000000
00000000
00000000
,
00000001
00001000
00000100
00000000
,
00001000
00000010
00010000
00000000
,
00001000
01000000
00001000
00010000
,
00022000
00000000
00000000
00033000
,
00001000
01000000
00010000
01000000
,
00010000
00100000
00010000
00000000
,
10000000
01000000
00100000
01000000
,
10000000
00010000
01000000
00000000
,
00010000
00010000
00100000
00100000
,
00001000
00010000
00001000
00001000
,
00010000
00010000
00000100
00000100
,
00001000
00000010
00000100
00000000
,
00000002
00000000
00002003
00000000
,
00003010
00000100
00000001
00000000
,
00002000
00000000
00003200
00000000
,
00010300
00001000
00010000
00000000
,
00001000
00000000
01000000
00000000
,
00100000
00100000
00100000
00000000
,
10000000
00000000
01000000
00000000
,
00010000
01000000
10000000
00000000
,
10000000
01000000
00100000
00010000
,
01000000
00010000
00100000
00000000
,
00001000
00010000
00001000
00010000
,
00000010
00010000
00001000
00000000
,
00022000
00000000
00000000
00000000
00033000
00000000
00000000
00011000
,
00000000
00010000
00000010
00000000
,
00000220
00000000
00000000
00000000
00000330
00000000
00000000
00000110
,
00000000
00000100
00000010
00000000
,
00002002
00000000
00000000
00000000
00003003
00000000
00000000
00001001
,
00000000
00000000
00000001
00000010
,
00000100
00010000
00001000
00010000
,
00022000
00000000
00000000
00033000
,
00001000
01000000
00010000
00100000
,
00010000
01000000
00001000
00000000
,
00001000
00010000
00100000
00000000
,
10000000
00010000
10000000
00000000
,
10000000
00010000
01000000
00010000
,
00100000
01000000
00100000
00001000
,
00010000
00000000
00011000
00000000
,
00001000
00000000
00011000
00000000
,
00010000
00000100
00001000
00000010
,
00001000
00000100
00010000
00000000
,
00010000
00001000
00000010
00000000
,
00000001
00001000
00000001
00000000
,
00000001
00001000
00000100
00001000
,
00000010
00000100
00000010
00010000
,
00001000
00000000
00011000
00000000
,
00010000
00000000
00001000
00010000
,
00022000
00000000
00000000
00000000
,
00000000
00000000
00000000
00033000
,
00010000
00001000
01000000
00010000
,
02000000
00000000
03200000
00000000
,
10300000
01000000
10000000
01000000
,
00100000
00001000
00010000
00001000
,
00010000
00000010
00001000
00000010
,
00000100
00000001
00000100
00000000
,
00001001
00000000
00000000
00000000
,
00000000
00000000
00000000
00000000
,
00000002
00000000
00000203
00000000
,
00001300
00010000
00001000
00000000
,
00010000
00010000
00001000
00001000
,
00020000
00000000
00032000
00000000
,
01003000
00000000
01100000
00000000
,
20020000
00000000
00000000
30030000
,
10000000
01000000
00010000
00000000
,
00001000
00000010
00000001
00000000
,
00001000
00000001
00000100
00000010
,
00001000
00000001
00000010
00000000
,
00000001
00000100
00001000
00000000
,
00010000
00100000
10000000
00000000
,
00010000
10000000
01000000
00100000
,
00010000
10000000
00100000
00000000
,
10000000
00000000
01000000
00000000
,
00100000
00001000
00100000
00000000
,
00002000
00000000
00000000
00003000
,
00010000
00000010
00001000
00000000
,
00000200
00000000
00000000
00000300
,
00000010
00000001
00000100
00000000
,
00000002
00000000
00000000
00000003
,
00001000
00000100
00010000
00000000
,
00002000
00000000
00000000
00003000
,
00010000
00001000
01000000
00010000
,
00100000
02200000
00000000
00000000
,
00000000
00000000
00000000
00000000
,
03300000
00000000
00000000
00000000
,
00000000
00000000
00000000
00000000
;
#NOTES:
     dance-double:
     :
     Medium:
     12:
     :
00000000
00000000
00000000
00000000
,
00000000
00000000
00000000
00000000
,
00000000
00000000
00000000
00000000
,
00000000
00000000
00000000
00000000
,
00000000
00000000
00000000
00000000
,
00000000
00000000
00000000
00000000
,
00000000
00000000
00000000
00000000
,
00000001
00000000
00001000
00000000
00000100
00000010
00000100
00000000
,
00001000
00000000
00000010
00001000
00000100
00000000
00010000
00000000
,
00001000
00000000
01000000
00000000
00001000
00010000
00001000
00000000
,
00100000
00000000
00000000
00010000
00000000
00000000
01000000
00000000
00000000
00010000
00000000
00000000
00100000
00000000
00000000
00000000
,
01000000
00000000
10000000
00000000
00100000
00000000
01000000
00010000
,
00000000
00100000
00010000
00000000
10000000
01000000
00100000
00000000
,
00001000
00000000
00010000
00000000
00000100
00000000
00010000
00001000
,
00000000
00000010
00000001
00001000
00000001
00000000
00000000
00000000
,
00000100
00000000
00000000
00000000
00000001
00000000
00000000
00000000
00000010
00000000
00000000
00000100
00000000
00000000
00001000
00000000
,
00000000
00000010
00001000
00000000
00000001
00000100
00000010
00000000
,
00010000
00000000
00001000
01000000
00001000
00000000
00010000
00001000
,
00100000
00000000
00010000
00000000
01000000
00100000
01000000
00000000
,
00020000
00100000
10000000
10030000
,
10000000
00010000
01000000
00000000
00001000
00010000
00001000
00000000
,
00020000
00000100
00001000
00031000
,
00010000
00000000
00000000
00000010
00000000
00000000
00001000
00000000
00000000
00000010
00000000
00000000
00000100
00000000
00000000
00000000
,
00000001
00000000
00001000
00000000
00000100
00000000
00000010
00000001
,
00000000
00000001
00001000
00000000
00000010
00010000
00000010
00000000
,
00010000
00000000
00001000
00000000
01000000
00000000
00010000
00100000
,
00000000
00100000
01000000
10000000
00010000
00000000
10000000
01000000
,
00000000
00100000
00010000
00000000
00110000
00000000
00101000
00000000
,
00001000
00010000
00001000
00000000
00010000
00000100
00010000
00000000
,
00000100
00000000
00000100
00001000
00000010
00000000
00000010
00000100
,
00000001
00000000
00000000
00001000
00000001
00000100
00000010
00000000
,
00001000
00000010
00001000
00000010
00010000
00001000
00010000
00002000
,
00000000
00000000
00013000
00010000
,
00001000
00100000
00001000
00100000
00010000
01000000
00010000
02000000
,
00000000
00000000
03100000
00100000
,
10000000
00100000
10000000
00100000
01000000
00010000
00100000
00020000
,
00000000
00000000
00130000
00100000
,
00001000
00010000
00000100
00000000
00010000
00000010
00001000
00000000
,
00000100
00000000
00000000
00000010
00000000
00000000
00000001
00000000
00000000
00001000
00000000
00000000
00000010
00000000
00000000
00000000
,
00001010
00000000
00000011
00000000
00001010
00000000
00001000
00000001
,
00000000
00000001
00000100
00000001
00000000
00000010
00000100
00001000
,
00000100
00000000
00010000
00001000
00000000
00001000
00100000
00001000
,
00000000
01000000
00010000
01000000
00000000
00100000
00100000
00000000
,
10100000
00000000
00110000
00000000
10100000
00000000
10000000
01000000
,
00100000
00010000
00100000
01000000
00000000
10000000
00010000
00000000
,
00100000
00100000
00001000
00000000
00001000
00001000
00010000
00000000
,
00010000
00010000
00000010
00000000
00002020
00000000
00003030
00000000
,
00001100
00000000
00000101
00000000
00001100
00000000
00001000
00000001
,
00000000
00000001
00000010
00000001
00000000
00000100
00000010
00001000
,
00000000
00000010
00010000
00001000
00100000
00001000
01000000
00001000
,
00000000
00100000
00010000
00100000
00000000
01000000
01000000
00000000
,
11000000
01010000
11000000
01010000
,
10100000
00000000
00110000
00000000
00010000
00100000
01000000
10000000
,
01000000
01000000
00100000
00000000
00100000
00100000
00001000
00000000
,
00010000
00000000
00010000
00000000
00000100
00000000
00000000
00000000
00001000
00000000
00000000
00000010
00000000
00000000
00000100
00000000
,
00000020
00001000
00010000
00001030
,
00000001
00000100
00000010
00001000
00000000
00000010
00010000
00000000
,
00001000
01000000
00010000
00100000
00001000
01000000
00010000
00100000
,
00010000
00000000
01000000
00000000
00000000
01000000
00000000
00000000
00100000
00000000
00000000
00100000
00000000
00000000
10010000
00000000
,
00000000
10000000
01000000
00100000
01000000
00100000
00001000
00010000
,
00001000
00000000
00011000
00000000
00010000
00000100
00001000
00000000
,
00000010
00001000
00000100
00001000
00000100
00000010
00000001
00000010
,
00000001
00000100
00000010
00000100
00001000
00010000
00001000
00000000
,
00011000
00000000
00000000
00000000
00000000
00000000
00000000
01100000
,
00000000
01000000
01000000
01000000
00000000
00000000
00000000
00000000
,
10000000
00100000
10000000
00100000
00000000
10000000
01000000
00100000
,
00000000
00001000
00000000
00010000
00000000
00011000
00000000
00000000
,
00001000
00010000
00000100
00000000
00001000
00000100
00000010
00000000
,
00000001
00000100
00000100
00000010
00001000
00001000
,
00000200
00000000
00020300
00000000
,
00032000
00000000
00000000
00000000
,
00013000
00100000
01000000
00100000
10000000
00100000
01000000
00100000
,
00010000
00100000
10000000
00000000
10010000
00000000
00000000
00000000
,
10000000
00000000
01000000
00100000
00000000
00010000
00100000
00001000
,
00000000
00010000
00001000
00010000
00000000
00000100
00001000
00000000
,
00000001
00000100
00000010
00000100
00001000
00000100
00000010
00000100
,
00000001
00000010
00000100
00000010
00001000
00000010
00000100
00000010
,
00000001
00000101
00000100
00000110
,
00000010
00010000
00001000
00000000
00011000
00000000
00000000
00000000
,
00001000
01001000
01000000
01010000
,
00010000
00000000
00000000
00000000
00110000
00000000
00000000
00000000
00100000
00000000
00000000
00010000
00000000
00000000
10000000
00000000
,
00100000
00000000
01000000
00000000
00010000
00100000
01000000
00000000
,
00200000
00010000
00301000
00000000
,
00001000
00000000
00010000
00000000
00000100
00001000
00000010
00000000
,
00000200
00000010
00000301
00000000
,
00000001
00001000
00000100
00000010
00000100
00001000
00000010
00000000
,
00001000
00000010
00010000
00001000
01000000
00010000
01000000
00000000
,
00010000
00100000
01000000
10000000
00100000
10000000
01000000
00000000
,
00100000
00000000
00000000
00001000
00000000
00000000
00010000
00000000
00000000
00001000
00000000
00000000
00000010
00000000
00000001
00000000
,
00001000
00002002
00000000
00000000
,
00000000
00000000
00000000
00000000
,
00003003
00000000
00000000
00000000
,
00000000
00000000
00000000
00000000
;
#NOTES:
     dance-double:
     :
     Hard:
     17:
     :
00000000
00000000
00000000
00000000
,
00000000
00000000
00000000
00000000
,
00000000
00000000
00000000
00000000
,
00000000
00000000
00000000
00000000
,
00000000
00000000
00000000
00000000
,
00000000
00000000
00000000
00000000
,
00000000
00000000
00000000
00000000
,
00000001
00000100
00000000
00000010
00000000
00001000
00000010
00000000
00000100
00000000
00000001
00001000
00000001
00000000
00000000
00000000
,
00002000
00000000
00003100
00010000
00001000
00100000
00010000
00000000
,
01000000
00100000
00000000
10000000
00000000
00010000
01000000
00000000
00100000
00000000
10000000
00010000
10000000
00000000
00000000
00000000
,
00010000
10000000
00000000
01000000
00010000
00000000
00001000
00000010
00000000
00000001
00001000
00000000
00000001
00000000
00000000
00000000
,
00001000
00000000
00000001
00000100
00000001
00000000
00001000
00000100
00001000
00000000
00000001
00000100
00000001
00000000
00001000
00000000
,
00000000
00000001
00001000
00000100
00020000
00000000
00031000
00000000
,
00001000
00000000
01000000
00010000
01000000
00000000
00010000
00100000
00010000
00000000
01000000
00010000
01000000
00000000
00100000
00000000
,
00000000
00000000
01000000
00000000
00010000
00000000
10000000
00000000
01000000
10000000
01000000
00100000
00010000
00000000
00000000
00000000
,
10000000
00000000
00010000
00100000
00010000
00000000
10000000
00100000
10000000
00000000
01000000
00100000
00000000
00010000
01000000
00000000
,
00000000
00010000
00100000
00001000
00020000
00000000
00030010
00000000
,
00000110
00000000
00000000
00000000
00000001
00000000
00000010
00000100
00001000
00000000
00000000
00000000
00000010
00000000
00000100
00000001
,
00001000
00000001
00000100
00000001
00000010
00001000
00010000
00000000
,
01000000
10000000
00000000
00100000
10000000
00100000
10000000
00000000
00010000
00000000
00100000
01000000
00100000
00000000
00001000
00000000
,
00010000
00000100
00001000
00000010
00000100
00000010
00001000
00000000
,
00000100
00000010
00000000
00000001
00000010
00000001
00000010
00000000
00000001
00000000
00000100
00000010
00000100
00000000
00000000
00000000
,
00000001
00000100
00000000
00001000
00010000
00000000
00100000
10000000
00000000
00010000
10000000
00000000
01000000
00000000
00000000
00000000
,
00100000
00001000
00010000
00000000
00010000
00000010
00000100
00000010
,
00000000
00000000
00001000
00000100
00000010
00000000
00000001
00000000
00002002
00000000
00000000
00000000
00003003
00000000
00000000
00000000
,
00000001
00001000
00000100
00000000
00000100
00010000
00001000
00100000
,
00000000
00000000
01000000
00100000
00010000
00000000
10000000
00000000
00100000
00000000
01000000
00100000
01000000
00000000
00020000
00000000
,
00000000
00000000
10030000
01000000
10000000
00000000
00010000
01000000
00010000
00000000
00100000
00001000
00000000
00001000
00010000
00000000
,
00000100
00001000
00000010
00000100
00000001
00001000
00000100
00000010
,
00000002
00000000
00000013
00001000
00020000
00000000
00032000
00000000
,
00003100
00000000
00000110
00000010
00010000
00001000
00011000
00000000
,
00001000
00100000
00001000
00010000
00001000
01000000
00001000
00010000
00001000
00000000
00000000
00000000
00010000
00000000
00011000
00000000
,
00000000
00000000
00001000
01000000
00010000
00000000
00100000
01000000
00010000
00000000
01000000
00100000
00001000
00000000
00000000
00000000
,
00010000
00000010
00010000
00001000
00010000
00000100
00010000
00001000
00010000
00000000
00000000
00000000
00001000
00000000
00011000
00000000
,
00000000
00000000
00010000
00000100
00001000
00000000
00000010
00000100
00001000
00000000
00000100
00000010
00010000
00000000
00000000
00000000
,
00000100
00001000
00000100
00000010
00000001
00001000
00000010
00001000
00000100
00000000
00010000
00001000
00010000
00000000
00011000
00000000
,
00000000
00001000
00010000
00100000
10000000
00010000
01000000
00100000
,
10000000
00000000
01000000
00100000
01000000
00000000
00100000
00001000
00100000
00000000
00001000
00010000
00001000
00000000
00010000
00000100
,
00010000
00001000
00000000
00000010
00000001
00000000
00001000
00000100
00000000
00000001
00000100
00000000
00001000
00000000
00000000
00000000
,
00000001
00000000
00000100
00000010
00000100
00000000
00001000
00000100
00001000
00000000
00010000
00001000
00010000
00000000
00001000
00000000
,
00000000
00001000
01000000
00100000
00000000
00100000
10000000
00010000
,
00100000
00000000
00001000
00010000
00001000
00000000
00010000
00000100
00010000
00000000
00000100
00000000
00001000
00000000
00000010
00000000
,
00000000
00000110
00000000
00002001
00000000
00000001
00003001
00000000
,
00000001
00000000
00000010
00000001
00000010
00000000
00001000
00000010
00001000
00000000
00010000
00001000
00010000
00000000
00001000
00000000
,
00010000
01000000
10000000
00020000
00000000
10000000
10030000
00000000
,
00100000
00000000
10000000
01000000
00100000
00000000
01000000
00100000
00001000
00000000
00100000
00001000
00010000
00000000
00001000
00010000
,
00000100
00000000
00001000
00000100
00000010
00000000
00000100
00000010
00000002
00000000
00000000
00000000
00000003
00000000
00000000
00000000
,
00000001
00000000
00001000
00000010
00000100
00000000
00000001
00000100
00000010
00000000
00001000
00000100
00000010
00000000
00000011
00000000
,
00000000
00000000
00000001
00000000
00000100
00000000
00001000
00000000
00000000
00000000
00010000
00001000
00010000
00001000
00200000
00000000
,
00000000
00000000
00301000
00010000
00001000
00010000
00000020
00000000
00000000
00000000
00010030
00000000
00001000
00000000
00010000
00000000
,
00000000
00001000
00010000
00100000
00000000
10000000
10000000
00000000
,
00010000
00000000
01000000
00100000
00010000
00000000
00100000
01000000
00010000
00000000
00100000
00001000
00010000
00000000
00001000
00000010
,
00000100
00000000
00001000
00000010
00000100
00000000
00001000
00000100
00000010
00000000
00001000
00000000
00000100
00000000
00000010
00000000
,
00000001
00000100
00000110
00000000
00001000
00000100
00000110
00000000
,
00000001
00000000
00000100
00000000
00001000
00000000
00010000
00000000
00100000
00000000
00000000
00100000
00000000
00000000
00100000
00000000
,
20000000
00000000
00000000
00000000
,
00000000
00000000
00000000
30000000
,
10000000
00100000
10000000
00100000
01000000
00010000
01000000
00010000
00100000
00010000
00100000
00010000
00100000
00001000
00100000
00001000
,
00010000
00001000
00010000
00000000
00000100
00010000
00000000
00001000
00010000
00000000
00000010
00001000
00000000
00000100
00002000
00000000
,
00000000
00000000
00003010
00000100
00000001
00001000
00000001
00001000
00000100
00000010
00000001
00000010
00000100
00000000
00001000
00000000
,
00000001
00000100
00000010
00001000
00000010
00020000
00000000
00000000
00031000
00000000
00010000
00001000
00010000
00000000
00001000
00000000
,
00100000
00010000
00100000
00010000
01000000
00010000
01000000
00010000
10000000
00100000
10000000
00100000
10000000
01000000
10000000
01000000
,
00100000
00010000
00100000
00001000
00010000
00001000
00010000
00000010
00010000
00000010
00001000
00000010
00001000
00000100
00001000
00000100
,
00000010
00000000
00000000
00000000
00000000
00000000
00000000
00000110
,
00000000
00001000
00000001
00001001
00000000
00000001
00001000
00000000
,
00000001
00000100
00000010
00001000
00000000
00000010
00000100
00001000
,
00000000
00011000
00000000
00100000
00000000
01100000
00000000
00000000
,
10000000
00000000
00100000
01000000
00100000
00000000
10000000
00010000
10000000
00000000
01000000
00100000
01000000
00000000
10000000
00010000
,
10000000
00010000
01010000
01000000
00001000
00011000
,
00020000
00000000
00000000
00000000
00030000
00000000
00000100
00001000
00000200
00000000
00000000
00000000
00000300
00000000
00000010
00000001
,
00000010
00000100
00000000
00001000
00000100
00000000
00001000
00000010
00000000
00010000
00000010
00000000
00010000
00000000
00000000
00000000
,
00001000
00010000
00001000
00010000
00001000
00100000
00001000
00010000
00001000
00010000
00001000
00010000
00001000
01000000
00001000
00010000
,
00001000
00000000
00010000
00000000
00011000
00000000
00000000
00000000
00001000
00000000
00000000
00010000
00000000
00000000
01000000
00000000
,
00100000
00010000
10000000
01000000
00000000
01100000
00000000
10010000
,
00000000
10000000
01000000
00010000
01000000
00100000
00001000
00000000
,
00010000
00001000
00010000
00001000
00010000
00000100
00010000
00001000
00010000
00001000
00010000
00001000
00010000
00000010
00010000
00001000
,
00010000
00001000
00010000
00000100
00010000
00001000
00010000
00000010
00010000
00000000
00001000
00000000
00000010
00000000
00000001
00000000
,
00000100
00001010
00000100
00000011
,
00000001
00000100
00001000
00000000
00020000
00001000
00031000
00000000
,
00001000
00010000
00100000
00000000
01000000
00010000
00100000
00000000
,
00010000
00000000
00100000
00000000
01000000
00000000
00000000
00000000
10000000
00000000
00000000
00100000
00000000
00000000
00010000
00000000
,
00022000
00000000
00000000
00000000
,
00000000
00000000
00000000
00000000
00033000
00001000
00010000
00002000
,
00000000
00000000
00000000
00000000
,
00003000
00000000
00000000
00000000
00000000
00000100
00000000
00000220
,
00000000
00000000
00000000
00000000
,
00000000
00000000
00000000
00000330
,
00000001
00000100
00000010
00001000
00000100
00001000
00000100
00010000
00001000
00100000
00010000
01000000
00010000
00100000
01000000
00000000
,
10000000
00100000
01000000
00010000
00100000
00000000
01000000
00100000
00001000
00010000
00001000
00000000
00010000
00001000
00000010
00000000
,
00000001
00002002
00000000
00000000
,
00000000
00000000
00000000
00000000
,
00003003
00000000
00000000
00000000
,
00000000
00000000
00000000
00000000
;
