
//----- song ID: pers -----//
#TITLE:PERSIAN LAND;
#ARTIST:FLOXYTEK;
#BANNER:PERSIAN LAND.png;
#BACKGROUND:PERSIAN LAND-bg.png;
#CDTITLE:./CDTitles/DDR A3.png;
#MUSIC:PERSIAN LAND.ogg;
#SAMPLESTART:13.334;
#SAMPLELENGTH:15;
#BPMS:0=180,8=90,24=180;
#STAGE:14;
#NOTES:
     dance-single:
     :
     Beginner:
     4:
     :
0000
0000
0000
0000
,
0000
0000
0000
0000
,
0000
0000
0000
0000
,
0000
0000
0000
0000
,
0001
0000
0010
0000
,
0100
0000
1000
0000
,
1000
0000
0000
0000
,
1000
0000
0000
0000
,
0100
0000
0100
0000
,
1000
0000
0000
0000
,
0010
0000
0000
0000
,
0010
0000
0000
0000
,
0001
0000
0001
0000
,
0010
0000
0000
0000
,
0001
0000
0100
0000
,
0001
0000
0001
0000
,
0010
0000
0010
0000
,
0100
0000
0000
0000
,
1000
0000
0100
0000
,
1000
0000
1000
0000
,
0010
0000
0010
0000
,
0100
0000
0000
0000
,
2000
0000
0000
0000
,
3000
0000
0000
0000
,
0020
0000
0000
0000
,
0030
0000
0000
0000
,
0200
0000
0000
0000
,
0300
0000
0000
0000
,
0002
0000
0000
0000
,
0003
0000
0000
0000
,
0010
0010
0001
0000
,
0100
0000
0001
0000
,
0010
0000
0000
0000
,
0000
0000
0000
0000
,
0010
0010
1000
0000
,
0100
0000
1000
0000
,
0010
0000
0000
0000
,
0000
0000
0000
0000
,
1000
1000
0100
0000
,
1000
0000
0010
0000
,
0100
0000
0000
0000
,
0000
0000
0000
0000
,
0001
0001
0100
0000
,
0001
0000
0010
0000
,
0100
0000
0000
0000
,
0000
0000
0000
0000
,
0001
0000
0000
0000
,
0010
0000
0000
0000
,
0100
0000
0100
0000
,
0100
0000
0000
0000
,
1000
0000
0000
0000
,
0010
0000
0000
0000
,
0100
0000
0100
0000
,
0100
0000
0000
0000
,
0001
0000
0000
0000
,
0100
0000
0000
0000
,
0010
0000
1000
0000
,
0010
0000
0000
0000
,
1000
0000
0000
0000
,
0100
0000
0000
0000
,
0010
0000
0001
0000
,
0010
0000
0000
0000
,
1001
0000
0000
0000
,
0000
0000
0000
0000
,
1001
0000
0000
0000
,
0000
0000
0000
0000
,
0001
0000
0100
0000
,
0001
0000
0100
0000
,
0010
0000
1000
0000
,
0010
0000
0000
0000
,
1000
1000
0010
0000
,
1000
0000
0100
0000
,
0100
0000
1000
0000
,
0001
0000
0000
0000
,
0001
0001
0010
0000
,
0001
0000
0100
0000
,
0100
0000
0001
0000
,
1000
0000
0000
0000
,
1000
0000
0100
0000
,
1000
1000
0010
0000
,
0100
0000
0100
0000
,
0001
0000
0000
0000
,
0001
0000
0100
0000
,
0001
0001
0010
0000
,
0100
0000
0100
0000
,
1000
0000
0000
0000
,
1001
0000
0000
0000
,
0000
0000
0000
0000
;
#NOTES:
     dance-single:
     :
     Easy:
     7:
     :
0000
0000
0000
0000
,
0000
0000
0000
0000
,
0000
0000
0000
0000
,
0000
0000
0000
0000
,
0001
0000
0010
0000
0001
0010
0001
0000
,
1000
0000
0100
0000
1000
1000
1000
0000
,
0001
0100
0001
0100
,
0001
0010
0001
0000
,
1000
0100
0010
0001
,
0010
0100
1000
0000
,
1000
0100
1000
0100
,
1000
0010
1000
0000
,
0001
0100
0010
1000
,
0010
0000
0110
0000
,
1000
0010
0100
0010
,
1000
0100
0010
0100
,
1000
0010
0100
0001
,
1000
0001
1000
0000
,
0001
0010
0100
0010
,
0001
0100
0010
0100
,
0001
0010
0100
1000
,
0001
1000
1001
0000
,
0001
0000
0100
0000
0001
0010
0001
0000
,
1000
0100
0010
0001
,
0100
0000
0010
0000
0100
0010
0100
0000
,
0001
1000
0100
0000
,
1000
0000
0010
0000
1000
0100
1000
0000
,
0001
0010
0100
1000
,
0010
0000
0100
0000
0010
0100
0010
0000
,
1000
0001
0010
0000
,
0001
0001
0100
0100
,
0010
0000
0010
0000
1000
0001
1000
0000
,
0100
0001
0100
1000
,
0010
0000
0100
0000
0010
0100
0010
0000
,
1000
1000
0100
0100
,
0010
0000
0010
0000
0001
1000
0001
0000
,
0100
1000
0100
0001
,
0010
0100
0010
0000
0110
0000
0000
0000
,
0001
1000
0100
1000
,
0001
0010
0100
0010
,
0001
0100
0001
0000
1000
0010
1000
0000
,
0100
0100
0100
0000
,
1000
0001
0010
0001
,
1000
0100
0010
0100
,
1000
0010
1000
0000
0001
0100
0001
0000
,
0010
0010
0010
0000
,
0011
0000
0011
0000
,
0101
0000
0101
0000
,
1001
0000
0110
0000
,
1001
0000
0000
0000
,
1010
0000
1010
0000
,
1100
0000
1100
0000
,
1001
0000
0110
0000
,
1001
0000
0000
0000
,
1000
1000
0100
0000
,
1000
1000
0010
0000
,
0100
0010
0100
0010
,
0100
0000
0110
0000
,
0001
0001
0100
0000
,
0001
0001
0010
0000
,
0100
0010
0100
0010
,
0100
0000
0110
0000
,
0001
1000
0001
0000
1000
0000
0000
0000
,
0010
0100
0010
0000
0100
0000
0000
0000
,
0001
1000
0001
0000
1000
0000
0000
0000
,
0100
0010
0100
0000
0010
0000
0000
0000
,
0001
0010
0100
1000
,
0001
0010
0100
1000
,
0010
1000
0001
0000
0100
0001
1000
0000
,
2002
0000
0000
3003
,
1000
0010
0100
0001
,
0010
0000
0100
0000
1000
0100
0010
0000
,
0001
1000
0100
0010
,
0100
1000
1001
0000
,
0001
0100
0010
1000
,
0100
0000
0010
0000
0001
0010
0100
0000
,
1000
0001
0010
0100
,
0010
0001
1001
0000
,
1000
0000
0010
0000
0100
0010
0100
0000
,
0001
1000
0010
0100
,
0001
0010
1000
0010
,
0001
0000
1000
0000
0001
1000
0001
0000
,
1000
0000
0010
0000
0100
0001
0100
0000
,
0010
1000
0100
0010
,
0001
0100
1000
0100
,
0001
1000
0001
0000
1000
0001
1000
0000
,
1001
0000
0000
0000
,
0000
0000
0000
0000
;
#NOTES:
     dance-single:
     :
     Medium:
     12:
     :
0000
0000
0000
0000
,
0000
0000
0000
0000
,
0000
0000
0000
0000
,
0000
0000
0000
0000
,
0002
0023
0032
0000
2003
3020
2030
0000
,
3002
0000
0023
0000
0230
0000
2300
0000
3001
1000
0001
1000
0001
0000
0000
0000
,
1000
0000
0001
0000
0100
0010
1000
0000
,
0001
0100
0001
0000
1000
0100
1000
0000
,
0001
0000
0010
0000
1000
0010
0001
0000
,
1000
0100
0002
0203
,
1300
0010
1000
0100
,
1000
0010
1000
0100
,
0010
0001
0100
0001
,
0010
0100
0010
0100
0010
0000
0010
0000
,
0001
0000
1000
0000
0010
0100
0001
0000
,
1000
0010
1000
0000
0001
0010
0001
0000
,
1000
0000
0100
0000
0001
0100
1000
0000
,
0001
0010
2000
3020
,
0031
0100
0001
0010
,
0001
0100
0001
0010
,
0100
1000
0010
1000
,
0100
0010
0100
0010
0100
0000
0100
0000
,
1000
0000
0100
0000
1000
0000
0000
0010
1000
0000
0000
0000
1001
0000
0000
0000
,
0001
0000
0100
0000
0001
0000
0000
0010
0001
0000
0000
0000
1001
0000
0000
0000
,
1000
0000
0100
0000
0010
0000
0000
0100
0010
0000
0000
0000
0110
0000
0000
0000
,
0001
0000
0100
0000
0010
0000
0000
0100
0010
0000
0000
0000
0110
0000
0000
0000
,
0001
0000
0010
0000
0001
0000
0000
0100
0001
0000
0000
0000
1001
0000
0000
0000
,
1000
0000
0010
0000
1000
0000
0000
0100
1000
0000
0000
0000
1001
0000
0000
0000
,
0001
0000
0010
0000
0100
0000
0000
0010
0100
0000
0000
0000
0110
0000
0000
0000
,
1000
0000
0010
0000
0100
0000
0000
0010
0100
0000
0000
0000
0110
0000
0000
0000
,
0001
0100
0001
0100
0010
1000
0010
1000
,
0100
0010
0100
1000
0100
0010
0100
0000
,
1100
1000
1010
0010
,
0110
0000
0110
0000
0001
1000
0001
0000
,
1000
0100
1000
0100
0010
0001
0010
0001
,
0100
0010
0100
0001
0100
0010
0100
0000
,
0101
0001
0011
0010
,
0100
0010
0100
0000
0010
0100
0010
0000
,
0001
0100
0010
0100
0001
0010
0100
1000
,
0001
0100
0001
1000
0010
1000
0100
0000
,
0010
0011
0001
1001
,
0100
0000
0110
0000
0001
1000
0001
0000
,
1000
0010
0100
0010
1000
0100
0010
0001
,
1000
0010
1000
0001
0100
0001
0010
0000
,
0100
1100
1000
1001
,
0010
0000
0110
0000
1000
0001
1000
0000
,
0011
0001
0011
0001
,
0101
0000
0000
0001
0000
0000
0100
0001
0100
0001
0000
0000
,
1010
1000
1010
1000
,
1100
0000
0000
1000
0000
0000
0100
1000
0100
1000
0000
0000
,
0001
0000
0000
0100
0000
0000
0010
0000
1000
0010
0000
0000
,
1000
0000
0000
0100
0000
0000
0010
0000
0001
0010
0000
0000
,
0001
0000
1000
0100
0000
0000
1000
0000
0001
0100
0000
0000
,
0010
0000
0010
0200
0000
0000
0010
0000
0010
0000
0310
0000
,
0010
1000
0010
0100
0001
0100
,
0001
0010
0001
1000
0100
1000
,
0001
0010
0100
1000
0010
0100
,
0001
0000
0000
1000
0000
0000
0001
1000
0001
1000
0000
0000
,
0001
0100
0010
0100
0010
1000
,
0001
1000
0100
0010
0100
0010
,
0001
1000
0100
0001
0100
1000
,
0001
0000
0000
1001
0000
0000
1000
0000
0100
0000
0010
0000
,
0002
0000
0010
0000
0103
0010
1000
0100
,
2000
0000
0010
0000
3100
0010
0001
0010
,
0200
0000
0010
0000
1300
0010
0100
0001
,
0020
0000
0100
0000
0031
1000
0001
0000
,
1000
0000
0010
0000
0000
1000
0000
0000
0001
0000
0000
0100
0000
0000
0001
0000
,
0010
0000
0001
0000
0000
0010
0000
0000
0100
0000
0000
1000
0000
0000
0000
0000
,
0100
0000
1000
0000
0000
0010
0000
0000
0100
0000
0000
0001
0000
0000
0010
0000
,
0200
0000
0000
0300
,
0100
1000
0100
1000
0010
0100
0010
0100
,
0001
0010
0001
1000
0001
0010
0001
0000
,
0100
0001
0100
0001
0010
0100
0010
0100
,
1000
0010
1000
0001
1000
0010
1000
0000
,
0001
0100
0001
0100
0010
1000
0010
1000
,
0100
0010
0001
1000
0001
0010
0100
0000
,
1000
0010
1000
0010
0100
0001
0100
0001
,
0010
0100
1000
0001
1000
0100
0010
0000
,
0001
1000
0100
0001
0100
1000
0001
0000
,
0100
0010
1000
0000
0100
0010
0001
0000
,
1000
1100
0001
0101
,
1000
0010
0100
0001
0010
0100
1000
0000
,
1000
0001
0100
1000
0100
0001
1000
0000
,
0100
0010
0001
0000
0100
0010
1000
0000
,
0001
0101
1000
1100
,
0001
0010
0100
1000
0010
0100
0001
0000
,
1001
0000
0000
0000
,
0000
0000
0000
0000
;
#NOTES:
     dance-single:
     :
     Hard:
     15:
     :
0000
0000
0000
0000
,
0000
0000
0000
0000
,
0000
0000
0000
0000
,
0000
0000
0000
0000
,
0002
0203
0302
0203
2300
3200
0302
2003
,
3200
0000
0320
0000
0032
0000
0203
0000
0301
0010
0100
1000
0001
0000
0001
0000
,
1000
0100
1000
0100
0010
0001
0100
0000
,
0010
1000
0100
0000
0010
0001
0100
0000
,
0100
0001
0010
0001
0100
0001
0010
0000
,
0100
1000
0010
1000
0100
0000
1010
0000
,
1000
0010
0001
0000
0001
0010
1000
0000
,
0001
0010
1000
0000
1000
0010
0001
0000
,
1000
0100
0010
0001
0010
0100
1000
0001
,
0100
0000
0010
0100
0000
0010
0100
0000
0001
0000
1000
0001
0000
1000
0001
0000
,
1000
0100
1000
0000
0001
0000
0100
0000
0001
0010
0001
0000
1000
0000
0000
0000
,
0010
1000
0010
0000
0100
0000
0001
0000
0010
0001
0010
0000
0001
0000
0000
0000
,
0100
0001
0100
0000
0001
0000
0010
0000
0100
1000
0100
0000
0010
0000
0100
0000
,
1000
0010
1000
0000
0001
0010
0001
0000
2000
0000
0100
0000
3001
0000
0000
0000
,
1000
0001
1000
0000
0001
0000
0010
0000
0001
1000
0001
0000
0100
0000
0010
0000
,
1000
0100
1000
0000
0010
0000
0100
0000
0001
0010
0001
0000
0100
0000
0010
0000
,
1000
0001
1000
0000
0001
0000
0100
0000
0010
0100
0010
0000
0100
0000
0001
0000
,
1000
0000
1001
0000
0001
0100
1000
0100
,
0001
0000
0100
0000
0010
1000
0000
0010
1000
0000
0100
0000
0010
0000
0001
0000
,
1000
0000
0100
0000
0010
0001
0000
0010
0001
0000
0010
0000
1000
0000
0010
0000
,
0001
0000
1000
0000
0001
0100
0000
0001
0100
0000
0010
0000
1000
0000
0001
0000
,
1000
0000
0010
0000
1000
0100
0000
1000
0100
0000
0010
0000
0100
0000
1000
0000
,
0001
0000
0010
0000
0100
1000
0000
0100
0010
0000
0001
0000
0100
0000
0001
0000
,
1000
0000
0010
0000
0100
0001
0000
0100
0010
0000
1000
0000
0010
0000
0100
0000
,
0001
0000
1000
0000
0100
1000
0000
0010
1000
0000
0100
0000
0010
0000
0001
0000
,
0101
0000
1100
0000
1010
0001
1000
0001
,
1000
0010
0100
0000
0001
0000
0100
0000
0001
0000
0010
0000
0100
0000
0010
0000
,
0001
1000
0100
0000
1000
0000
0001
0000
0100
0000
0001
0000
0010
0000
0001
0000
,
0100
0010
1000
0000
0001
0000
1000
0000
0100
0000
0010
0000
0100
0000
1000
0000
,
0001
0010
0100
0000
1000
0000
0010
0000
1000
0001
1000
0001
1000
0000
0000
0000
,
0001
1000
0100
0000
0010
0000
0001
0000
1000
0000
0100
0000
0001
0000
0100
0000
,
1000
0100
0010
0000
0001
0000
0100
0000
0001
0000
0010
0000
1000
0000
0010
0000
,
0001
0010
0100
0000
1000
0000
0001
0000
0100
0000
1000
0000
0100
0000
0001
0000
,
1000
0000
1000
0000
0010
0100
0010
0000
1000
0000
0001
1000
0000
0001
1000
0000
,
0001
0100
0010
0000
1000
0000
0010
0000
1000
0000
0100
0000
0010
0000
0100
0000
,
1000
0001
0010
0000
0001
0000
1000
0000
0010
0000
1000
0000
0100
0000
1000
0000
,
0010
0100
0001
0000
1000
0000
0001
0000
0010
0000
0100
0000
0010
0000
0001
0000
,
1000
0100
0010
0000
0001
0000
0100
0000
0001
1000
0001
1000
0001
0000
0000
0000
,
1000
0001
0010
0000
0100
0000
1000
0000
0001
0000
0010
0000
1000
0000
0010
0000
,
0001
0010
0100
0000
1000
0000
0010
0000
1000
0000
0100
0000
0001
0000
0100
0000
,
1000
0100
0010
0000
0001
0000
1000
0000
0010
0000
0001
0000
0010
0000
1000
0000
,
0001
0000
1001
0000
0100
0010
0110
0000
,
0001
0000
0001
1000
0000
1000
0010
0100
0010
0100
0000
0000
,
0001
0000
0001
0010
0000
0010
0100
1000
0100
1000
0000
0000
,
0010
0000
0010
1000
0000
1000
0100
0010
0001
0010
0000
0000
,
0100
0000
0000
0110
0000
0000
1000
0001
1000
0001
0000
0000
,
1000
0000
1000
0001
0000
0001
0100
0010
0100
0010
0000
0000
,
1000
0000
1000
0100
0000
0100
0010
0001
0010
0001
0000
0000
,
0100
0000
0100
0001
0000
0001
0010
0100
1000
0100
0000
0000
,
0010
0100
0010
0100
0000
0000
1000
0000
0010
0001
0000
0010
,
1000
0100
1100
0001
0100
0101
,
1000
0000
0010
0000
1010
0000
0001
0010
0001
0010
0001
0000
,
1000
0010
0110
0001
0010
0110
,
1000
0000
0000
1001
0000
0000
1000
0100
0010
0001
0000
0000
,
1000
1010
1010
0001
0011
0011
,
1000
1100
0101
0001
0101
1100
,
0001
0110
1100
1000
0110
0101
,
0001
0100
0010
1000
0100
0010
0001
0000
0001
1000
0000
1000
,
0001
0100
0001
0000
0000
0010
0000
0000
0001
0000
0000
0010
0000
0000
0011
0000
,
1000
0100
1000
0000
0000
0010
0000
0000
1000
0000
0000
0010
1000
0000
0000
0000
,
0010
1000
0010
0000
0000
1000
0000
0000
0100
0000
0000
1000
0000
0000
1100
0000
,
0001
0010
0001
0000
0000
0100
0000
0000
0001
0000
0000
0100
0001
0000
0000
0000
,
1000
0000
0001
0000
0100
0010
0000
1000
0010
0000
0100
0010
0000
1000
0010
0000
,
1000
0000
0100
0000
0010
0001
0000
0010
0100
0000
0010
0001
0010
0000
0000
0000
,
0001
0100
0001
0000
0100
0010
0000
0100
0010
0000
0100
0010
0000
0100
0010
0000
,
2002
0000
0000
3003
,
1001
0000
0000
0001
0010
0000
0000
0001
0100
0000
0000
0010
1000
0000
0000
0100
,
1000
0000
0000
0100
0010
0000
0000
0001
1000
0000
0000
0010
0100
0000
0010
0000
,
1000
0000
0000
0100
0010
0000
0000
0001
0010
0000
0000
0001
1000
0000
0000
0010
,
0100
0000
0000
0001
0100
0000
0000
0010
1000
0100
1000
0100
1000
0000
0000
0000
,
0001
0000
0000
0001
0100
0000
0000
0100
0010
0000
0000
0010
0100
0000
0000
0100
,
0001
0000
0000
0001
1000
0000
0000
1000
0100
0000
0000
0100
0010
0000
0100
0000
,
0010
0000
0000
0010
0001
0000
0000
0001
1000
0000
0000
1000
0100
0000
0000
0100
,
1000
0000
1001
0000
0100
0100
0100
0000
,
1000
0010
1000
0000
0001
0000
1000
0000
0010
0100
0010
0000
1000
0000
0100
0000
,
0010
0001
0010
0000
0001
0000
0100
0000
0010
0100
0010
0000
0100
0000
0001
0000
,
1000
0010
1000
0000
0100
0000
0010
0000
0001
1000
0001
0000
0100
0000
0010
0000
,
1000
0001
1000
0000
0001
0000
0010
0000
0002
0000
0100
0000
1003
0000
0000
0000
,
1001
0000
0000
0000
0110
0000
0000
0000
0001
0010
0100
0000
1000
0000
0001
0000
,
0100
0010
1000
0000
0010
0000
0100
0000
0001
0010
0100
0000
1000
0000
0010
0000
,
0100
0000
0100
0000
0010
0100
0010
0000
2000
0000
0000
0000
3002
0000
0000
0000
,
1003
0000
0100
0010
0000
0100
0010
0000
0001
0000
0100
0010
0000
0100
0010
0000
,
1001
0000
0000
0000
,
0000
0000
0000
0000
;
#NOTES:
     dance-double:
     :
     Easy:
     7:
     :
00000000
00000000
00000000
00000000
,
00000000
00000000
00000000
00000000
,
00000000
00000000
00000000
00000000
,
00000000
00000000
00000000
00000000
,
00000001
00000000
00000001
00000000
00000100
00000010
00000100
00000000
,
00001000
00000000
00010000
00000000
00001000
00010000
00001000
00000000
,
00010000
00001000
00100000
00001000
,
00010000
00001000
01000000
00000000
,
00010000
00100000
01000000
00100000
,
00001000
00010000
00001000
00000000
,
00001000
00010000
00000010
00010000
,
00001000
00010000
00000100
00000000
,
00001000
00000010
00000100
00000010
,
00010000
00001000
00010000
00000000
,
00001000
00010000
00000100
00001000
,
00000010
00000100
00000001
00000010
,
00001000
00000010
00000001
00001000
,
00000100
00010000
00001000
00000000
,
00010000
00001000
01000000
00010000
,
00100000
01000000
10000000
00100000
,
00010000
00100000
10000000
00010000
,
01000000
00001000
00010000
00000000
,
00001000
00000000
00010000
00000000
00000010
00001000
00000010
00000000
,
00001000
00000100
00000010
00000001
,
00000100
00000000
00000010
00000000
00001000
00000001
00001000
00000000
,
00000100
00010000
00001000
00000000
,
00010000
00000000
00001000
00000000
01000000
00010000
01000000
00000000
,
00010000
00100000
01000000
10000000
,
00100000
00000000
01000000
00000000
00010000
10000000
00010000
00000000
,
00100000
00001000
00010000
00000000
,
00001000
00010000
00000100
00001000
,
00000100
00000000
00010000
00000000
00001000
00100000
00001000
00000000
,
00010000
00100000
01000000
00100000
,
00010000
00001000
00010000
00011000
,
00010000
00001000
01000000
00010000
,
01000000
00000000
00001000
00000000
00010000
00000010
00010000
00000000
,
00001000
00000010
00000100
00000010
,
00001000
00010000
00001000
00011000
,
00010000
00001000
01000000
00010000
,
00100000
01000000
10000000
00100000
,
01000000
00010000
01000000
00000000
00010000
00100000
00010000
00000000
,
00100000
00001000
00011000
00000000
,
00001000
00010000
00000100
00001000
,
00000010
00000100
00000001
00000010
,
00000100
00001000
00000100
00000000
00001000
00000010
00001000
00000000
,
00000010
00010000
00011000
00000000
,
00010100
00000000
00010100
00000000
,
00001100
00000000
00001100
00000000
,
00000011
00000000
00000011
00000000
,
00001001
00000000
00000000
00000000
,
00000101
00000000
00000101
00000000
,
00001100
00000000
00001100
00000000
,
00011000
00000000
00010010
00000000
,
00011000
00000000
00000000
00000000
,
00001000
00001000
00100000
00000000
,
00010000
00010000
01000000
00000000
,
00100000
10000000
01000000
00010000
,
00001000
00000000
00011000
00000000
,
00010000
00010000
00000010
00000000
,
00001000
00001000
00000100
00000000
,
00000010
00000001
00000100
00001000
,
00010000
00000000
00011000
00000000
,
00010000
00001000
01000000
00010000
,
00100000
01000000
00100000
00000000
00010000
00000000
00000000
00000000
,
00100000
00001000
00010000
00000100
,
00001000
00000010
00001000
00000000
00000100
00000000
00000000
00000000
,
00001000
00000010
00000100
00001000
,
00010000
00001000
00010000
00000000
00001000
00000000
00000000
00000000
,
00010000
00100000
01000000
00100000
,
20020000
00000000
00000000
30030000
,
10000000
01000000
10000000
01000000
,
00100000
00000000
00010000
00000000
00100000
00010000
00100000
00000000
,
00001000
00010000
00000100
00001000
,
00000001
00000010
00000011
00000000
,
00000001
00000100
00000001
00000100
,
00000010
00000000
00001000
00000000
00000010
00001000
00000010
00000000
,
00010000
00001000
01000000
00010000
,
10000000
00100000
10100000
00000000
,
10000000
00000000
01000000
00000000
10000000
00100000
10000000
00000000
,
00010000
01000000
00001000
00010000
,
00000100
00001000
00000100
00000010
,
00000100
00000000
00000001
00000000
00000100
00000010
00000100
00000000
,
00000010
00000001
00000100
00000010
,
00001000
00000100
00010000
00001000
,
00100000
00001000
00010000
00100000
,
01000000
00100000
01000000
00000000
00010000
10000000
00010000
00000000
,
10010000
00000000
00000000
00000000
,
00000000
00000000
00000000
00000000
;
#NOTES:
     dance-double:
     :
     Medium:
     12:
     :
00000000
00000000
00000000
00000000
,
00000000
00000000
00000000
00000000
,
00000000
00000000
00000000
00000000
,
00000000
00000000
00000000
00000000
,
00002000
00023000
00130000
00000000
00020000
00032000
00003010
00000000
,
00002000
00000000
00023000
00000000
00032000
00000000
00023000
00000000
00031000
00010000
00001000
00010000
00001000
00000000
00011000
00000000
,
00001000
00000000
00010000
00000000
00001000
00000100
00000001
00000000
,
00000010
00000001
00000010
00000000
00000100
00001000
00000100
00000000
,
00010000
00000000
00001000
00000000
00010000
00001000
00010000
00000000
,
00001000
00010000
02000000
23000000
,
30100000
01000000
00010000
00100000
,
00001000
00010000
01000000
00100000
,
00010000
01000000
00100000
00010000
,
00001000
00010000
00001000
00010000
00001000
00000000
00011000
00000000
,
00010000
00000000
00001000
00000000
00010000
01000000
10000000
00000000
,
00100000
10000000
00100000
00000000
01000000
00010000
01000000
00000000
,
00001000
00000000
00010000
00000000
00001000
00010000
00001000
00000000
,
00010000
00001000
00000200
00000302
,
00000013
00000100
00001000
00000010
,
00010000
00001000
00000100
00000010
,
00001000
00000100
00000010
00001000
,
00010000
00001000
00010000
00001000
00010000
00000000
00011000
00000000
,
00000000
00000000
00010000
00000000
00000000
00000010
00000000
00000000
00001000
00000000
00000000
00000000
00001010
00000000
00000000
00000000
,
00000000
00000000
00000001
00000000
00000000
00000100
00000000
00000000
00001000
00000000
00000000
00000000
00011000
00000000
00000000
00000000
,
00000000
00000000
00001000
00000000
00000000
00010000
00000000
00000000
00100000
00000000
00000000
00000000
01100000
00000000
00000000
00000000
,
00000000
00000000
10000000
00000000
00000000
00010000
00000000
00000000
01000000
00000000
00000000
00000000
10010000
00000000
00000000
00000000
,
00000000
00000000
00100000
00000000
00000000
10000000
00000000
00000000
01000000
00000000
00000000
00000000
01100000
00000000
00000000
00000000
,
00000000
00000000
00100000
00000000
00000000
00001000
00000000
00000000
00010000
00000000
00000000
00000000
00011000
00000000
00000000
00000000
,
00000000
00000000
00001000
00000000
00000000
00010000
00000000
00000000
00000010
00000000
00000000
00000000
00001010
00000000
00000000
00000000
,
00000000
00000000
00001000
00000000
00000000
00000100
00000000
00000000
00000010
00000000
00000000
00000000
00000110
00000000
00000000
00000000
,
00000001
00000010
00000001
00000010
00000100
00001000
00000100
00000010
,
00000100
00010000
00001000
00010000
00000100
00010000
00001000
00010000
,
00100000
01000000
00010000
00000000
00100000
01000000
00010000
01000000
,
10000000
00000000
10010000
00000000
00010000
10000000
00010000
00000000
,
10000000
00100000
10000000
00100000
01000000
00010000
01000000
00100000
,
01000000
00001000
00010000
00001000
01000000
00001000
00010000
00001000
,
00000010
00000100
00001000
00000000
00000010
00000100
00001000
00000100
,
00000001
00000000
00001001
00000000
00001000
00000001
00001000
00000000
,
00000001
00000010
00000100
00000010
00000001
00001000
00000010
00000100
,
00001000
00000100
00001000
00010000
00001000
00010000
00100000
01000000
,
00001000
00010000
00001000
00000000
01000000
00010000
00100000
00000000
,
01000000
00000000
01100000
00000000
00010000
10000000
00010000
00000000
,
10000000
01000000
00100000
01000000
10000000
00010000
01000000
00100000
,
00010000
00100000
00010000
00001000
00010000
00001000
00000100
00000010
,
00010000
00001000
00010000
00000000
00000010
00001000
00000100
00000000
,
00000010
00000000
00000110
00000000
00001000
00000001
00001000
00000000
,
00000001
00000010
00000001
00000101
,
00000100
00000010
00001000
00001010
,
00000010
00010000
00001000
00010000
,
00011000
00000000
00000000
00011000
00000000
00000000
00001000
00010000
00001000
00010000
00000000
00000000
,
00001000
00100000
00010000
00110000
,
00100000
00010000
01000000
01100000
,
00100000
10000000
00010000
10000000
,
00010000
00000000
10000000
00010000
00000000
00000000
01000000
00000000
00100000
01000000
00000000
00100000
,
10000000
01000000
10000000
00010000
00100000
00010000
,
00100000
00001000
00001000
00010000
00000100
00000100
,
00001000
00000010
00001000
00000001
00000100
00000001
,
00000010
00000000
00000000
00000110
00000000
00000000
00000001
00001000
00000001
00001000
00000000
00000000
,
00000001
00000100
00000001
00001000
00000010
00001000
,
00000010
00010000
00010000
00001000
01000000
01000000
,
00010000
00100000
00010000
10000000
01000000
10000000
,
00100000
00000000
00000000
01100000
00000000
00000000
10000000
00010000
10000000
00010000
00000000
00000000
,
20000000
00000000
00100000
00000000
31000000
00100000
00010000
00100000
,
00002000
00000000
00010000
00000000
01003000
00010000
00100000
00001000
,
02000000
00000000
00010000
00000000
03001000
00010000
00000100
00001000
,
00000020
00000000
00000100
00000000
00001030
00000001
00000100
00000000
,
00000002
00000000
00000100
00000000
00000013
00000100
00001000
00000100
,
00020000
00000000
00001000
00000000
00030010
00001000
00000100
00010000
,
00000020
00000000
00001000
00000000
00010030
00001000
00100000
00010000
,
02000000
00000000
00100000
00000000
03010000
10000000
00100000
00000000
,
10000000
00100000
10000000
00010000
00100000
01000000
00100000
00000000
,
00001000
00010000
00000100
00000000
00010000
00001000
00000010
00000000
,
00000001
00000100
00000001
00000010
00000100
00001000
00000100
00000000
,
00010000
00001000
00100000
00000000
00010000
01000000
00100000
00000000
,
01000000
00100000
10000000
01000000
00100000
01000000
10000000
00000000
,
00010000
00100000
00001000
00000000
00010000
00000100
00001000
00000000
,
00000100
00001000
00000010
00000100
00000001
00000100
00000010
00000000
,
00001000
00000100
00010000
00000000
00001000
00010000
00001000
00000000
,
00010000
00001000
00010000
00100000
01000000
00100000
10000000
00000000
,
00010000
01000000
10000000
00000000
10000000
01000000
00010000
00000000
,
10000000
11000000
00010000
00110000
,
00100000
00001000
00010000
00001000
00010000
00000010
00010000
00000000
,
00001000
00010000
00001000
00000010
00000100
00000010
00000001
00000000
,
00001000
00000100
00000001
00000000
00000001
00000100
00001000
00000000
,
00000001
00000101
00001000
00001010
,
00000010
00010000
00001000
00010000
00001000
00100000
00001000
00000000
,
00011000
00000000
00000000
00000000
,
00000000
00000000
00000000
00000000
;
#NOTES:
     dance-double:
     :
     Hard:
     15:
     :
00000000
00000000
00000000
00000000
,
00000000
00000000
00000000
00000000
,
00000000
00000000
00000000
00000000
,
00000000
00000000
00000000
00000000
,
20000000
30200000
02300000
03020000
20030000
32000000
03020000
00032000
,
00003020
00000000
00000032
00000000
00002003
00000000
00003200
00000000
00000310
00000001
00000010
00000100
00001000
00000000
00001000
00000000
,
00000001
00000100
00000001
00000100
00000010
00001000
00000010
00001000
,
00000100
00010000
00001000
00010000
00000100
00010000
00001000
00000000
,
00100000
00010000
00100000
00010000
10000000
01000000
10000000
01000000
,
00100000
00010000
00100000
01000000
00100000
00000000
01100000
00000000
,
10000000
01000000
10000000
01000000
00100000
00010000
00100000
00010000
,
01000000
00001000
00010000
00001000
01000000
00001000
00010000
00000000
,
00000010
00001000
00000010
00001000
00000001
00000100
00000001
00000100
,
00000010
00000000
00001000
00000010
00000000
00001000
00000010
00000000
00000100
00000000
00000001
00000100
00000000
00000001
00000100
00000000
,
00000001
00000010
00000001
00000000
00000010
00000000
00000100
00000000
00001000
00000000
00000010
00000000
00001000
00000000
00000100
00000000
,
00010000
00001000
00100000
00001000
00010000
00001000
01000000
00001000
,
00010000
00001000
00010000
00000000
00100000
00000000
01000000
00000000
00010000
00100000
00010000
00000000
10000000
00000000
01000000
00000000
,
00100000
00010000
00100000
00000000
01000000
00000000
10000000
00000000
00020000
00000000
01000000
00000000
10030000
00000000
00000000
00000000
,
10000000
00100000
10000000
00000000
00100000
00000000
01000000
00000000
00010000
00000000
00100000
00000000
00010000
00000000
01000000
00000000
,
00001000
00010000
00000010
00010000
00001000
00010000
00000100
00010000
,
00001000
00010000
00001000
00000000
00000010
00000000
00000100
00000000
00001000
00000010
00001000
00000000
00000001
00000000
00000100
00000000
,
00000010
00000000
00000110
00000000
00001000
00000001
00001001
00000000
,
00000001
00000000
00000100
00000000
00000001
00000010
00000000
00000001
00000010
00000000
00000100
00000000
00001000
00000000
00000010
00000000
,
00010000
00000000
00001000
00000000
00010000
00001000
00000000
00010000
00001000
00000000
00100000
00000000
00010000
00000000
01000000
00000000
,
00100000
00000000
10000000
00000000
01000000
10000000
00000000
01000000
10000000
00000000
00010000
00000000
00100000
00000000
00001000
00000000
,
00010000
00000000
00000100
00000000
00001000
00000100
00000000
00001000
00000100
00000000
00000010
00000000
00000001
00000000
00001000
00000000
,
00000001
00000000
00000100
00000000
00000010
00001000
00000000
00000100
00000010
00000000
00000100
00000000
00010000
00000000
00001000
00000000
,
00100000
00000000
00010000
00000000
01000000
00010000
00000000
00100000
01000000
00000000
10000000
00000000
00010000
00000000
01000000
00000000
,
00100000
00000000
01000000
00000000
00010000
01000000
00000000
00001000
00100000
00000000
00001000
00000000
00010000
00000000
00000100
00000000
,
00001100
00000000
00000110
00000000
00000011
00000001
00001000
00000001
,
00000100
00001000
00010000
00001000
00000010
00001000
00010000
01000000
,
00010000
00001000
00010000
00100000
10000000
00010000
00100000
01000000
,
10000000
01000000
00010000
01000000
10000000
00100000
00010000
00100000
,
01000000
00000000
00001000
00000000
00010000
00000000
01000000
00000000
10000000
00000000
00010000
10000000
00010000
00000000
10000000
00000000
,
01000000
00010000
00001000
00010000
00100000
00010000
00001000
00000100
,
00001000
00010000
00001000
00000010
00000001
00001000
00000010
00000100
,
00000001
00000100
00001000
00000100
00000001
00000010
00001000
00000010
,
00000100
00000000
00000100
00000000
00010000
00001000
00010000
00000000
00000010
00000000
00000100
00000010
00000000
00000100
00000010
00000000
,
00001000
00000010
00001000
00000000
00000001
00000000
00000010
00000000
00000100
00000000
00010000
00000000
00001000
00000000
00100000
00000000
,
00010000
01000000
00010000
00000000
00100000
00000000
01000000
00000000
10000000
00000000
00100000
00000000
01000000
00000000
00100000
00000000
,
10000000
00100000
10000000
00000000
00010000
00000000
01000000
00000000
00001000
00000000
00010000
00000000
00000100
00000000
00001000
00000000
,
00000010
00001000
00000010
00000000
00001000
00000000
00000100
00000000
00001000
00000001
00001000
00000001
00001000
00000000
00000000
00000000
,
00000001
00000100
00000001
00000000
00001000
00000000
00000010
00000000
00001000
00000000
00000100
00000000
00010000
00000000
00001000
00000000
,
00010000
00001000
00010000
00000000
01000000
00000000
00100000
00000000
00010000
00000000
10000000
00000000
00010000
00000000
01000000
00000000
,
00100000
10000000
00100000
00000000
01000000
00000000
00010000
00000000
00100000
00000000
00001000
00000000
00010000
00000000
00001000
00000000
,
00010000
00000000
00011000
00000000
00001000
00001000
00001000
00000000
,
00010000
00000000
00010000
00000100
00000000
00000100
00001000
00000000
00001000
00000010
00000000
00000010
,
00000100
00000000
00000100
00000001
00000000
00000001
00000010
00000100
00000010
00000100
00000000
00000000
,
00010000
00000000
00010000
00001000
00000000
00001000
00100000
00000000
00100000
00010000
00000000
00010000
,
01000000
00000000
00000000
01100000
00000000
00000000
00010000
10000000
00010000
10000000
00000000
00000000
,
00010000
00000000
00010000
01000000
00000000
01000000
00001000
00000000
00001000
00010000
00000000
00010000
,
00000100
00000000
00000100
00001000
00000000
00001000
00000010
00000100
00000010
00000100
00000000
00000000
,
00000001
00000000
00000001
00000010
00000000
00000010
00000100
00000000
00000100
00010000
00000000
00010000
,
00001000
00010000
00001000
00010000
00000000
00000000
00001000
00000000
01000000
00010000
00000000
00100000
,
00010000
10000000
10000000
01000000
00010000
00010000
,
00001000
00000010
00000001
00000001
00000010
00001000
,
00010000
00001000
00001000
00000100
00000001
00000001
,
00001000
00000000
00000000
00001001
00000000
00000000
00001000
00000100
00000010
00000001
00000000
00000000
,
00001000
00000001
00000001
00000100
00001000
00001000
,
00010000
00100000
10000000
10000000
00100000
00010000
,
00001000
00010000
00010000
01000000
10000000
10000000
,
00010000
00100000
01000000
10000000
01000000
00100000
00010000
00000000
00010000
01000000
00000000
01000000
,
00001000
00010000
00001000
00000000
00000000
00010000
00000000
00000000
00000100
00000000
00000000
00001000
00000000
00000000
00000100
00000000
,
00000010
00000001
00000010
00000000
00000000
00000001
00000000
00000000
00000100
00000000
00000000
00000001
00000100
00000000
00000000
00000000
,
00000010
00001000
00000010
00000000
00000000
00001000
00000000
00000000
00000100
00000000
00000000
00010000
00000000
00000000
00001000
00000000
,
00010000
00001000
00010000
00000000
00000000
00001000
00000000
00000000
01000000
00000000
00000000
00010000
01000000
00000000
00000000
00000000
,
00010000
00000000
10000000
00000000
01000000
00100000
00000000
01000000
00100000
00000000
01000000
00100000
00000000
01000000
00100000
00000000
,
00001000
00000000
00010000
00000000
00001000
00010000
00000000
00001000
00010000
00000000
00001000
00010000
00001000
00000000
00000000
00000000
,
00010000
00000010
00010000
00000000
00000010
00001000
00000000
00000010
00001000
00000000
00000010
00001000
00000000
00000010
00001000
00000000
,
00000002
00000000
00000000
00000003
,
00001001
00000000
00000000
00000001
00000100
00000000
00000000
00000100
00001000
00000000
00000000
00001000
00010000
00000000
00000000
00010000
,
00100000
00000000
00000000
00100000
10000000
00000000
00000000
10000000
00010000
00000000
00000000
00010000
00100000
00000000
01000000
00000000
,
10000000
00000000
00000000
10000000
01000000
00000000
00000000
01000000
00010000
00000000
00000000
00010000
00001000
00000000
00000000
00001000
,
00000010
00000000
00000000
00000010
00000001
00000000
00000000
00000001
00001000
00000100
00001000
00000100
00001000
00000000
00000000
00000000
,
00000001
00000000
00000000
00000001
00001000
00000000
00000000
00001000
00000010
00000000
00000000
00000010
00010000
00000000
00000000
00010000
,
00001000
00000000
00000000
00001000
00100000
00000000
00000000
00100000
00010000
00000000
00000000
00010000
10000000
00000000
00010000
00000000
,
01000000
00000000
00000000
01000000
00001000
00000000
00000000
00001000
00010000
00000000
00000000
00010000
00000100
00000000
00000000
00000100
,
00001000
00000000
00001001
00000000
00000100
00000100
00000100
00000000
,
00000001
00001000
00000001
00000000
00000100
00000000
00000010
00000000
00001000
00000100
00001000
00000000
00000100
00000000
00010000
00000000
,
00001000
00100000
00001000
00000000
00010000
00000000
00001000
00000000
01000000
00010000
01000000
00000000
00010000
00000000
00100000
00000000
,
01000000
10000000
01000000
00000000
10000000
00000000
00100000
00000000
01000000
00100000
01000000
00000000
00010000
00000000
00100000
00000000
,
00001000
01000000
00001000
00000000
01000000
00000000
00010000
00000000
00200000
00000000
00010000
00000000
01300000
00000000
00000000
00000000
,
01100000
00000000
00000000
00000000
10010000
00000000
00000000
00000000
10000000
01000000
00100000
00000000
00010000
00000000
00100000
00000000
,
00010000
01000000
00001000
00000000
00010000
00000000
00001000
00000000
00010000
00000100
00001000
00000000
00000010
00000000
00000100
00000000
,
00000001
00000000
00000001
00000000
00000100
00000010
00001000
00000000
00000002
00000000
00000000
00000000
00002003
00000000
00000000
00000000
,
00003001
00000000
00000100
00001000
00000000
00000100
00001000
00000000
00010000
00000000
00100000
10000000
00000000
00100000
10000000
00000000
,
10010000
00000000
00000000
00000000
,
00000000
00000000
00000000
00000000
;
